#TITLE:Sealed Time;
#SUBTITLE:Ys III (1989);
#ARTIST:Falcom Sound Team JDK;
#TITLETRANSLIT:;
#SUBTITLETRANSLIT:;
#ARTISTTRANSLIT:;
#CREDIT:;
#BANNER:Sealed Time.jpg;
#BACKGROUND:Sealed Time-bg.jpg;
#LYRICSPATH:;
#CDTITLE:Almsty.png;
#MUSIC:Sealed Time.mp3;
#OFFSET:-0.308;
#SAMPLESTART:65.467;
#SAMPLELENGTH:10.080;
#SELECTABLE:YES;
#BPMS:0.000=150.910;
#STOPS:;
#BGCHANGES:;
// cache tags:
#FIRSTBEAT:0.000;
#LASTBEAT:420.500;
#SONGFILENAME:Songs/VGMP 3/Sealed Time (Almsty)/Sealed Time.sm;
#HASMUSIC:1;
#HASBANNER:1;
#MUSICLENGTH:169.613;
// end cache tags

//---------------dance-single - ----------------
#NOTES:
     dance-single:
     :
     Hard:
     11:
     1.000,1.000,0.985,0.572,1.000,1163.000,167.000,97.000,0.000,20.000:

1001
0010
0001
0100
0010
1000
0100
0010
1000
0001
0010
0100
0001
0010
0100
1000
,
1001
0100
0000
0101
0010
0000
1000
0100
1000
0000
0001
0010
2200
3300
0010
0001
,
0100
0000
0010
1000
1100
0000
0001
0010
0001
0100
0010
0000
1010
0000
0100
0000
,
0000
0000
1000
0000
0100
0000
0000
0000
0010
0000
0000
0000
0001
0000
0000
0000
0010
0001
0100
0010
0000
1000
0000
0000
0101
0000
0000
0000
0001
0000
0100
0000
,
0001
0000
1000
0001
0110
0000
1000
0000
0010
0001
0100
1000
0100
0010
0001
0100
,
0011
0100
0000
1100
0001
0000
0100
0010
0100
0000
0100
0010
0022
0000
0133
0001
,
1000
0000
0010
1000
0110
0000
0001
0010
1000
0100
0010
0000
0101
0000
0010
0000
,
0000
0000
0100
0000
0010
0000
0000
0000
0001
0000
0000
0000
0100
0000
0000
0000
0010
1000
0001
1000
0000
0100
0000
0000
0011
0000
0000
0000
0001
0000
0100
0000
,
1000
0000
0010
0001
1100
0000
0100
0000
0011
1000
0110
0010
0101
0010
1000
0110
,
2001
0000
0000
0000
3200
0000
0000
0000
0320
0000
0000
0000
0032
0000
0023
0130
,
1000
0000
0001
0100
1001
0000
0100
1000
0001
0000
1000
0100
2100
0000
3002
0000
,
0103
0000
0010
1000
0110
0000
0001
0010
0100
0000
0012
0000
0123
0000
1032
0000
,
0103
0000
0010
0100
1001
0000
0010
0001
0010
0000
0100
1000
0101
0000
0010
1000
,
0200
0000
1300
0010
0101
0000
1000
0001
0100
0000
0020
0000
2032
0000
3203
0001
,
1300
0000
0001
0100
1010
0000
0001
0100
0001
0000
0010
1000
0110
0000
0001
0010
,
0200
0000
0301
1000
0101
0000
0010
1000
0100
0000
0001
0100
2010
0000
3002
0100
,
0010
0000
1000
0100
1023
0000
2030
0000
0000
0000
3002
0010
1103
0000
0010
1000
,
0020
0000
0030
0000
2002
0000
0000
0000
3103
0000
0010
1000
0100
0000
0001
0100
,
2000
0000
0000
0000
3100
0000
1000
0010
0002
0000
0000
0000
0100
0000
0000
0003
,
2000
0000
0000
0000
3100
0000
0010
1000
0200
0000
0000
0000
0310
0000
0001
1000
,
0002
0000
0100
0000
0010
0000
1000
0000
0100
0000
0010
0000
0103
0000
0010
0001
,
0100
0000
0020
0030
0220
0000
0000
0330
0001
0000
0100
1000
0110
0000
0010
0001
,
1000
0000
0100
0010
0101
0000
0010
0000
1000
0000
0100
0000
0010
0000
0001
0000
,
2000
0000
0000
0000
0010
0000
0000
0000
0000
0000
0000
0000
3200
0000
0000
0000
0000
0000
0000
0000
0302
0000
1000
0000
0100
0000
0000
0000
0023
0000
1000
0001
,
0230
0000
0010
0000
0001
0000
0001
0000
0310
0000
1000
0001
0100
0000
1000
0000
,
0001
1000
0100
0010
0000
0000
0100
0010
1000
0100
0010
0001
0100
0000
0000
0000
,
0100
0010
1000
0001
0000
0000
1000
0001
0100
0010
1000
0001
0010
0000
0000
0000
,
1100
0010
0001
0100
0000
0010
0000
1000
,
0000
0100
0000
0010
0101
0000
1010
0000
,
0001
0100
0010
0100
0000
0000
0100
0010
1000
0100
1000
0001
0100
0000
0000
0000
,
0010
0001
1000
0100
0000
0000
0100
0001
1000
0010
0001
0100
0010
0000
0000
0000
,
1001
0001
0100
0010
0000
1000
0000
0010
,
0000
0000
0100
0000
0000
0000
0001
0000
0000
0010
0100
0000
0010
0000
1000
0001
,
0010
0001
0100
0010
0000
0000
1000
0100
1000
0010
0100
0010
0001
0000
0000
0000
,
0100
0010
0001
1000
0000
0000
0010
0100
1000
0010
0001
0010
0100
0000
0000
0000
,
1001
0100
0010
0100
0000
1000
0000
0010
,
0000
0001
0000
0100
0110
0000
0011
0000
,
0100
1000
0001
0100
0000
0000
0100
1000
0100
0010
0001
0010
0100
0000
0000
0000
,
0001
1000
0010
0001
0000
0000
0001
0010
1000
0100
0010
0001
0100
0000
0000
0000
,
0110
0000
1000
0000
0010
0000
0100
0000
0010
1000
0001
0100
1001
0000
0220
0000
,
0000
0000
0000
0000
0000
0000
0330
0000
0011
1000
0001
0010
0100
0001
1000
0100
,
0110
0001
0000
1001
0010
0000
1000
0001
1000
0000
0010
1000
0202
0303
0010
0001
,
0100
0000
1000
0100
1010
0000
0010
0100
0001
0010
0100
0000
1100
0000
0010
0000
,
0000
0000
0100
0000
0010
0000
0000
0000
1000
0000
0000
0000
0001
0000
0000
0000
0100
0010
1000
0001
0000
0100
0000
0000
1010
0000
0000
0000
0100
0000
1000
0000
,
0001
0000
0100
0010
1100
0000
0010
0000
0100
0010
1000
0100
0010
0100
1000
0001
,
0011
1000
0000
0110
0000
0101
0000
1001
0100
0000
1000
0001
0220
0000
0331
0100
,
0001
0000
0100
0010
1001
0000
0100
0010
1000
0010
0001
0000
0011
0000
0100
0000
,
0000
0000
1000
0000
0100
0000
0000
0000
0010
0000
0000
0000
0001
0000
0000
0000
0100
0010
1000
0001
0000
0010
0000
0000
1001
0000
0000
0000
0001
0000
0100
0000
,
0010
0000
1000
0100
0011
0000
0100
0010
1001
0010
0101
0010
1100
0010
0001
0100
,
1001
0100
0000
1010
0000
0110
0000
0101
0000
0001
0000
0000
0202
0000
0313
1000
,
0100
0000
0010
0001
0110
0000
0001
1000
0010
0100
0010
0000
0101
0000
0010
0000
,
0000
0000
1000
0000
0001
0000
0000
0000
0100
0000
0000
0000
0010
0000
0000
0000
1000
0100
1000
0100
1000
0100
1000
0100
1000
0100
1000
0100
1000
0100
1000
0001
,
0100
0010
0100
0010
0100
0010
0100
0000
0100
0001
0010
1000
0100
0010
0001
0100
,
1001
0001
0000
0011
0000
1100
0000
0110
0000
1001
0000
0100
0000
0000
0010
1001
,
0100
0000
0001
1000
0110
0000
0001
0100
0001
0010
0100
0000
0011
0000
1000
0000
,
0000
0000
0100
0000
0010
0000
0000
0000
0001
0000
0000
0000
1000
0000
0000
0000
0010
1000
0010
1000
0010
1000
0010
1000
0010
1000
0010
1000
0010
1000
0010
1000
,
0001
0100
0001
0100
0001
0100
0001
0000
1010
0001
1001
0100
0011
1000
0001
0110
,
1002
0000
0000
0000
0023
0000
0000
0000
0230
0000
0000
0000
2300
0000
3200
0301
,
0010
0000
1000
0100
1010
0000
1000
0001
1000
0000
0010
0100
2010
0000
3002
0010
,
0103
0000
1000
0010
0101
0000
1000
0001
0100
0000
0012
0000
0123
0000
2031
0100
,
3010
0000
0001
0010
1100
0000
0010
0001
0100
0000
0010
1000
0011
0000
0100
0010
,
2000
0000
3100
0001
0110
0000
1000
0100
0001
0000
1002
0000
0223
0000
2331
0100
,
3010
0000
0001
0100
1010
0000
0001
0100
1000
0000
0100
0010
0101
0000
0001
0010
,
0200
0000
0301
1000
0110
0000
0010
1000
0100
0000
0010
0001
0120
0000
2030
0100
,
0010
0000
0001
3010
0102
0000
2003
0000
0000
0000
3200
0301
1010
0000
0001
0010
,
2000
0000
3000
0000
0220
0000
1330
0001
1000
0000
0010
0100
1010
0000
0001
0010
,
0200
0000
0000
0000
0310
0000
1000
0001
0200
0000
0000
0000
0010
0000
0000
0300
,
2000
0000
0000
0000
3100
0000
0010
0001
0200
0000
0000
0000
0310
0000
1000
0001
,
0020
0000
0100
0000
1000
0000
0100
0000
0001
0000
0001
0000
0130
0000
1000
0001
,
1000
0000
0002
0003
2002
0000
0000
3003
0010
0000
1000
0100
0011
0000
0010
0100
,
0001
0000
0010
1000
0110
0000
0001
0000
0010
0000
0100
0000
1000
0000
0001
0000
,
0200
0000
0000
0000
0010
0000
0000
0000
0000
0000
0000
0000
0302
0000
0000
0000
0000
0000
0000
0000
2003
0000
0100
0000
0001
0000
0000
0000
3100
0001
0100
0000
,
0020
0000
1000
0000
0001
0000
0100
0000
0031
0000
0000
1001
0110
0000
0001
1000
,
0010
0100
0001
1000
0010
0100
0001
1000
0010
0100
0001
1000
0010
0100
0001
1000
,
0010
0000
0100
0000
0001
0000
1000
0000
0010
0000
0100
0000
0001
0000
1000
0000
0010
0000
0100
0000
0001
0000
1000
0000
0010
1000
0001
0100
0010
1000
0001
0100
,
1010
0010
0101
0101
1000
0110
0001
1100
0001
0100
0010
1000
0001
0100
0010
1000
,
0001
0100
0010
1000
0001
0100
0010
1000
0001
0010
1000
0100
0010
0001
0100
1000
,
0010
0001
0100
1000
0010
0001
0100
1000
0010
0001
0100
1000
0010
0001
0100
1000
,
0010
0000
0001
0000
0100
0000
1000
0000
0010
0000
0001
0000
0100
0000
1000
0000
0010
0000
0001
0000
0100
0000
1000
0000
0010
1000
0100
0010
0001
0100
0010
0100
,
1001
0010
1100
1100
0001
0110
1000
0011
0100
1000
0010
0001
0100
1000
0010
0001
,
0100
0000
1000
0000
0010
0000
0001
0000
0100
0000
1000
0000
0010
0000
0001
0000
0110
0000
1000
0000
1001
0000
0010
0000
0101
0000
1000
0000
0001
0100
0010
1000
,
0100
0001
1000
0010
0100
0001
1000
0010
0100
0001
1000
0010
0100
0001
1000
0010
,
0100
0000
0001
0000
1000
0000
0010
0000
0100
0000
0001
0000
1000
0000
0010
0000
0100
0000
0001
0000
1000
0000
0010
0000
0100
0001
1000
0001
0100
0010
1000
0001
,
1010
0100
1001
1001
0010
0110
1000
0101
0010
1000
0100
0001
0010
1000
0001
0100
,
0010
1000
0100
0001
0010
1000
0001
0100
0001
0010
1000
0100
2002
0000
0000
3003
,
0110
0000
0011
1100
0000
0101
0000
0220
0000
2332
0100
3013
1000
0001
0100
0010
,
1100
0000
1000
0000
0000
0000
0110
0000
0000
0000
0101
0000
0000
0000
0110
0000
1000
0000
0100
0000
0001
0000
1000
0000
0001
0010
0100
1000
0100
0010
0001
0100
,
2002
0010
3103
1000
0001
0100
0010
1000
0001
0010
0100
1000
0001
0100
0010
0100
,
1000
0001
0100
0110
1001
0001
0100
0010
1001
0011
1100
0011
1100
0011
1001
0110
,
0001
0100
0001
1000
0000
0000
0010
0001
0100
0010
1000
0100
0010
0000
0000
0000
,
0001
0100
1000
0010
0000
0000
0100
0010
0001
0010
0100
0001
0100
0000
0000
0000
,
1010
1000
0001
0010
0000
0100
0000
1000
,
0000
0001
0000
0100
0110
0000
1001
0000
,
0100
0001
1000
0010
0000
0000
0010
1000
0100
0010
1000
0100
0001
0000
0000
0000
,
0001
1000
0001
0100
0000
0000
0010
0001
0100
0001
0010
1000
0010
0000
0000
0000
,
0101
0100
1000
0010
0000
0001
0000
0100
,
0000
0000
0010
0000
0000
0000
1000
0000
0100
0010
0100
0010
0100
0001
0010
0100
,
1000
0001
0100
0010
0000
0000
0100
0010
1000
0100
0010
1000
0001
0000
0000
0000
,
0100
0001
0010
1000
0000
0000
0100
0010
0001
0100
0010
1000
0100
0000
0000
0000
,
0011
1000
0001
0100
0000
0010
0000
1000
,
0000
0100
0000
0010
0011
0000
1100
0000
,
0001
0100
1000
0100
0000
0000
0100
0010
0001
0100
0001
1000
0010
0000
0000
0000
,
1000
0010
1000
0001
0000
0000
0100
0010
1000
0001
0010
0100
1000
0000
0000
0000
,
0110
0000
1000
0000
0100
0000
0010
0000
0001
0100
0010
0100
0011
0000
2200
0000
,
0000
0000
0000
0000
0000
3300
0110
2002
,
0000
3003
0000
0000
0000
0000
0000
0000
;
