#TITLE:{The Traveller};
#SUBTITLE:;
#ARTIST:cornandbeans;
#TITLETRANSLIT:;
#SUBTITLETRANSLIT:;
#ARTISTTRANSLIT:;
#CREDIT:;
#BANNER:../Banner.png;
#BACKGROUND:../BG.png;
#LYRICSPATH:;
#CDTITLE:../CDTitleKIRBY.png;
#MUSIC:{The Traveller}.ogg;
#OFFSET:-0.453;
#SAMPLESTART:25.860;
#SAMPLELENGTH:20.000;
#SELECTABLE:YES;
#BPMS:0.000=177.120,2.000=177.108,3.000=177.120,4.000=177.108,5.000=177.120,6.000=177.108,7.000=177.120,8.000=177.108,9.000=177.120,11.000=177.108,12.000=177.120,13.000=177.108,14.000=177.120,15.000=177.108,16.000=177.120,17.000=177.108,18.000=177.120,20.000=177.108,21.000=177.120,22.000=177.108,23.000=177.120,24.000=177.108,25.000=177.120,26.000=177.108,27.000=177.120,29.000=177.108,30.000=177.120,31.000=177.108,32.000=177.120,33.000=177.108,34.000=177.120,35.000=177.108,36.000=177.120,38.000=177.108,39.000=88.557,41.000=177.120,42.000=177.108,43.000=177.120,45.000=177.108,46.000=177.120,47.000=177.108,48.000=177.120,49.000=177.108,50.000=177.120,51.000=177.108,52.000=177.120,54.000=177.108,55.000=177.120,56.000=177.108,57.000=177.120,58.000=177.108,59.000=177.120,60.000=177.108,61.000=177.120,63.000=177.108,64.000=177.120,65.000=177.108,66.000=177.120,67.000=177.108,68.000=177.120,69.000=177.108,70.000=177.120,71.000=177.108,72.000=177.120,74.000=177.108,75.000=177.120,76.000=177.108,77.000=177.120,78.000=177.108,79.000=177.120,80.000=177.108,81.000=177.120,83.000=177.108,84.000=177.120,85.000=177.108,86.000=177.120,87.000=177.108,88.000=177.120,89.000=177.108,90.000=177.120,92.000=177.108,93.000=177.120,94.000=177.108,95.000=177.120,96.000=177.108,97.000=177.120,98.000=177.108,99.000=177.120,101.000=177.108,102.000=177.120,103.000=177.108,104.000=177.120,105.000=177.108,106.000=177.120,107.000=177.108,108.000=177.120,110.000=177.108,111.000=177.120,112.000=177.108,113.000=177.120,114.000=177.108,115.000=177.120,116.000=177.108,117.000=177.120,118.000=177.108,119.000=177.120,121.000=177.108,122.000=177.120,123.000=177.108,124.000=177.120,125.000=177.108,126.000=177.120,128.000=177.108,129.000=177.120,130.000=177.108,131.000=177.120,132.000=177.108,133.000=177.120,134.000=177.108,135.000=177.120,137.000=177.108,139.000=177.120,141.000=177.108,142.000=177.120,143.000=177.108,144.000=177.120,145.000=177.108,146.000=177.120,148.000=177.108,149.000=177.120,150.000=177.108,151.000=177.120,152.000=177.108,153.000=177.120,154.000=177.108,155.000=177.120,156.000=177.108,157.000=177.120,159.000=177.108,160.000=177.120,161.000=177.108,162.000=177.120,163.000=177.108,164.000=177.120,165.000=177.108,166.000=177.120,168.000=177.108,169.000=174.389,172.000=172.930,173.000=168.696,175.000=165.987,177.000=163.364,178.000=160.822,179.000=162.083,180.000=158.358,182.000=155.968,183.000=154.800,184.000=153.650,185.000=151.399,186.000=152.516,187.000=153.650,188.000=152.516,190.000=153.650,191.000=151.399,192.000=152.516,332.000=154.800,333.000=152.516,334.000=151.399,335.000=153.650,337.000=154.800,339.000=153.650,340.000=159.580,341.000=151.399,342.000=157.154,343.000=152.516,345.000=167.331,346.000=154.800,347.000=158.358,348.000=159.580,349.000=160.822,350.000=163.364,351.000=160.822,352.000=163.364,354.000=168.696,356.000=167.331,357.000=172.930,358.000=174.389,359.000=177.382,360.000=171.495,361.000=179.123,362.000=179.111,364.000=179.123,365.000=179.111,367.000=179.123,368.000=179.111,369.000=179.123,370.000=179.111,372.000=179.123,373.000=179.111,375.000=179.123,376.000=179.111,378.000=179.123,379.000=179.111,380.000=179.123,381.000=179.111,383.000=179.123,384.000=179.111,386.000=179.123,387.000=179.111,388.000=179.123,389.000=179.111,391.000=179.123,392.000=179.111,393.000=89.558,394.000=89.555,395.000=179.123,396.000=179.111,397.000=179.123,398.000=179.111,400.000=179.123,401.000=179.111,403.000=179.123,404.000=179.111,406.000=179.123,407.000=179.111,408.000=179.123,409.000=179.111,411.000=179.123,412.000=179.111,414.000=179.123,415.000=179.111,416.000=179.123,417.000=179.111,419.000=179.123,420.000=179.111,422.000=179.123,423.000=179.111,425.000=179.123,426.000=179.111,427.000=179.123,428.000=179.111,430.000=179.123,431.000=179.111,433.000=179.123,434.000=179.111,435.000=179.123,436.000=179.111,438.000=179.123,439.000=179.111,441.000=179.123,442.000=179.111,444.000=179.123,445.000=179.111,446.000=179.123,447.000=179.111,449.000=179.123,450.000=179.111,452.000=179.123,453.000=179.111,455.000=179.123,456.000=179.111,457.000=179.123,458.000=179.111,460.000=179.123,461.000=179.111,463.000=179.123,464.000=179.111,465.000=179.123,466.000=179.111,468.000=179.123,469.000=179.111,471.000=179.123,472.000=179.111,474.000=179.123,475.000=179.111,476.000=179.123,477.000=179.111,479.000=179.123,480.000=179.111,482.000=179.123,483.000=179.111,484.000=179.123,485.000=179.111,487.000=179.123,488.000=179.111,490.000=179.123;
#STOPS:;
#BGCHANGES:;
// cache tags:
#FIRSTBEAT:7.000;
#LASTBEAT:490.000;
#SONGFILENAME:Songs/Index Tesseract/{The Traveller} - [Kirby5464]/{The Traveller}.sm;
#HASMUSIC:1;
#HASBANNER:1;
#MUSICLENGTH:177.162;
// end cache tags

//---------------dance-single - ----------------
#NOTES:
     dance-single:
     :
     Challenge:
     15:
     1.000,1.000,0.000,0.040,1.000,1635.000,0.000,7.000,0.000,0.000:
0000
0000
0000
0000
,
0000
0000
0000
0000
0000
0000
0000
0000
0000
0000
0000
0000
0001
0010
0100
1000
,
0001
0010
0001
1000
0100
0010
0100
1000
0001
0100
0010
1000
0100
1000
0001
0010
,
0100
0010
0001
1000
0010
1000
0100
0010
0001
1000
0100
1000
0001
0010
0001
1000
,
0010
0100
0001
0010
0100
1000
0010
0100
0010
1000
0100
1000
0001
0010
0001
1000
,
0100
0010
0100
1000
0001
0100
0001
0010
0100
1000
0001
0010
0001
1000
0100
0010
,
0100
1000
0001
0100
0010
1000
0100
1000
0001
0010
0100
0010
0001
1000
0010
1000
,
0100
0010
0001
1000
0100
1000
0001
0010
0001
1000
0010
0100
0001
0010
0100
1000
,
0010
0100
0010
1000
0100
1000
0001
0010
0001
1000
0100
0010
0100
1000
0001
0100
,
0001
0010
0100
1000
0001
0100
0010
1000
0100
1000
0001
0100
0010
1000
0100
0010
,
0001
1000
0010
0100
0001
0010
0100
1000
0001
0010
0001
1000
0100
0010
0100
1000
,
0001
0100
0010
1000
0100
1000
0001
0010
0100
0010
0001
1000
0010
1000
0100
0010
,
0001
1000
0100
1000
0001
0010
0001
1000
0010
0100
0001
0010
0100
1000
0010
0100
,
0010
1000
0100
1000
0001
0010
0001
1000
0100
0010
0100
1000
0001
0100
0001
0010
,
0100
1000
0001
0010
0001
1000
0100
0010
0100
1000
0001
0100
0010
1000
0100
1000
,
0001
0010
0100
0010
0001
1000
0010
1000
0100
0010
0001
1000
0100
1000
0001
0010
,
0001
1000
0010
0100
0001
0010
0100
1000
0010
0100
0010
1000
0100
1000
0001
0010
,
0001
1000
0100
0010
0100
1000
0001
0100
0001
0010
0100
1000
0001
0100
0010
1000
,
0100
1000
0001
0100
0010
1000
0100
0010
0001
1000
0100
1000
0001
0010
0100
0010
,
0001
1000
0010
0100
0001
0010
0001
1000
0100
0010
0100
1000
0001
0100
0001
0010
,
0100
1000
0001
0010
0001
1000
0100
1000
0001
0100
0010
1000
0100
0010
0001
0100
,
0010
0100
0001
0010
0001
1000
0100
1000
0001
0010
0100
0010
0001
1000
0010
1000
,
0100
0010
0001
1000
0100
1000
0001
0010
0100
0010
0001
1000
0010
0100
0001
0010
,
0001
1000
0100
0010
0100
1000
0001
0100
0001
0010
0100
1000
0001
0010
0001
1000
,
0100
1000
0001
0100
0010
1000
0100
0010
0001
0100
0010
0100
0001
0010
0001
1000
,
0100
1000
0001
0010
0100
0010
0001
1000
0010
1000
0100
0010
0001
1000
0010
0100
,
0001
0010
0001
1000
0010
0100
0001
0010
0100
1000
0001
0010
0001
1000
0100
0010
,
0100
1000
0001
0100
0010
1000
0100
1000
0001
0010
0100
0010
0001
1000
0010
1000
,
0100
0010
0001
1000
0100
1000
0001
0010
0001
1000
0010
0100
0001
0010
0100
1000
,
0010
0100
0010
1000
0100
1000
0001
0010
0001
1000
0100
0010
0100
1000
0001
0100
,
0001
0010
0100
1000
0001
0010
0001
1000
0100
0010
0100
1000
0001
0100
0010
1000
,
0100
1000
0001
0010
0100
0010
0001
1000
0010
1000
0100
0010
0001
1000
0100
1000
,
0001
0010
0001
1000
0010
0100
0001
0010
0100
1000
0010
0100
0010
1000
0100
1000
,
0001
0010
0001
1000
0100
0010
0100
1000
0001
0100
0001
0010
0100
1000
0001
0100
,
0010
1000
0100
1000
0001
0100
0001
0010
0100
1000
0001
0010
0001
1000
0100
0010
,
0100
1000
0001
0100
0010
1000
0100
1000
0001
0010
0100
0010
0001
1000
0010
1000
,
0100
0010
0001
1000
0100
1000
0001
0010
0001
1000
0010
0100
0001
0010
0100
1000
,
0010
0100
0010
1000
0100
1000
0001
0010
0001
1000
0100
0010
0100
1000
0001
0100
,
0001
0010
0100
1000
0001
0010
0001
1000
0100
0010
0100
1000
0001
0100
0010
1000
,
0100
1000
0001
0010
0100
0010
0001
1000
0010
1000
0100
0010
0001
1000
0100
1000
,
0001
0010
0001
1000
0010
0100
0001
0010
0100
1000
0010
0100
0010
1000
0100
1000
,
0001
0010
0001
1000
0100
0010
0100
1000
0001
0100
0001
0010
0100
1000
0001
0100
,
0010
1000
0100
1000
0001
0000
0000
0000
0010
0000
0000
0000
0100
0000
0000
0000
,
1000
0000
0001
0010
0001
0000
1000
0000
0001
0000
0000
0000
0100
0000
0010
0000
,
0000
1000
0001
0100
0001
0000
1000
0000
,
0010
0000
1000
0100
1000
0000
0001
0000
0100
0000
0000
0000
0010
0000
1000
0000
,
0000
0001
0100
0010
1000
0000
0001
0000
,
1000
0000
0010
0100
0010
0000
1000
0000
0001
0000
0000
0000
0100
0000
0010
0000
,
0000
1000
0001
0100
0001
0000
2000
0000
,
0010
0001
0010
0001
,
0010
0000
0000
0000
3001
0000
0000
0000
0000
0000
1000
0010
1000
0000
0001
0000
,
0100
0000
0010
0000
1000
0001
0010
0100
,
1000
0000
0001
0000
0100
0000
0000
0000
0000
0000
0010
0100
0010
0000
1000
0000
,
0001
1000
0010
0000
0000
1000
0100
0010
,
0001
0000
0000
0000
1000
0000
0000
0000
0000
0000
0010
0100
0001
0000
1000
0000
,
0010
0000
0100
0000
0001
0010
0100
1000
,
0001
0000
0100
0000
0010
0000
0000
0000
0000
0000
1000
0001
1000
0000
0010
0000
,
0100
0001
1000
0000
0000
0002
0203
0320
,
2030
0000
3002
0000
0103
0000
0010
0100
0010
0000
0100
0010
0100
0000
0000
0000
,
0001
0000
0000
0000
1000
0000
0010
1000
0010
0000
0000
0000
1000
0000
0001
0100
,
0001
0000
1000
0000
0010
0000
0100
0001
0100
0000
0000
0000
1000
0000
0001
1000
,
0001
0000
0000
0000
0100
0000
0001
0010
0001
0000
1000
0100
1000
0000
0001
0100
,
0001
0000
1000
0000
0010
0000
1000
0001
1000
0000
0001
1000
0001
0000
0000
0000
,
0100
0000
0000
0000
0001
0000
1000
0100
1000
0000
0000
0000
0001
0000
1000
0010
,
0100
0000
0010
0000
1000
0000
0001
0100
0001
0000
0000
0000
1000
0000
0001
1000
,
0001
0000
0000
0000
1000
0000
0010
0100
0010
0000
0100
0010
0100
0000
0001
0010
,
0001
0000
1000
0000
0010
1000
0100
1000
0001
0010
0100
0010
0001
1000
0010
1000
,
0100
0010
0001
1000
0100
1000
0001
0010
0001
1000
0010
0100
0001
0010
0100
1000
,
0010
0100
0010
1000
0100
1000
0001
0010
0001
1000
0100
0010
0100
1000
0001
0100
,
0001
0010
0100
1000
0001
0010
0001
1000
0100
0010
0100
1000
0001
0100
0010
1000
,
0100
1000
0001
0010
0100
0010
0001
1000
0010
1000
0100
0010
0001
1000
0100
1000
,
0001
0010
0001
1000
0010
0100
0001
0010
0100
1000
0010
0100
0010
1000
0100
1000
,
0001
0010
0001
1000
0100
0010
0100
1000
0001
0100
0001
0010
0100
1000
0001
0100
,
0010
1000
0100
1000
0001
0100
0010
1000
0100
0010
0001
1000
0010
0100
0001
0010
,
0100
1000
0001
0010
0001
1000
0100
0010
0100
1000
0001
0100
0010
1000
0100
1000
,
0001
0010
0100
0010
0001
1000
0010
1000
0100
0010
0001
1000
0100
1000
0001
0010
,
0001
1000
0010
0100
0001
0010
0100
1000
0010
0100
0010
1000
0100
1000
0001
0010
,
0001
1000
0100
0010
0100
1000
0001
0100
0001
0010
0100
1000
0001
0010
0001
1000
,
0100
0010
0100
1000
0001
0000
1000
0010
0100
0000
0001
1000
0001
0000
0000
0000
,
0100
0000
0000
0000
0010
0000
1000
0001
1000
0000
0000
0000
0001
0000
1000
0100
,
1000
0000
0010
0000
0100
0000
0001
1000
0001
0000
0000
0000
1000
0000
0010
0100
,
0001
0000
0000
0000
1000
0000
0001
0100
0001
0000
1000
0010
1000
0000
0001
0010
,
0001
0000
1000
0000
0010
0000
1000
0001
1000
0000
0001
0100
0001
0000
0000
0000
,
1000
0000
0000
0000
0010
0000
0100
0001
0100
0000
0000
0000
0010
0000
1000
0001
,
1000
0000
0001
0000
0100
0000
0010
0100
0010
0000
0000
0000
1000
0000
0001
1000
,
0001
0000
0000
0000
1000
0000
0001
0100
0001
0000
1000
0100
1000
0000
0010
0100
,
0010
0000
1000
0000
0001
0000
1000
0010
1000
0000
0001
1000
0001
0000
0000
0000
,
0100
0000
0000
0000
0010
0000
1000
0001
1000
0000
0000
0000
0010
0000
1000
0100
,
1000
0000
0001
0000
0100
0000
0010
0100
0010
0000
0000
0000
1000
0000
0001
0100
,
0001
0000
0000
0000
1000
0000
0001
0100
0001
0000
1000
0100
1000
0000
0001
0100
,
0010
0000
2000
0000
3001
0010
0001
1000
0100
0010
0100
1000
0001
0100
0010
1000
,
0100
1000
0001
0010
0100
0010
0001
1000
0010
1000
0100
0010
0001
1000
0100
1000
,
0001
0010
0001
1000
0010
0100
0001
0010
0100
1000
0010
0100
0010
1000
0100
1000
,
0001
0010
0001
1000
0100
0010
0100
1000
0001
0100
0001
0010
0100
1000
0001
0010
,
0001
1000
0100
0010
0100
1000
0001
0100
0010
1000
0100
1000
0001
0010
0100
0010
,
0001
1000
0010
1000
0100
0010
0001
1000
0100
1000
0001
0010
0001
1000
0010
0100
,
0001
0010
0100
1000
0010
0100
0010
1000
0100
1000
0001
0010
0001
1000
0100
0010
,
0100
1000
0001
0100
0001
0010
0100
1000
0001
0100
0010
1000
0100
1000
0001
0100
,
0001
0010
0100
1000
0001
0010
0001
1000
0100
0010
0100
1000
0001
0100
0010
1000
,
0100
1000
0001
0010
0100
0010
0001
1000
0010
1000
0100
0010
0001
1000
0100
1000
,
0001
0010
0001
1000
0010
0100
0001
0010
0100
1000
0010
0100
0010
1000
0100
1000
,
0001
0010
0001
1000
0100
0010
0100
1000
0001
0100
0001
0010
0100
1000
0001
0010
,
0001
1000
0100
0010
0100
1000
0001
0100
0010
1000
0100
1000
0001
0010
0100
0010
,
0001
1000
0010
1000
0100
0010
0001
1000
0100
1000
0001
0010
0001
1000
0010
0100
,
0001
0010
0100
1000
0010
0100
0010
1000
0100
1000
0001
0010
0001
1000
0100
0010
,
0100
1000
0001
0100
0001
0010
0100
1000
0001
0100
0010
1000
0100
1000
0001
0010
,
0100
0010
0001
1000
0010
1000
0100
0010
0001
1000
0100
1000
0001
0010
0001
1000
,
0010
0100
0001
0010
0100
1000
0010
0100
0010
1000
0100
1000
0001
0010
0001
1000
,
0100
0010
0100
1000
0001
0100
0001
0010
0100
1000
0001
0010
0001
1000
0100
0010
,
0100
1000
0001
0100
0010
1000
0100
1000
0001
0010
0100
0010
0001
1000
0010
1000
,
0100
0010
0001
1000
0100
1000
0001
0010
0001
1000
0010
0100
0001
0010
0100
1000
,
0010
0100
0010
1000
0100
1000
0001
0010
0001
1000
0100
0010
0100
1000
0001
0100
,
0001
0010
0100
1000
0001
0100
0010
1000
0100
1000
0001
0100
0010
1000
0100
0010
,
0001
1000
0010
0100
0001
0010
0100
1000
0001
0010
0001
1000
0100
0010
0100
1000
,
0001
0100
0010
1000
0100
1000
0001
0010
0100
0010
0001
1000
0010
1000
0100
0010
,
0001
1000
0100
1000
0001
0010
0001
1000
0010
0100
0001
0010
0100
1000
0010
0100
,
0010
1000
0100
1000
0001
0010
0001
1000
0100
0010
0100
1000
0001
0100
0001
0010
,
0100
1000
0001
0010
0001
1000
0100
0010
0100
1000
0001
0100
0010
1000
0100
1000
,
0001
0010
0100
0010
0001
1000
0010
1000
0100
0010
0001
1000
0100
1000
0001
0010
,
0001
1000
0010
0100
0001
0010
0100
1000
0010
0100
0010
1000
0100
1000
0001
0010
,
0100
0010
0001
1000
0010
1000
0100
0010
0001
1000
0100
1000
0001
0010
0001
1000
,
0010
0100
0001
0010
0100
1000
0010
0100
0010
1000
0100
1000
0001
0010
0001
1000
,
0100
0010
0100
1000
0001
0100
0001
1000
0010
0000
0000
0000
0000
0000
0000
0000
;
