#TITLE:Invert The Idols;
#SUBTITLE:11brendon;
#ARTIST:Dying Fetus;
#TITLETRANSLIT:;
#SUBTITLETRANSLIT:;
#ARTISTTRANSLIT:;
#CREDIT:;
#BANNER:bn.png;
#BACKGROUND:;
#LYRICSPATH:;
#CDTITLE:cdtitle.png;
#MUSIC:DYING FETUS - _Invert the Idols_.ogg;
#OFFSET:0.027;
#SAMPLESTART:24.629;
#SAMPLELENGTH:25.000;
#SELECTABLE:YES;
#BPMS:0.000=230.000,32.000=250.000,112.000=270.000,144.000=190.000,176.000=230.000,199.000=250.000,247.000=270.000,279.000=190.000,311.000=150.000,359.000=100.000,375.000=150.000,391.000=100.000;
#STOPS:;
#BGCHANGES:;
// cache tags:
#FIRSTBEAT:1.000;
#LASTBEAT:406.000;
#SONGFILENAME:Songs/Index Tesseract/Invert the Idols (11brendon)/DYING FETUS - _Invert the Idols_.sm;
#HASMUSIC:1;
#HASBANNER:1;
#MUSICLENGTH:125.503;
// end cache tags

//---------------dance-single - 11brendon----------------
#NOTES:
     dance-single:
     11brendon:
     Challenge:
     24:
     1.000,1.000,0.908,1.000,1.000,1215.000,114.000,143.000,0.000,0.000:

0000
0000
0000
0000
0100
1000
0010
1000
0100
1000
0010
0100
0001
0010
0001
0100
,
0001
0010
0100
1000
0010
1000
0001
1000
0010
0100
0001
0100
1010
0000
0000
0000
,
0010
1000
0010
0100
0010
1000
0001
0010
0100
1000
0010
0100
0001
0010
0100
1000
,
0010
0100
0001
0010
0001
0010
0001
0100
1010
0000
0101
0000
1010
0000
0000
0000
,
0001
0010
0001
0100
0010
1000
0100
0010
0001
1000
0100
0010
0001
0100
0001
0010
,
0100
0010
0001
1000
0001
0010
0100
1000
0101
0000
0000
0000
0101
0000
0000
0000
,
0100
0001
0010
0001
0100
0001
0010
0100
1000
0010
1000
0001
1000
0100
0010
0100
,
1000
0001
0100
0010
1000
0100
0010
0001
1010
0000
0110
0000
1100
0000
0000
0000
,
0001
0000
0000
0000
0000
0000
0000
0000
0000
0000
0000
0000
0000
0000
0000
0000
0000
0000
0000
0000
0000
0000
0000
0000
0010
0000
0000
0000
0000
0000
0000
0000
0000
0000
0000
0000
0000
0000
0000
0000
0000
0000
0000
0000
0000
0000
0000
0000
2200
3300
0000
0000
0000
0000
0000
0000
0000
0000
0000
0000
0000
0000
0000
0000
0000
0000
0000
0000
0000
0000
0000
0000
2200
3300
0000
0000
0000
0000
0000
0000
0000
0000
0000
0000
0000
0000
0000
0000
0000
0000
0000
0000
0000
0000
0000
0000
0010
0000
0000
0000
0000
0000
0000
0000
0000
0000
0000
0000
0000
0000
0000
0000
0000
0000
0000
0000
0000
0000
0000
0000
0001
0000
0000
0000
0000
0000
0000
0000
0000
0000
0000
0000
0000
0000
0000
0000
0000
0000
0000
0000
0000
0000
0000
0000
0220
0330
0000
0000
0000
0000
0000
0000
0000
0000
0000
0000
0000
0000
0000
0000
0000
0000
0000
0000
0000
0000
0000
0000
0220
0330
0000
0000
0000
0000
0000
0000
0000
0000
0000
0000
0000
0000
0000
0000
0000
0000
0000
0000
0000
0000
0000
0000
,
1000
0000
0000
0000
0000
0000
0000
0000
0000
0000
0000
0000
0000
0000
0000
0000
0000
0000
0000
0000
0000
0000
0000
0000
0010
0000
0000
0000
0000
0000
0000
0000
0000
0000
0000
0000
0000
0000
0000
0000
0000
0000
0000
0000
0000
0000
0000
0000
0202
0303
0000
0000
0000
0000
0000
0000
0000
0000
0000
0000
0000
0000
0000
0000
0000
0000
0000
0000
0000
0000
0000
0000
0202
0303
0000
0000
0000
0000
0000
0000
0000
0000
0000
0000
0000
0000
0000
0000
0000
0000
0000
0000
0000
0000
0000
0000
1000
0000
0000
0000
0000
0000
0000
0000
0000
0000
0000
0000
0000
0000
0000
0000
0000
0000
0000
0000
0000
0000
0000
0000
0100
0000
0000
0000
0000
0000
0000
0000
0000
0000
0000
0000
0000
0000
0000
0000
0000
0000
0000
0000
0000
0000
0000
0000
0010
0000
0000
0000
0000
0000
0000
0000
0000
0000
0000
0000
0000
0000
0000
0000
0000
0000
0000
0000
0000
0000
0000
0000
0100
0000
0000
0000
0000
0000
0000
0000
0000
0000
0000
0000
0000
0000
0000
0000
0000
0000
0000
0000
0000
0000
0000
0000
,
0010
0000
0000
0000
0000
0000
0000
0000
0000
0000
0000
0000
0000
0000
0000
0000
0000
0000
0000
0000
0000
0000
0000
0000
0001
0000
0000
0000
0000
0000
0000
0000
0000
0000
0000
0000
0000
0000
0000
0000
0000
0000
0000
0000
0000
0000
0000
0000
2020
3030
0000
0000
0000
0000
0000
0000
0000
0000
0000
0000
0000
0000
0000
0000
0000
0000
0000
0000
0000
0000
0000
0000
2020
3030
0000
0000
0000
0000
0000
0000
0000
0000
0000
0000
0000
0000
0000
0000
0000
0000
0000
0000
0000
0000
0000
0000
0100
0000
0000
0000
0000
0000
0000
0000
0000
0000
0000
0000
0000
0000
0000
0000
0000
0000
0000
0000
0000
0000
0000
0000
0010
0000
0000
0000
0000
0000
0000
0000
0000
0000
0000
0000
0000
0000
0000
0000
0000
0000
0000
0000
0000
0000
0000
0000
0202
0303
0000
0000
0000
0000
0000
0000
0000
0000
0000
0000
0000
0000
0000
0000
0000
0000
0000
0000
0000
0000
0000
0000
0202
0303
0000
0000
0000
0000
0000
0000
0000
0000
0000
0000
0000
0000
0000
0000
0000
0000
0000
0000
0000
0000
0000
0000
,
0010
0000
0000
0000
0000
0000
0000
0000
0000
0000
0000
0000
0000
0000
0000
0000
0000
0000
0000
0000
0000
0000
0000
0000
0100
0000
0000
0000
0000
0000
0000
0000
0000
0000
0000
0000
0000
0000
0000
0000
0000
0000
0000
0000
0000
0000
0000
0000
2020
3030
0000
0000
0000
0000
0000
0000
0000
0000
0000
0000
0000
0000
0000
0000
0000
0000
0000
0000
0000
0000
0000
0000
2020
3030
0000
0000
0000
0000
0000
0000
0000
0000
0000
0000
0000
0000
0000
0000
0000
0000
0000
0000
0000
0000
0000
0000
0201
0000
0000
0000
0000
0000
0000
0000
0000
0000
0000
0000
0000
0000
0000
0000
0000
0000
0000
0000
0000
0000
0000
0000
0301
0000
0000
0000
0000
0000
0000
0000
0000
0000
0000
0000
0000
0000
0000
0000
0000
0000
0000
0000
0000
0000
0000
0000
2200
0000
0000
0000
0000
0000
0000
0000
0000
0000
0000
0000
0000
0000
0000
0000
0000
0000
0000
0000
0000
0000
0000
0000
3300
0000
0000
0000
0000
0000
0000
0000
0000
0000
0000
0000
0000
0000
0000
0000
0000
0000
0000
0000
0000
0000
0000
0000
,
0001
0100
0001
0010
0100
1000
0010
1000
,
0001
0000
1000
0000
0010
0000
0100
0000
0022
0000
0000
0033
2200
0000
3300
0000
,
0010
0100
0001
1000
0100
0010
0100
0010
,
0100
0000
0000
0000
0000
0000
1000
0000
0000
0000
0000
0000
0010
0000
0000
0000
0000
0000
0100
0000
0000
0000
0000
0000
0022
0033
0000
0000
0000
0000
2020
3030
0000
0000
0000
0000
0220
0330
0000
0000
0000
0000
0000
0000
0000
0000
0000
0000
,
0001
1000
0001
0100
0001
0010
0100
0010
,
0100
0000
1000
0000
0010
0000
0100
0000
2002
0000
0000
3003
0202
0303
0010
0000
,
0001
0100
0001
1000
0001
0100
0010
0100
,
0001
0000
0000
0000
0000
0000
0100
0000
0000
0000
0000
0000
0001
0000
0000
0000
0000
0000
1000
0000
0000
0000
0000
0000
0220
0330
0000
0000
0000
0000
0202
0303
0000
0000
0000
0000
2200
3300
0000
0000
0000
0000
0010
0000
0000
0000
0000
0000
,
0001
1000
0001
1000
0001
0010
0100
0010
0100
0010
0001
1000
0001
1000
0001
0100
,
0010
0100
0010
0100
0001
1000
0100
0000
0020
0030
0002
0003
0020
0030
0200
0300
,
1000
0100
1000
0001
0010
0001
0100
0010
1000
0001
0010
0001
1000
0010
0100
0001
,
1000
0000
0000
0100
0000
0000
0010
0000
0000
0100
0000
0000
1000
0000
0000
0010
0000
0000
0100
0000
0000
0001
0000
0000
2000
0000
0000
3000
0000
0000
0020
0030
0000
0000
0000
0000
0200
0000
0000
0300
0000
0000
0002
0000
0000
0003
0000
0000
,
1000
0010
1000
0100
0010
0100
1000
0010
0100
0001
1000
0010
0100
0001
0100
0001
,
0010
0000
0000
0000
0000
0000
0000
0000
0000
0000
0000
0000
0100
0000
0000
0000
0000
0000
0000
0000
0000
0000
0000
0000
1000
0000
0000
0000
0000
0000
0000
0000
0000
0000
0000
0000
0010
0000
0000
0000
0000
0000
0000
0000
0000
0000
0000
0000
1000
0000
0000
0000
0000
0000
0000
0000
0000
0000
0000
0000
0001
0000
0000
0000
0000
0000
0000
0000
0000
0000
0000
0000
0010
0000
0000
0000
0000
0000
0000
0000
0000
0000
0000
0000
0001
0000
0000
0000
0000
0000
0000
0000
0000
0000
0000
0000
0200
0000
0000
0000
0300
0000
0000
0000
0000
0000
0000
0000
0000
0000
0000
0000
0000
0000
0000
0000
0000
0000
0000
0000
0020
0000
0000
0000
0030
0000
0000
0000
0000
0000
0000
0000
0000
0000
0000
0000
0000
0000
0000
0000
0000
0000
0000
0000
2000
0000
0000
0000
0000
0000
3000
0000
0000
0000
0000
0000
0000
0000
0000
0000
0000
0000
0000
0000
0000
0000
0000
0000
0200
0000
0000
0000
0000
0000
0300
0000
0000
0000
0000
0000
0000
0000
0000
0000
0000
0000
0000
0000
0000
0000
0000
0000
,
1000
0001
1000
0010
0100
0010
1000
0001
0010
0100
0010
0100
1000
0001
1000
0010
,
0100
0000
0000
0001
0000
0000
1000
0000
0000
0001
0000
0000
1000
0000
0000
0100
0000
0000
0010
0000
0000
0001
0000
0000
2000
3000
0000
0000
0000
0000
0200
0300
0000
0000
0000
0000
0020
0030
0000
0000
0000
0000
0002
0003
0000
0000
0000
0000
,
0100
0010
0100
0000
0001
0010
0001
0000
1000
0100
1000
0000
0010
0100
0010
0000
,
1000
0001
1000
0000
0010
0100
0001
0000
0010
0001
0010
0000
0100
1000
0100
0000
,
1000
0010
1000
0000
0001
0100
0001
0000
1000
0100
1000
0000
0010
0100
0010
0000
,
0001
0010
0001
0000
0010
0001
0010
0000
0100
1000
0100
0000
0010
0001
0010
0000
,
0100
1000
0100
0000
0010
0001
0010
0000
0001
0010
0001
0000
1000
0100
1000
0000
,
0100
0001
0100
0000
1000
0010
1000
0000
0100
1000
0100
0000
0010
0001
0010
0000
,
0100
0010
0100
0000
1000
0010
1000
0000
0001
1000
0001
0000
0100
0010
0100
0000
,
0100
0010
1000
0001
0010
0100
1000
0010
0100
0010
1000
0001
,
0010
0001
0010
0001
0100
0010
1000
0001
0010
0100
0010
0001
0010
0100
1000
0100
,
1000
0100
0010
0001
0010
0100
1000
0010
0100
0010
0100
0010
1000
0100
0010
0001
,
0100
0010
0100
0001
1000
0100
0010
0001
0100
0010
1000
0100
0010
0001
0100
0010
,
1000
0100
0010
0001
0100
0010
1000
0001
0010
0100
1000
0100
0010
0100
0010
0001
,
0010
0100
1000
0001
0100
0010
1000
0001
0010
0100
0010
0100
1000
0010
0100
0010
,
1000
0001
0010
0100
0010
0100
1000
0010
1000
0100
0010
0100
0010
0100
1000
0010
,
0100
0001
1000
0010
0100
0001
1000
0100
1000
0001
0100
0010
1000
0001
1000
0010
,
1000
0100
0010
0001
0100
0001
0010
0100
0010
0100
1000
0001
0010
0100
1000
0100
,
0010
0100
1000
0001
0100
0010
1000
0001
0100
0010
0100
0001
1000
0010
0100
0001
,
0100
0010
0100
0001
0010
0100
1000
0010
1100
0000
0000
0000
0011
0000
0000
0000
,
0010
0100
1000
0010
1000
0001
0010
0100
1000
0001
0010
0100
1000
0010
1000
0001
,
0010
0100
1000
0001
0010
0001
0100
0001
0110
0000
1010
0000
0110
0000
0000
0000
,
0010
0100
1000
0010
1000
0100
1000
0010
0100
0001
0010
0100
1000
0100
0010
0001
,
0100
0010
1000
0100
0010
0001
0100
0010
1000
0000
0000
0000
1000
0000
0100
0000
,
0022
0033
0000
0000
0000
0000
0000
0000
0000
0000
0000
0000
0000
0000
0000
0000
0000
0000
0000
0000
0000
0000
0000
0000
0022
0033
0000
0000
0000
0000
0000
0000
0000
0000
0000
0000
0000
0000
0000
0000
0000
0000
0000
0000
0000
0000
0000
0000
0100
0000
0000
0000
0000
0000
0000
0000
0000
0000
0000
0000
0000
0000
0000
0000
0000
0000
0000
0000
0000
0000
0000
0000
1000
0000
0000
0000
0000
0000
0000
0000
0000
0000
0000
0000
0000
0000
0000
0000
0000
0000
0000
0000
0000
0000
0000
0000
0220
0330
0000
0000
0000
0000
0000
0000
0000
0000
0000
0000
0000
0000
0000
0000
0000
0000
0000
0000
0000
0000
0000
0000
0220
0330
0000
0000
0000
0000
0000
0000
0000
0000
0000
0000
0000
0000
0000
0000
0000
0000
0000
0000
0000
0000
0000
0000
0001
0000
0000
0000
0000
0000
0000
0000
0000
0000
0000
0000
0000
0000
0000
0000
0000
0000
0000
0000
0000
0000
0000
0000
0100
0000
0000
0000
0000
0000
0000
0000
0000
0000
0000
0000
0000
0000
0000
0000
0000
0000
0000
0000
0000
0000
0000
0000
,
2020
3030
0000
0000
0000
0000
0000
0000
0000
0000
0000
0000
0000
0000
0000
0000
0000
0000
0000
0000
0000
0000
0000
0000
2020
3030
0000
0000
0000
0000
0000
0000
0000
0000
0000
0000
0000
0000
0000
0000
0000
0000
0000
0000
0000
0000
0000
0000
0001
0000
0000
0000
0000
0000
0000
0000
0000
0000
0000
0000
0000
0000
0000
0000
0000
0000
0000
0000
0000
0000
0000
0000
0010
0000
0000
0000
0000
0000
0000
0000
0000
0000
0000
0000
0000
0000
0000
0000
0000
0000
0000
0000
0000
0000
0000
0000
0100
0000
0000
0000
0000
0000
0000
0000
0000
0000
0000
0000
0000
0000
0000
0000
0000
0000
0000
0000
0000
0000
0000
0000
0010
0000
0000
0000
0000
0000
0000
0000
0000
0000
0000
0000
0000
0000
0000
0000
0000
0000
0000
0000
0000
0000
0000
0000
0100
0000
0000
0000
0000
0000
0000
0000
0000
0000
0000
0000
0000
0000
0000
0000
0000
0000
0000
0000
0000
0000
0000
0000
1000
0000
0000
0000
0000
0000
0000
0000
0000
0000
0000
0000
0000
0000
0000
0000
0000
0000
0000
0000
0000
0000
0000
0000
,
0202
0303
0000
0000
0000
0000
0000
0000
0000
0000
0000
0000
0000
0000
0000
0000
0000
0000
0000
0000
0000
0000
0000
0000
0202
0303
0000
0000
0000
0000
0000
0000
0000
0000
0000
0000
0000
0000
0000
0000
0000
0000
0000
0000
0000
0000
0000
0000
0010
0000
0000
0000
0000
0000
0000
0000
0000
0000
0000
0000
0000
0000
0000
0000
0000
0000
0000
0000
0000
0000
0000
0000
0100
0000
0000
0000
0000
0000
0000
0000
0000
0000
0000
0000
0000
0000
0000
0000
0000
0000
0000
0000
0000
0000
0000
0000
2020
3030
0000
0000
0000
0000
0000
0000
0000
0000
0000
0000
0000
0000
0000
0000
0000
0000
0000
0000
0000
0000
0000
0000
2020
3030
0000
0000
0000
0000
0000
0000
0000
0000
0000
0000
0000
0000
0000
0000
0000
0000
0000
0000
0000
0000
0000
0000
0100
0000
0000
0000
0000
0000
0000
0000
0000
0000
0000
0000
0000
0000
0000
0000
0000
0000
0000
0000
0000
0000
0000
0000
0010
0000
0000
0000
0000
0000
0000
0000
0000
0000
0000
0000
0000
0000
0000
0000
0000
0000
0000
0000
0000
0000
0000
0000
,
0202
0303
0000
0000
0000
0000
0000
0000
0000
0000
0000
0000
0000
0000
0000
0000
0000
0000
0000
0000
0000
0000
0000
0000
0202
0303
0000
0000
0000
0000
0000
0000
0000
0000
0000
0000
0000
0000
0000
0000
0000
0000
0000
0000
0000
0000
0000
0000
1020
0000
0000
0000
0000
0000
0000
0000
0000
0000
0000
0000
0000
0000
0000
0000
0000
0000
0000
0000
0000
0000
0000
0000
1030
0000
0000
0000
0000
0000
0000
0000
0000
0000
0000
0000
0000
0000
0000
0000
0000
0000
0000
0000
0000
0000
0000
0000
0022
0000
0000
0000
0000
0000
0000
0000
0000
0000
0000
0000
0000
0000
0000
0000
0000
0000
0000
0000
0000
0000
0000
0000
0033
0000
0000
0000
0000
0000
0000
0000
0000
0000
0000
0000
0000
0000
0000
0000
0000
0000
0000
0000
0000
0000
0000
0000
0100
0000
0000
0000
0000
0000
0000
0000
0000
0000
0000
0000
0000
0000
0000
0000
0000
0000
0000
0000
0000
0000
0000
0000
0001
0000
0000
0000
0000
0000
0000
0000
0000
0000
0000
0000
0000
0000
0000
0000
0000
0000
0000
0000
0000
0000
0000
0000
,
0010
0001
0100
0010
1000
0100
0010
0100
,
0010
0001
1100
0000
0010
0000
0100
0001
,
0100
0001
0100
0010
1000
0001
1000
0010
,
0100
0000
0010
0000
1000
0000
0100
0000
0010
0000
0001
0000
1000
0100
1000
0010
,
1000
0001
0010
0100
0010
0100
1000
0100
0010
0001
1000
0010
1000
0100
1000
0001
,
0010
0001
1000
0100
0010
0000
0001
0000
0010
0000
0100
0000
0100
0010
1000
0001
,
0100
0010
1000
0010
0100
0010
1000
0001
0100
0010
1000
0010
0100
0001
1000
0100
,
0010
0001
0100
0010
1000
0000
0100
0000
0010
0000
0001
0000
0010
0100
1000
0000
,
0001
0100
0001
0000
1000
0010
1000
0000
0001
0010
0001
0000
1000
0001
1000
0000
,
0100
0010
0100
0000
1000
0100
1000
0000
0001
0010
0001
0000
0100
0001
0100
0000
,
0010
1000
0010
0000
0100
0001
0100
0000
0010
1000
0100
0000
1000
0100
1000
0000
,
0100
1000
0100
0000
0010
0001
0010
0000
0100
1000
0100
0000
0010
0001
0010
0000
,
0100
1000
0100
0000
1000
0100
1000
0000
0001
0010
0001
0000
1000
0010
1000
0000
,
0001
0100
0001
0000
1000
0010
1000
0000
0100
1000
0100
0000
0010
0001
0010
0000
,
0001
0100
0001
0000
1000
0001
1000
0000
0010
0100
0010
0000
0100
0010
1000
0100
,
0010
0100
1000
0100
0010
0001
1000
0100
1000
0001
0010
0100
0010
0100
1000
0010
,
0100
0001
1000
0010
1000
0001
0010
0001
0010
0100
0010
0001
1000
0100
0010
0100
,
1000
0001
0100
0010
1000
0010
0100
0001
1000
0010
0100
0010
0100
0001
1000
0010
,
0100
0001
1000
0100
1000
0100
1000
0001
0100
0010
1000
0100
0010
0001
0100
0001
,
0100
0010
1000
0001
0100
0010
1000
0010
0100
0001
0100
0010
0100
0001
0010
0001
,
0100
0001
0010
0100
0010
0001
0100
0001
0100
0001
0010
0100
1000
0010
1000
0001
,
0010
0001
1000
0100
0010
0001
0100
0010
1000
0001
0010
0100
0010
0001
1000
0001
,
0010
0100
1000
0010
1000
0100
1000
0001
0100
0001
1000
0001
0100
0010
1000
0001
,
1000
0001
0010
0100
0010
0100
0010
0001
0100
0010
1000
0010
2200
0000
0000
0000
,
0000
0000
0000
0000
,
0000
0000
0000
0000
,
0000
0000
0000
0000
,
0000
0000
0000
0000
0000
0000
0000
0000
0000
0000
0000
3300
0022
0000
0033
0000
,
0110
0011
2020
3030
0220
0330
0011
0011
,
0220
0000
0000
0330
1100
0000
1100
0000
0202
0000
0000
0303
2020
0000
0000
3030
,
0001
0000
0001
0000
0020
0000
0000
0030
0001
0000
0000
0000
1000
0100
0010
0001
,
2200
0000
0000
3300
0011
0000
1100
0000
1001
0000
0000
0000
0110
0000
0000
0000
,
0011
0000
0011
0000
2020
0000
0000
3030
0202
0000
0000
0303
1100
0000
0011
0000
,
0220
0000
0000
0330
1001
0000
0110
0000
2002
0000
0000
3003
2200
0000
0000
3300
,
0110
0000
1100
0000
0022
0000
0000
0033
2002
0000
0000
3003
0200
0300
0020
0030
,
0200
0300
0000
0000
0110
0000
1100
0000
0220
0000
0000
0330
0001
0000
0000
0000
,
0010
0000
0001
0010
0100
1000
0010
0000
1000
0100
0010
0000
0001
0000
0100
0000
,
0001
0000
0010
0100
1000
0010
1000
0000
0100
0010
0001
0000
0100
0000
0000
0000
,
0010
0000
1000
0100
0010
0001
0100
0000
0001
0010
0100
0000
0011
0000
1100
0000
,
0011
0000
0100
0001
0110
0000
1100
0000
0110
0001
1000
0000
0011
0000
0000
0000
,
0110
0000
0011
0000
2020
0000
0000
3030
0202
0000
0000
0303
1010
0000
0110
0000
,
0022
0000
0000
0033
0110
0000
1100
0000
0202
0000
0000
0303
2200
0000
0000
3300
,
0011
0000
1100
0000
2002
0000
0000
3003
0022
0000
0000
0033
2000
3000
0200
0300
,
2000
0000
0000
3000
0000
0000
0000
0000
0000
0000
0000
0000
0110
0000
0000
0000
0000
0000
1100
0000
0000
0000
0000
0000
0101
0000
0000
0000
0000
0000
0000
0000
0000
0000
0000
0000
0010
0100
0010
0001
0100
0010
0100
0010
1000
0001
0100
0001
,
0100
0010
1000
0001
1000
0010
0100
0001
0010
0001
0100
0001
1000
0100
1000
0001
0010
0100
1000
0100
0010
0001
0100
0010
0100
0001
1000
0100
0010
0100
0010
0001
1000
0010
1000
0100
0010
0001
0010
0001
0100
0010
1000
0010
1000
0100
0010
0100
,
1000
0001
0010
0001
1000
0001
0100
0010
1000
0001
0010
0001
0100
0000
0000
0000
0000
0000
1000
0000
0000
0000
0000
0000
0100
0000
0000
0000
0000
0000
0010
0000
0000
0000
0000
0000
0100
0010
0100
1000
0010
0100
0010
0100
0001
1000
0010
1000
,
0010
0100
0001
1000
0001
0100
0010
1000
0100
1000
0010
1000
0001
0010
0001
1000
0100
0010
0001
0010
0100
1000
0010
0100
0010
1000
0001
0010
0100
0010
0100
1000
0001
0100
0001
0010
0100
1000
0100
1000
0010
0100
0001
0100
0001
0010
0100
0010
,
0001
1000
0100
1000
0001
1000
0010
0100
0001
1000
0100
1000
0010
0000
0000
0000
0000
0000
0001
0000
0000
0000
0000
0000
0010
0000
0000
0000
0000
0000
0000
0000
0000
0000
0000
0000
0000
0000
0000
0000
0000
0000
0000
0000
0000
0000
0000
0000
;
