#TITLE:Field of Dreams;
#SUBTITLE:Vocals Mix;
#ARTIST:xTrance;
#TITLETRANSLIT:;
#SUBTITLETRANSLIT:;
#ARTISTTRANSLIT:;
#CREDIT:;
#BANNER:Field of Dreams-banner.png;
#BACKGROUND:Field of Dreams-bg.png;
#LYRICSPATH:;
#CDTITLE:!star.png;
#MUSIC:xTrance-Field_of_Dreams_(Vocals_Mix).mp3;
#OFFSET:-0.054;
#SAMPLESTART:43.680;
#SAMPLELENGTH:12.000;
#SELECTABLE:YES;
#BPMS:0.000=71.500,52.000=143.000,84.000=35.750,84.250=71.500,84.750=143.000,85.500=286.000,88.000=143.000,280.000=71.500,296.000=143.000,388.000=286.000,392.000=143.000,520.000=71.500;
#STOPS:388.000=0.629
,389.000=0.105
,390.500=0.105
;
#BGCHANGES:;
// cache tags:
#FIRSTBEAT:3.000;
#LASTBEAT:536.063;
#SONGFILENAME:Songs/KBU/Field of Dreams (Vocals Mix) (Stargroup)/dreamy_fields.sm;
#HASMUSIC:1;
#HASBANNER:1;
#MUSICLENGTH:263.711;
// end cache tags

//---------------dance-single - ----------------
#NOTES:
     dance-single:
     :
     Hard:
     10:
     1.000,1.000,1.000,0.137,0.851,1313.000,513.000,36.000,0.000,78.000:
0000
0000
0000
0000
0000
0000
0010
0100
,
2002
3003
0000
0000
0010
0000
0000
0000
0100
0000
0000
0000
0001
0000
0000
0000
0000
0000
0000
0000
0000
0000
0000
0000
0010
0000
0000
0000
0000
0000
0000
0000
1100
0000
0000
0000
0010
0000
0000
0000
0001
0000
0000
0000
0100
0000
0000
0000
0000
0000
0000
0000
0001
0000
0000
0000
0010
0000
0000
0000
0000
0000
0000
0000
,
1001
0000
0000
0000
0000
0000
0000
0000
0000
0000
0000
0000
0100
0000
0000
0000
0000
0000
0000
0000
0000
0000
0000
0000
0010
0000
0000
0000
0000
0000
0000
0000
0000
0000
0000
0000
1000
0000
0000
0000
0000
0000
0000
0000
0000
0000
0000
0000
0000
0000
0000
0000
0000
0000
0000
0000
0000
0000
0000
0000
0100
0000
0000
0000
0000
0000
0000
0000
0000
0000
0000
0000
0010
0000
0000
0000
0000
0000
0000
0000
0000
0000
0000
0000
0001
0000
0000
0000
0000
0000
0000
0000
0000
0000
1000
0000
0100
0000
0000
0000
0000
0000
0000
0000
0000
0000
0000
0000
0010
0000
0000
0000
0000
0000
0000
0000
0000
0000
0000
0000
0101
0000
0000
0000
0000
0000
0000
0000
0000
0000
0000
0000
1000
0000
0000
0000
0000
0000
0000
0000
0000
0000
0000
0000
0110
0000
0000
0000
0000
0000
0000
0000
0000
0000
0000
0000
0000
0000
0000
0000
0000
0000
0000
0000
0000
0000
0000
0000
0011
0000
0000
0000
0000
0000
0000
0000
0000
0000
0000
0000
0000
0000
0000
0000
0000
0000
0000
0000
0000
0000
0000
0000
,
1001
0100
0010
1000
0000
0000
0101
0000
0011
0100
1000
0010
0000
0000
0001
0010
,
1101
0010
0100
1100
0000
0100
0001
0100
0011
0100
1010
0100
0011
1000
0101
0010
,
2002
3003
0000
0000
0010
0000
0000
0000
0100
0000
0000
0000
0001
0000
0000
0000
0000
0000
0000
0000
0000
0000
0000
0000
0010
0000
0000
0000
0000
0000
0000
0000
1100
0000
0000
0000
0010
0000
0000
0000
0001
0000
0000
0000
0100
0000
0000
0000
0000
0000
0000
0000
0001
0000
0000
0000
0010
0000
0000
0000
0000
0000
0000
0000
,
1001
0000
0000
0000
0000
0000
0000
0000
0000
0000
0000
0000
0100
0000
0000
0000
0000
0000
0000
0000
0000
0000
0000
0000
0010
0000
0000
0000
0000
0000
0000
0000
0000
0000
0000
0000
1000
0000
0000
0000
0000
0000
0000
0000
0000
0000
0000
0000
0000
0000
0000
0000
0000
0000
0000
0000
0000
0000
0000
0000
0100
0000
0000
0000
0000
0000
0000
0000
0000
0000
0000
0000
0010
0000
0000
0000
0000
0000
0000
0000
0000
0000
0000
0000
0001
0000
0000
0000
0000
0000
0000
0000
0000
0000
1000
0000
0100
0000
0000
0000
0000
0000
0000
0000
0000
0000
0000
0000
0010
0000
0000
0000
0000
0000
0000
0000
0000
0000
0000
0000
0101
0000
0000
0000
0000
0000
0000
0000
0000
0000
0000
0000
1000
0000
0000
0000
0000
0000
0000
0000
0000
0000
0000
0000
0110
0000
0000
0000
0000
0000
0000
0000
0000
0000
0000
0000
0000
0000
0000
0000
0000
0000
0000
0000
0000
0000
0000
0000
0001
0000
0000
0000
0000
0000
0000
0000
0000
0000
0000
0000
0000
0000
0000
0000
0000
0000
0000
0000
0000
0000
0000
0000
,
1010
0100
0010
1100
0000
0000
0110
0000
0001
0010
1100
0001
1100
0000
0001
0010
,
1101
0010
0100
1100
0000
0100
0001
0100
0011
0100
1010
0100
0011
1000
0101
0010
,
2002
3003
0000
0000
0000
0000
0000
0000
1000
0000
0000
0000
0000
0000
0000
0000
1001
0000
0000
0000
0000
0000
0000
0000
1001
0000
0000
0000
0000
0000
0000
0000
0101
0000
0000
0000
0000
0000
0000
0000
0101
0000
0000
0000
0000
0000
0000
0000
0101
0000
0000
0000
0000
0000
0000
0000
0101
0000
0000
0000
0001
0000
0000
0000
,
1001
0000
0000
0000
1001
0000
0000
0000
1001
0000
0000
0000
0101
0000
0000
0000
1010
0000
0000
0000
0110
0000
0000
0000
0110
0000
0000
0000
0101
0000
0001
0010
,
1001
0000
0000
0000
0100
0000
0000
0000
0010
0000
0000
0000
1100
0000
0000
0000
0010
0000
0000
0000
0100
0000
0000
0000
1001
0000
0000
0000
0100
0000
0000
0000
0010
0000
0000
0000
1000
0000
0000
0000
0011
0000
0000
0000
0100
0000
0000
0000
0011
0000
0000
0000
0100
0000
0000
0000
0010
0000
0000
0000
1000
0000
0100
0010
,
0001
0010
0100
1000
0010
0100
0001
0010
0100
1000
0010
0100
0001
0010
0100
1000
0010
0100
0010
0100
0010
0100
0010
0100
0011
1100
0011
1100
0011
1100
0011
1100
,
1111
0000
0000
0101
0000
0000
0011
0000
0000
0011
0000
0000
0011
0000
1100
0000
,
0101
0000
0000
0110
0000
0000
0101
0000
0000
0101
0000
0000
0101
0000
0110
0000
,
1010
0000
0000
1100
0000
0000
1010
0000
0000
1010
0000
0000
1010
0000
1010
0000
,
1100
0000
0000
1100
0000
0000
1100
0000
0110
0000
0000
1100
0000
0000
1010
0000
,
0011
0000
0000
0101
0000
0000
0011
0000
0000
0011
0000
0000
0011
0000
0011
0000
,
0101
0000
0000
0101
0000
0000
0101
0000
0011
0000
0000
0011
0000
0000
0011
0000
,
1001
0000
0000
1001
0000
0000
1001
0000
0000
1010
0000
0000
1010
0000
1010
0000
,
0011
0000
0000
0011
0000
0000
0011
0000
0000
0101
0000
0000
0101
0000
0101
0000
,
2002
0000
0000
0000
0000
0000
0000
0000
0000
0000
0000
0000
0000
0000
0000
0000
0000
0000
0000
0000
0000
0000
0000
0000
0000
0000
0000
0000
0000
0000
0000
0000
0000
0000
0000
0000
0000
0000
0000
0000
0000
0000
0000
0000
0000
0000
0000
0000
0000
0000
0000
0000
0000
0000
0000
0000
0000
0000
0000
0000
0000
0000
0000
3003
,
1111
0000
0000
0101
1000
0000
0011
0000
0100
0011
0000
0000
1011
0000
1100
0000
,
0111
0000
0000
0110
0001
0000
0101
0000
1000
0101
0000
0000
0111
0000
0110
0000
,
1010
0000
0000
1100
0001
0000
1010
0000
0100
1010
0000
0000
1011
0000
1010
0000
,
1100
0000
0000
1100
0010
0000
1100
0000
0111
0000
0000
1100
0010
0000
1010
0000
,
0011
0000
0000
0101
1000
0000
0011
0000
0100
0011
0000
0000
1011
0000
0011
0000
,
0111
0000
0000
0101
0010
0000
0101
0000
1011
0000
0000
0011
0100
0000
0011
0000
,
1101
0000
0000
1001
0010
0000
1001
0000
0100
1010
0000
0000
1110
0000
1010
0000
,
0111
0000
0000
0011
0100
0000
0011
0000
1000
0101
0000
0000
0111
0000
0101
0000
,
1011
0000
0000
0101
1000
0000
0011
0000
0100
0011
0000
0000
1011
0000
1100
0000
,
0111
0000
0000
0110
0001
0000
0101
0000
1000
0101
0000
0000
0111
0000
0110
0000
,
1010
0000
0000
1100
0001
0000
1010
0000
0100
1010
0000
0000
1011
0000
1010
0000
,
1100
0000
0000
1100
0010
0000
1100
0000
0111
0000
0000
1100
0010
0000
1010
0000
,
0011
0000
0000
0101
1000
0000
0011
0000
0100
0011
0000
0000
1011
0000
0011
0000
,
0111
0000
0000
0101
0010
0000
0101
0000
1011
0000
0000
0011
0100
0000
0011
0000
,
1101
0010
0100
1001
0100
0010
1001
0010
0100
1010
0100
0001
1110
0001
1010
0100
,
0011
0000
0000
0011
0000
0000
0011
0000
0000
0101
0000
0000
0101
0000
0101
0000
,
2002
3003
0000
0000
0000
0000
0000
0000
0010
0000
0000
0000
0000
0000
0000
0000
0101
0000
0000
0000
0000
0000
0000
0000
0001
0000
0000
0000
0000
0000
0000
0000
1000
0000
0000
0000
0000
0000
0000
0000
0001
0000
0000
0000
0000
0000
0000
0000
0101
0000
0000
0000
0000
0000
0000
0000
0010
0000
0000
0000
0000
0000
0000
0000
,
1000
0010
0100
0010
1001
0010
0100
0001
,
1100
0010
0101
0100
1010
0001
0100
0010
,
1100
0010
0100
0001
1000
0010
0101
0010
,
1001
0010
0100
0010
1001
0001
0101
0010
,
1000
0010
0110
0010
1000
0001
0100
0001
,
1100
0010
0100
0010
1000
0010
0101
0010
,
1101
0010
0101
0010
1001
0010
1100
0010
,
2002
3003
0000
0000
0000
0000
0000
0000
0010
0000
0000
0000
0000
0000
0000
0000
0101
0000
0000
0000
0000
0000
0000
0000
0001
0000
0000
0000
0000
0000
0000
0000
1000
0000
0000
0000
0000
0000
0000
0000
0001
0000
0000
0000
0000
0000
0000
0000
0100
0000
0000
0000
0000
0000
0000
0000
0010
0000
0000
0000
0000
0000
0000
0000
,
1000
0001
0110
0010
1001
0010
0100
0010
,
1010
0001
0100
0001
1000
0010
0100
0001
,
1000
0010
0100
0001
1000
0010
0100
0010
,
1001
0001
0100
0010
1000
0010
0110
0001
,
1000
0010
0101
0010
1000
0001
0100
0010
,
1001
0101
1001
0101
,
1010
0000
0010
0000
0110
0000
0010
0000
1010
0010
0010
0010
0110
0010
0010
0010
,
1111
0000
0000
0101
1000
0000
0011
0000
0100
0011
0000
0000
1011
0000
1100
0000
,
0111
0000
0000
0110
0001
0000
0101
0000
1000
0101
0000
0000
0111
0000
0110
0000
,
1010
0000
0000
1100
0001
0000
1010
0000
0100
1010
0000
0000
1011
0000
1010
0000
,
1100
0000
0000
1100
0010
0000
1100
0000
0111
0000
0000
1100
0010
0000
1010
0000
,
0011
0000
0000
0101
1000
0000
0011
0000
0100
0011
0000
0000
1011
0000
0011
0000
,
0111
0000
0000
0101
0010
0000
0101
0000
1011
0000
0000
0011
0100
0000
0011
0000
,
1101
0000
0000
1001
0010
0000
1001
0000
0100
1010
0000
0000
1110
0000
1010
0000
,
0111
0000
0000
0011
0100
0000
0011
0000
1000
0101
1000
0000
1101
0000
1101
0000
,
1111
0000
0000
0101
1000
0000
0011
0000
0100
0011
0000
0000
1011
0000
1100
0000
,
0111
0000
0000
0110
0001
0000
0101
0000
1000
0101
0000
0000
0111
0000
0110
0000
,
1010
0000
0000
1100
0001
0000
1010
0000
0100
1010
0000
0000
1011
0000
1010
0000
,
1100
0000
0000
1100
0010
0000
1100
0000
0111
0000
0000
1100
0010
0000
1010
0000
,
0011
0000
0000
0101
1000
0000
0011
0000
0100
0011
0000
0000
1011
0000
0011
0000
,
0111
0000
0000
0101
0010
0000
0101
0000
1011
0000
0000
0011
0100
0000
0011
0000
,
1101
0000
0000
1001
0010
0000
1001
0000
0100
1010
0000
0000
1110
0000
1010
0000
,
0111
0000
0000
0011
0000
0000
0011
0000
1000
0101
0000
0000
1101
0000
0101
0000
,
2002
3003
0000
0000
0010
0000
0000
0000
0100
0000
0000
0000
0001
0000
0000
0000
0000
0000
0000
0000
0000
0000
0000
0000
0010
0000
0000
0000
0000
0000
0000
0000
1100
0000
0000
0000
0010
0000
0000
0000
0001
0000
0000
0000
0100
0000
0000
0000
0000
0000
0000
0000
0001
0000
0000
0000
0010
0000
0000
0000
0000
0000
0000
0000
,
1001
0000
0000
0000
0000
0000
0000
0000
0000
0000
0000
0000
0100
0000
0000
0000
0000
0000
0000
0000
0000
0000
0000
0000
0010
0000
0000
0000
0000
0000
0000
0000
0000
0000
0000
0000
1000
0000
0000
0000
0000
0000
0000
0000
0000
0000
0000
0000
0000
0000
0000
0000
0000
0000
0000
0000
0000
0000
0000
0000
0100
0000
0000
0000
0000
0000
0000
0000
0000
0000
0000
0000
0010
0000
0000
0000
0000
0000
0000
0000
0000
0000
0000
0000
0001
0000
0000
0000
0000
0000
0000
0000
0000
0000
1000
0000
0100
0000
0000
0000
0000
0000
0000
0000
0000
0000
0000
0000
0010
0000
0000
0000
0000
0000
0000
0000
0000
0000
0000
0000
0101
0000
0000
0000
0000
0000
0000
0000
0000
0000
0000
0000
1000
0000
0000
0000
0000
0000
0000
0000
0000
0000
0000
0000
0110
0000
0000
0000
0000
0000
0000
0000
0000
0000
0000
0000
0000
0000
0000
0000
0000
0000
0000
0000
0000
0000
0000
0000
0011
0000
0000
0000
0000
0000
0000
0000
0000
0000
0000
0000
0000
0000
0000
0000
0000
0000
0000
0000
0000
0000
0000
0000
,
1001
0100
0010
1000
0000
0000
0101
0000
0011
0100
1000
0010
0000
0000
0001
0010
,
1101
0000
0010
0000
0100
0000
1100
0000
0000
0000
0100
0000
0001
0000
0100
0000
0011
0000
0100
0000
1010
0000
0100
0000
0011
0100
1000
0100
0011
0100
0010
0100
,
2002
3003
0000
0000
0100
0000
0000
0000
0010
0000
0000
0000
0100
0000
0000
0000
1000
0000
0000
0000
0001
0000
0000
0000
1000
0000
0000
0000
0100
0000
0000
0000
0010
0000
0000
0000
1000
0000
0000
0000
0100
0000
0000
0000
0001
0000
0000
0000
0100
0000
0000
0000
1000
0000
0000
0000
0010
0000
0000
0000
0100
0000
0000
0000
,
1010
0100
0001
0010
1000
0100
0010
0100
0001
1000
0100
0001
0100
1000
0010
0100
,
1001
0010
0100
0001
0100
0010
0100
1000
0001
1000
0100
0010
1000
0100
0001
0010
,
1100
0001
0010
1000
0100
0001
0100
1000
0010
1000
0100
0001
0100
1000
0010
0100
,
1001
0100
0010
0100
1000
0001
1000
0100
0010
1000
0100
0001
0100
1000
0010
0100
,
1010
0100
0001
0010
1000
0100
0010
0100
0001
1000
0100
0001
0100
1000
0010
0100
,
1001
0010
0100
1000
0010
0100
0001
0010
0100
1000
0010
0100
0001
0010
0100
1000
,
0021
1000
0201
1000
,
2332
3003
0000
0000
0000
0000
0000
0000
0000
0000
0000
0000
0000
0000
0000
0000
0001
0000
0000
0000
0000
0000
0000
0000
0001
0000
0000
0000
0000
0000
0000
0000
0000
0000
0000
0000
0000
0000
0000
0000
0001
0000
0000
0000
0000
0000
0000
0000
0001
0000
0000
0000
0000
0000
0000
0000
0010
0000
0000
0000
0000
0000
0000
0000
,
0000
0010
0000
0010
0100
0000
0000
0100
,
1000
0000
1000
1000
0000
0100
0000
0100
,
0000
0010
0000
0001
0000
0000
1000
0000
,
0001
0000
0000
0001
0010
0010
0010
0100
,
0000
0100
0100
0100
0000
1000
0000
0000
,
0001
0000
0000
0000
0000
0100
0010
0100
,
1011
0000
0001
0000
1001
1000
1010
1000
,
2002
3003
0000
0000
0000
0000
0000
0000
0000
0000
0000
0000
0000
0000
0000
0000
0001
0000
0000
0000
0000
0000
0000
0000
0001
0000
0000
0000
0000
0000
0000
0000
0000
0000
0000
0000
0000
0000
0000
0000
0001
0000
0000
0000
0000
0000
0000
0000
0000
0000
0000
0000
0000
0000
0000
0000
0010
0000
0000
0000
0000
0000
0000
0000
,
0000
0000
0010
0100
0000
0000
0000
0100
,
1000
0000
0100
0100
0000
0010
0000
0001
,
0000
0010
0000
0100
0000
0000
0000
1000
,
0001
0001
0000
0000
0000
0001
0001
0010
,
0000
0000
0100
0010
0000
1000
0000
0000
,
0002
0000
0000
0000
0010
0000
0000
0000
0100
0000
0000
0000
1000
0000
0000
0000
0010
0000
0000
0000
0100
0000
0000
0000
0010
0000
0000
0000
1000
0000
0000
0000
0100
0000
0000
0000
0010
0000
0000
0000
1000
0000
0000
0000
0100
0000
0000
0000
1000
0000
0000
0000
0010
0000
0000
0000
0100
0000
0000
0000
0010
0000
0000
0003
,
1001
0000
1001
0000
0000
1001
0000
0000
,
2002
3003
0000
0000
0100
0000
0000
0000
0010
0000
0000
0000
0100
0000
0000
0000
0000
0000
0000
0000
0001
0000
0000
0000
1000
0000
0000
0000
0100
0000
0000
0000
0010
0000
0000
0000
1000
0000
0000
0000
0100
0000
0000
0000
0001
0000
0000
0000
0100
0000
0000
0000
1000
0000
0000
0000
0010
0000
0000
0000
0100
0000
0000
0000
,
1010
0100
0001
0010
0000
0100
0010
0100
0001
1000
0100
0001
0100
1000
0010
0100
,
1001
0010
0100
0001
0000
0010
0100
1000
0001
1000
0100
0010
1000
0100
0001
0010
,
1100
0001
0010
1000
0000
0001
0100
1000
0010
1000
0100
0001
0100
1000
0010
0100
,
1001
0100
0010
0100
1000
0001
1000
0100
0010
1000
0100
0001
0100
1000
0010
0100
,
1010
0100
0001
0010
1000
0100
0010
0100
0001
1000
0100
0001
0100
1000
0010
0100
,
1001
0100
0001
0010
0100
0010
1000
0100
0001
0100
1000
0010
0100
0010
0001
0100
,
1001
0010
0100
0001
0010
1000
0010
0001
0100
0001
0010
1000
0010
1000
0100
0010
,
1001
0100
0010
0100
1010
0001
1000
0100
0011
1000
0100
0001
0110
1000
0010
0100
,
1010
0100
0001
0010
1001
0100
0010
0100
0011
1000
0100
0001
0110
1000
0010
0100
,
1001
0010
0100
0001
1100
0010
0100
1000
0011
1000
0100
0010
1001
0100
0001
0010
,
1100
0001
0010
1000
0110
0001
0100
1000
0011
1000
0100
0001
0110
1000
0010
0100
,
1001
0100
0010
0100
1010
0001
1000
0100
0011
1000
0100
0001
0110
1000
0010
0100
,
1010
0100
0001
0010
1001
0100
0010
0100
0011
1000
0100
0001
0110
1000
0010
0100
,
1001
0100
0001
0010
1100
0010
1000
0100
0011
0100
1000
0010
1100
0010
0001
0100
,
0000
0000
0001
0000
0000
1000
0000
0000
0001
0000
0000
1000
0000
0000
0000
0000
,
2112
3003
0000
0000
0000
0000
0000
0000
0010
0000
0000
0000
1000
0000
0000
0000
0101
0000
0000
0000
0000
0000
0000
0000
0011
0000
0000
0000
0000
0000
0000
0000
1000
0000
0000
0000
0110
0000
0000
0000
0001
0000
0000
0000
0000
0000
0000
0000
0101
0000
0000
0000
0000
0000
0000
0000
0110
0000
0000
0000
0000
0000
0000
0000
,
1101
0000
0010
1001
0100
0000
0011
0000
1001
0100
0010
0000
0101
0000
0011
0000
,
1110
0000
0010
1000
0101
0000
0110
0000
1010
0100
0001
0000
0110
0000
0011
0000
,
1101
0000
0010
1001
0100
0000
0011
0000
1000
0101
0010
0000
0101
0000
0110
0000
,
1101
0000
0010
1001
0100
0000
0110
0000
1001
0110
0001
0000
0101
0000
0110
0000
,
1101
0000
0010
1001
0110
0000
0011
0000
1000
0110
0001
0000
0110
0000
0011
0000
,
1110
0000
0010
1001
0100
0000
0011
0000
1000
0101
0010
0000
0101
0000
0110
0000
,
1011
0000
0010
1001
0100
0000
0011
0000
1000
0101
0010
0000
0101
0000
0110
0000
,
1101
0000
0010
1000
0101
0000
0011
0000
1000
0110
0001
0000
0101
0000
0011
0000
,
1110
0000
0001
1000
0110
0000
0011
0000
1001
0100
0010
0000
0101
0000
0011
0000
,
1110
0000
0001
1010
0100
0000
0011
0000
1000
0101
0010
0000
0110
0000
0011
0000
,
1101
0000
0010
1001
0100
0000
0011
0000
1000
0101
0010
0000
0101
0000
0110
0000
,
1011
0000
0001
1010
0100
0000
0011
0000
1000
0101
0010
0000
0110
0000
0101
0000
,
1011
0000
0010
1000
0101
0000
0011
0000
1000
0110
0001
0000
0101
0000
0110
0000
,
1011
0101
1001
0101
,
2010
3000
0000
0000
0000
0000
0000
0000
0010
0000
0000
0000
0000
0000
0000
0000
0210
0300
0000
0000
0000
0000
0000
0000
0010
0000
0000
0000
0000
0000
0000
0000
2010
3000
0000
0000
0010
0000
0000
0000
0010
0000
0000
0000
0010
0000
0000
0000
0210
0300
0000
0000
0010
0000
0000
0000
0010
0000
0000
0000
0010
0000
0000
0000
,
2102
3003
0000
0000
0010
0000
0000
0000
0100
0000
0000
0000
0001
0000
0000
0000
0000
0000
0000
0000
0000
0000
0000
0000
0010
0000
0000
0000
0000
0000
0000
0000
1100
0000
0000
0000
0010
0000
0000
0000
0001
0000
0000
0000
0100
0000
0000
0000
0000
0000
0000
0000
0001
0000
0000
0000
0010
0000
0000
0000
0000
0000
0000
0000
,
1001
0000
0000
0000
0000
0000
0000
0000
0000
0000
0000
0000
0100
0000
0000
0000
0000
0000
0000
0000
0000
0000
0000
0000
0010
0000
0000
0000
0000
0000
0000
0000
0000
0000
0000
0000
1000
0000
0000
0000
0000
0000
0000
0000
0000
0000
0000
0000
0000
0000
0000
0000
0000
0000
0000
0000
0000
0000
0000
0000
0100
0000
0000
0000
0000
0000
0000
0000
0000
0000
0000
0000
0010
0000
0000
0000
0000
0000
0000
0000
0000
0000
0000
0000
0001
0000
0000
0000
0000
0000
0000
0000
0000
0000
1000
0000
0100
0000
0000
0000
0000
0000
0000
0000
0000
0000
0000
0000
0010
0000
0000
0000
0000
0000
0000
0000
0000
0000
0000
0000
0101
0000
0000
0000
0000
0000
0000
0000
0000
0000
0000
0000
1000
0000
0000
0000
0000
0000
0000
0000
0000
0000
0000
0000
0110
0000
0000
0000
0000
0000
0000
0000
0000
0000
0000
0000
0000
0000
0000
0000
0000
0000
0000
0000
0000
0000
0000
0000
0011
0000
0000
0000
0000
0000
0000
0000
0000
0000
0000
0000
0000
0000
0000
0000
0000
0000
0000
0000
0000
0000
0000
0000
,
1001
0100
0010
1000
0000
0000
0101
0000
0011
0100
1000
0010
0000
0000
0001
0010
,
1101
0010
0100
1100
0000
0100
0001
0100
0011
0100
1010
0100
0011
1000
0101
0010
,
2202
3303
0000
0000
0000
0000
0000
0000
0000
0000
0000
0000
0000
0000
0000
0000
0000
0000
0000
0000
0000
0000
0000
0000
0000
0000
0000
0000
0000
0000
0000
0000
0000
0000
0000
0000
0000
0000
0000
0000
0000
0000
0000
0000
0000
0000
0000
0000
0000
0000
0000
0000
0000
0000
0000
0000
0000
0000
0000
0000
0000
0000
0000
0000
;
