#TITLE:A Very Gabber Christmas;
#SUBTITLE:Merry Christmas and have a happy new year!;
#ARTIST:Family Farce;
#TITLETRANSLIT:;
#SUBTITLETRANSLIT:;
#ARTISTTRANSLIT:;
#CREDIT:;
#BANNER:A_Very.png;
#BACKGROUND:A Very- bg.png;
#LYRICSPATH:;
#CDTITLE:!cleaner88hpi.png;
#MUSIC:A Very Gabber Christmas.ogg;
#OFFSET:0.000;
#SAMPLESTART:87.720;
#SAMPLELENGTH:12.000;
#SELECTABLE:YES;
#DISPLAYBPM:*;
#BPMS:0.000=316.000,24.000=316.000,44.000=599.998,97.000=158.002,161.000=205.003;
#STOPS:229.500=0.140
,230.500=0.140
,260.000=0.160
,261.000=0.140
,262.000=0.160
,263.000=0.140
,266.000=0.160
,267.000=0.140
,268.000=0.160
,269.000=0.140
;
#BGCHANGES:;
// cache tags:
#FIRSTBEAT:0.000;
#LASTBEAT:411.000;
#SONGFILENAME:Songs/Hard Songs Megapack Volume 9/A Very Gabber Christmas/A Very Gabber Christmas.sm;
#HASMUSIC:1;
#HASBANNER:1;
#MUSICLENGTH:117.557;
// end cache tags

//---------------dance-single - ----------------
#NOTES:
     dance-single:
     :
     Hard:
     15:
     1.000,1.000,1.000,0.885,1.000,823.000,459.000,104.000,52.000,25.000:
1100
0110
0011
0110
,
1010
0110
0101
0110
,
1010
1001
0101
1001
,
1100
1010
0110
0101
,
0011
0101
0110
1010
,
1100
1001
0011
1001
,
0110
1001
0110
1001
,
1100
0000
0000
0000
1001
0000
0000
0000
0100
0010
0100
0010
0100
0010
0100
0010
,
1100
0000
1100
0001
0110
0000
0110
0001
,
1100
0010
0101
0000
1100
0000
0000
0001
,
0110
0000
0100
0010
0000
0010
0100
0000
,
2002
3003
0000
0000
0000
0000
0000
0000
1100
0000
0000
0000
0110
0000
0000
0000
,
1010
0101
1100
0011
,
0110
0101
0011
1100
,
0110
0001
0011
1010
,
0101
1010
0110
0101
,
1010
0110
0101
0011
,
1100
0101
0110
1010
,
1001
1100
0110
0011
,
0110
0000
0101
0000
1100
0010
1100
0010
,
1100
0010
0101
1000
0101
1000
0101
1000
,
0110
0001
0110
0001
0110
0001
1010
0100
,
1010
0100
1010
0100
1010
0100
1010
0100
,
1010
0000
0100
0000
0010
0100
0010
0100
0010
0100
0010
0100
0010
0100
0010
0100
,
0010
0100
0010
0100
2000
0000
3002
0000
2003
0000
3002
0000
2003
0000
3002
0000
,
2003
3002
0103
0001
0101
0000
0100
1000
,
1100
0000
0010
0001
0200
0000
0320
0000
0230
0000
0320
0000
0230
0000
0320
0000
,
0230
0320
0031
1000
1001
0000
0010
1000
,
1010
0000
0100
1000
0020
0000
0032
0000
0023
0000
0032
0000
0023
0000
0032
0000
,
0023
0032
0103
0010
0110
0000
0001
1000
,
1001
0000
0100
0010
0002
0000
2003
0000
3002
0000
2003
0000
3002
0000
2003
0000
,
3002
0000
0000
0000
2003
0000
0000
0000
3010
0000
0000
0000
0100
0000
0000
0000
0010
0000
0100
0000
0001
0000
1000
0000
0000
0000
1000
0100
0010
0000
0000
0000
,
0001
1000
0001
1000
0001
1000
0001
1000
0012
0000
0000
0000
1003
0000
0000
0000
0012
0000
0000
0000
1003
0000
0000
0000
0012
0000
0000
0000
1003
0000
0000
0000
,
0000
0000
2100
3001
2100
3001
2100
3001
,
0000
0120
0231
1320
,
0000
0132
1023
0000
0000
0000
0030
0000
,
1000
1000
0120
1030
0120
1030
0120
0000
,
0030
0120
1230
0301
1200
0301
1200
0000
,
0300
0200
0312
0000
0123
0000
1230
0000
,
2301
0000
3200
0302
0003
2000
3000
0002
,
0023
0030
1000
0001
1000
0001
1000
0001
,
1000
0001
1000
0001
1000
0001
1000
0001
,
1000
0000
0001
0000
0110
0010
1010
0010
0011
0010
0110
0010
0021
0000
0000
0000
,
0000
0000
0000
0030
1100
0100
0110
0100
0101
0100
1100
0100
0201
0000
0000
0000
,
0000
0000
0000
0300
1010
1000
1001
1000
1100
1000
1001
1000
2010
0000
0000
0000
,
0000
0000
0000
0000
0000
0000
3000
0000
0101
0000
0001
0000
0011
0000
0001
0000
1001
0000
0001
0000
0101
0000
0001
0000
1000
0100
0010
0001
1000
0100
0010
0001
,
2000
0000
3000
0000
0110
1010
0011
0110
1011
0110
1010
0011
0120
0100
0100
0100
,
0100
0000
0000
0030
1001
1100
1010
1001
1010
1001
1100
1010
2100
0100
0100
0100
,
0100
0000
0000
3000
0101
1001
0101
0011
1001
0011
0101
1001
0102
0100
0100
0100
,
0100
0000
0000
0000
0000
0000
0003
0000
1100
0000
0110
0000
0101
0000
0110
0000
0101
0000
1100
0000
0101
0000
0110
0000
1000
0100
0010
0001
1000
0100
0010
0001
,
2000
0000
0000
0000
0000
3000
0000
0000
1100
0000
0000
0000
0100
0000
0000
0000
0110
0000
0000
0000
0010
0000
0000
0000
0011
0000
0000
0000
0001
0000
0000
0000
,
0011
0010
0110
0100
0101
0100
1100
1000
,
1010
0010
0110
0010
0011
0010
0110
0010
,
1010
0000
0000
0000
1000
0000
0000
0000
1100
0000
0000
0000
0100
0000
0000
0000
0110
0000
0000
0000
0010
0000
0000
0000
1010
0000
0000
0000
0001
0010
0100
1000
,
0001
0010
0100
1000
0001
0010
0100
1000
0011
0000
0011
0000
0110
0000
0110
0000
0101
0000
0101
0000
1010
0000
1010
0000
1001
0000
1001
0000
0101
0000
0101
0000
,
1010
0000
0000
0000
1100
1100
0101
0101
0110
0110
1010
1010
0101
0101
1100
1100
,
0110
0000
0000
0000
1100
1100
0110
0110
0101
0101
1010
1010
1001
1001
0101
0101
,
0110
0000
0000
0000
1001
0000
1001
0000
1001
0000
1001
0000
0220
0000
0000
0330
,
0011
0000
0110
0000
1010
1100
0000
0000
,
0011
0000
0110
0000
1010
1100
0000
0000
,
0011
0000
0110
0000
1010
1100
0000
0000
,
1002
0000
0000
0000
0003
0000
0000
0000
1002
0000
0000
0000
0123
0000
0000
0000
0000
0000
0000
0000
2030
0000
0000
0000
3100
0010
0100
0010
0100
0010
0100
0010
,
1001
0000
0110
0000
1001
1100
0000
0000
,
1001
0000
0110
0000
1001
1100
0000
0000
,
1001
0000
0110
0000
1001
1100
0000
0000
,
0120
0030
0000
MMMM
0000
0000
0000
0000
0000
0000
0000
0000
0000
0000
0000
0000
0120
0030
0000
MMMM
0000
0000
0000
0000
0000
0000
0000
0000
0000
0000
0000
0000
2100
3000
0000
MMMM
0000
0000
0000
0000
0000
0000
0000
0000
0000
0000
0000
0000
2100
3000
0000
MMMM
0000
0000
0000
0000
0000
0000
0000
0000
0000
0000
0000
0000
,
1000
0000
0001
0000
1000
0000
0001
0000
1000
0000
0001
0000
1000
0000
0001
0000
0000
0000
0000
0000
0000
0000
0000
0000
0000
0000
0000
0000
0000
0000
0000
0000
0012
0003
0000
MMMM
0000
0000
0000
0000
0000
0000
0000
0000
0000
0000
0000
0000
0012
0003
0000
MMMM
0000
0000
0000
0000
0000
0000
0000
0000
0000
0000
0000
0000
,
1020
0030
0000
MMMM
0000
0000
0000
0000
0000
0000
0000
0000
0000
0000
0000
0000
1020
0030
0000
MMMM
0000
0000
0000
0000
0000
0000
0000
0000
0000
0000
0000
0000
1001
0000
0000
0000
0100
0000
0000
0000
0001
0000
0000
0000
0100
0000
0000
0000
1000
0000
0000
0000
0100
0000
0000
0000
0001
0000
0000
0000
0100
0000
0000
0000
,
1000
0100
0001
0100
1000
0100
0001
0100
1000
0100
0001
0100
1000
0100
0001
0100
,
1000
0100
0001
0100
1000
0100
0001
0100
1000
0100
0001
0100
1000
0100
0001
0100
,
1000
0100
0001
0100
1000
0100
0001
0100
1000
0100
0001
0100
0010
0100
0010
0100
,
0011
1001
0101
0011
0101
0011
1001
0101
1001
0011
0101
1001
0011
1001
0101
0011
,
1001
0000
0000
0011
0000
0000
0101
0000
0000
0011
0000
0000
1001
0000
0000
0011
0000
0000
0101
0000
0000
1001
0000
0000
0110
0000
0000
0000
2002
0000
0000
0000
0000
0000
0000
0000
0000
0000
0000
0000
0000
0000
0000
0000
3003
0000
0000
0000
,
0110
1100
0101
0110
0101
1100
0110
1100
0101
0110
1100
0101
1100
0110
1100
0101
,
0110
0000
0000
0101
0000
0000
1100
0000
0000
0101
0000
0000
0110
0000
0000
1100
0000
0000
0110
0000
0000
0101
0000
0000
1010
0000
0000
0000
0202
0000
0000
0000
0000
0000
0000
0000
0000
0000
0000
0000
0000
0000
0000
0000
0303
0000
0000
0000
,
1101
1100
1011
0110
1011
0110
0111
0110
,
1110
0000
0000
0101
0000
0000
1011
0000
0000
0110
0000
0000
1100
0000
0022
0000
0000
0000
0000
0000
0000
0000
0033
0000
,
1011
0011
0111
1110
0011
0111
1101
1100
,
1011
0000
0000
0011
0000
0000
0111
0000
0000
0110
0000
0000
0110
0000
2002
0000
0000
0000
0000
0000
0000
0000
3003
0000
,
1100
0000
0011
0000
0000
0000
0000
0000
0000
0000
0000
0000
0000
0000
0000
0011
0000
1100
0000
0000
0000
0000
0000
0000
,
0000
0000
0000
0000
0000
0000
0000
0000
0000
0000
0000
0000
1100
0000
0000
0000
0011
0000
0000
0000
0000
0000
0000
0000
0000
0000
0000
0000
0000
0000
0000
0000
0000
0000
0000
0000
0000
0000
0000
0000
0000
0000
0011
0000
0000
0011
0000
0000
,
0011
0011
0011
0011
0011
0011
0011
0011
0011
0000
0010
0000
0110
0000
0100
0000
,
0101
0100
1100
1000
1010
0010
0110
0010
,
1010
1000
1100
0100
0101
0001
0011
0010
,
0110
0100
0101
0100
0110
0010
0011
0001
,
0101
0000
0000
0000
1000
0100
0010
0001
1000
0100
0010
0001
1000
0100
0010
0001
1100
0000
0110
0000
1100
0000
0101
0000
0110
0000
1100
0000
0101
0000
1100
0000
,
0110
0101
1100
0110
1100
0000
0000
0000
0011
1010
0110
0011
0110
0011
1010
0110
,
1010
0011
0110
0011
0110
0000
0000
0000
1100
1010
1001
1010
1100
1001
1100
1010
,
1100
1001
1010
1001
1100
0000
0000
0000
0011
1001
0101
1001
0011
0101
0011
1001
,
0101
0011
1001
0101
1001
0000
0000
0000
0011
0000
0010
0000
0110
0000
0100
0000
,
1100
1000
1001
0001
0101
0100
0110
0010
,
0011
0001
0101
0100
0110
0010
1010
0010
,
0110
0100
0101
0001
0011
0010
0011
0010
,
0110
0010
0110
0100
0101
0001
1001
1000
,
1100
0100
0101
0001
0011
0010
0011
0010
,
1010
0010
0110
0010
1010
1000
1100
0100
,
0110
0010
0011
0001
1001
1001
0000
1001
,
1001
0000
0000
0000
0000
0000
0000
0000
0000
0000
0000
0000
0000
0000
0000
0000
0220
0000
0000
0000
0000
0000
0000
0000
0000
0000
0000
0000
0000
0000
0000
0000
0330
0000
0000
0000
0000
0000
0000
0000
0020
0000
0000
0000
0000
0000
0000
0000
MM3M
00M0
0000
0000
0000
0000
0000
0000
0200
0000
0000
0000
0000
0000
0000
0000
,
M3MM
0000
0000
0M00
0000
0000
0000
0000
0000
0000
0000
0000
0000
0000
0000
0000
0000
0000
0000
0000
0000
0000
0000
0000
0000
0000
0000
0000
0000
0000
0000
0000
0020
0000
0000
0000
0000
0000
0000
0000
0000
0000
0000
0000
0000
0000
0000
0000
MM3M
0000
0000
00M0
0000
0000
0000
0000
0000
0000
0000
0000
0000
0000
0000
0000
0000
0000
0000
0000
0000
0000
0000
0000
0000
0000
0000
0000
0000
0000
0000
0000
0000
0000
0000
0000
0200
0000
0000
0000
0000
0000
0000
0000
0000
0000
0000
0000
0000
0000
0000
0000
0000
0000
0000
0000
0000
0000
0000
0000
M3MM
0000
0000
0M00
0000
0000
0000
0000
0000
0000
0000
0000
0000
0000
0000
0000
0000
0000
0000
0000
0000
0000
0000
0000
0000
0000
0000
0000
0000
0000
0020
0000
0000
0000
0000
0000
0000
0000
0000
0000
0000
0000
0000
0000
0000
0000
0000
0000
MM3M
0000
0000
00M0
0000
0000
0000
0000
0000
0000
0000
0000
0000
0000
0000
0000
0000
0000
0000
0000
0000
0000
0000
0000
0000
0000
0000
0000
0000
0000
0000
0000
0000
0000
0000
0000
,
0000
0000
0000
0000
,
1111
0000
0000
0010
0000
0100
0010
0000
,
0000
0000
0000
0000
2000
0000
0000
0000
0000
0000
0000
0000
0000
0000
0000
0000
0000
0000
3000
0000
0000
0000
0000
0000
0002
0000
0000
0000
0003
0000
0000
0000
0000
0002
0000
0000
0000
0000
0000
0020
0000
0000
0000
0000
0000
0000
0000
0000
,
0033
0000
1000
0100
0020
0000
0030
0001
0000
0100
0000
0000
;
