#TITLE:[4-Boss] Rondo Alla Turka;
#SUBTITLE:;
#ARTIST:Dorothy's Magic Bag;
#TITLETRANSLIT:;
#SUBTITLETRANSLIT:;
#ARTISTTRANSLIT:;
#CREDIT:;
#BANNER:../Beast 4 - bn.png;
#BACKGROUND:../Beast 4 - bg.png;
#LYRICSPATH:;
#CDTITLE:;
#MUSIC:Rondo alla Turka.ogg;
#OFFSET:0.010;
#SAMPLESTART:97.620;
#SAMPLELENGTH:12.000;
#SELECTABLE:YES;
#BPMS:0.000=249.932;
#STOPS:;
#BGCHANGES:;
// cache tags:
#FIRSTBEAT:15.000;
#LASTBEAT:470.500;
#SONGFILENAME:Songs/Beast Aoreo BEAST! 4/Rondo Alla Turka - [Aoreo]/Rondo alla Turka.sm;
#HASMUSIC:1;
#HASBANNER:1;
#MUSICLENGTH:114.031;
// end cache tags

//---------------dance-single - J. Nero----------------
#NOTES:
     dance-single:
     J. Nero:
     Challenge:
     17:
     1.000,1.000,0.009,0.307,1.000,1160.000,1.000,35.000,7.000,0.000:
0000
0000
0000
0000
,
0000
0000
0000
0000
,
0000
0000
0000
0000
,
0000
0000
0000
0000
0000
0000
1000
0001
,
0100
0000
0001
0000
0010
0000
0000
0000
0100
1000
0001
1000
0010
0000
0000
0000
,
1000
0010
0100
0001
1000
0100
1000
0001
0100
0001
1000
0010
0100
0000
0000
0000
,
0001
0000
1000
0100
1000
0000
0100
0000
1000
0000
0001
0100
0001
0000
0010
0000
,
0100
0000
1000
0001
1000
0000
0010
0000
0100
0000
0001
0000
1000
0000
0000
0000
,
0001
0100
0001
1000
0100
0000
0000
0000
0010
0001
1000
0001
0100
0000
0000
0000
,
0001
1000
0100
1000
0001
0100
0001
1000
0100
0010
0100
1000
0001
0000
0000
0000
,
1000
0000
0010
0100
0010
0000
0100
0000
0001
0000
0010
0100
1000
0000
0001
0000
,
0100
0000
0010
1000
0010
0000
1000
0000
0100
0000
0010
0000
0001
0000
0000
0000
,
1000
0000
0100
0000
0010
0000
0100
0000
1000
0001
1000
0010
0100
0000
0000
0000
,
0001
0000
0100
0000
0001
1000
0001
0010
0100
1000
0001
1000
0010
0000
0000
0000
,
0100
0000
0001
0000
1000
0000
0001
0000
0010
0100
1000
0001
1000
0000
0000
0000
,
0001
0000
0100
0000
0010
0000
0100
0000
0001
1000
0100
0010
0001
0000
0000
0000
,
1000
0100
1000
0001
1000
0000
0000
0000
0001
0100
0001
1000
0001
0000
0000
0000
,
1000
0010
1000
0001
0100
0001
1000
0100
0010
0001
1000
0001
0100
0000
0000
0000
,
0001
0100
0010
0100
0001
1000
0100
0010
,
0100
1000
0002
0003
0100
0001
0010
0000
,
0100
0000
1000
0000
0010
0000
0100
0000
0010
1000
0001
0100
0001
0000
0000
0000
,
1000
0000
0100
0000
0010
0000
0100
0000
1000
0001
1000
0010
0100
0000
0000
0000
,
0001
0100
0001
0000
0011
0000
0010
0100
,
1000
0000
0000
1000
0000
0000
0001
0000
0000
0000
0100
0000
0001
0000
0010
0000
0100
0000
1000
0000
0000
0000
0000
0000
,
0001
0000
0000
0000
1000
0000
0000
0000
0100
0000
0000
0000
0010
0000
0000
0000
0000
0000
0000
0000
0000
0000
0000
0000
0001
0000
0000
0100
0000
0000
0001
0000
0000
1000
0000
0000
0100
0000
0000
0000
0000
0000
0000
0000
0000
0000
0000
0000
,
1000
0100
1000
0001
0100
0010
0100
0001
1000
0001
0010
0100
1000
0001
0100
0001
,
1000
0010
0100
0001
1000
0100
1000
0001
0100
0000
0001
0000
0010
0000
0100
0000
,
1000
0000
0001
0000
0100
0000
0000
0000
0001
0100
0001
1000
0100
0000
0000
0000
,
0010
0000
0001
0000
1000
0001
1000
0001
0100
0000
0010
0000
0100
0000
0001
0000
,
0010
0000
0100
1000
0001
0000
1000
0100
1000
0001
0100
0000
0010
0000
0100
0000
,
0001
0000
0000
0000
0000
0000
0000
0000
0000
0000
0000
0000
1000
0000
0000
0000
0000
0000
0000
0000
0000
0000
0000
0000
0001
0000
0000
0000
0000
0000
0000
0000
0000
0000
0000
0000
0100
0000
0000
0000
0000
0000
0000
0000
0000
0000
0000
0000
0001
0000
0000
0000
0000
0000
0000
0000
0000
0000
0000
0000
0000
0000
0000
0000
0000
0000
0000
0000
0000
0000
0000
0000
0000
2000
3000
0000
0000
0000
0000
0000
0000
0000
0000
0000
0000
0000
0000
0000
0000
0000
0000
0000
0000
0000
0000
0000
0000
0000
0200
0300
0000
0000
0000
0000
0000
0000
0000
0000
0000
0000
0000
0000
0000
0000
0000
0000
0000
0000
0000
0000
0000
0020
0030
0000
0000
0000
0000
0000
0000
0000
0000
0000
0000
0000
0000
0000
0000
0000
0000
0000
0000
0000
0000
0000
0000
0200
0300
0000
0000
0000
0000
0000
0000
0000
0000
0000
0000
0000
0000
0000
0000
0000
0000
0000
0000
0000
0000
0000
0000
2000
3000
0000
0000
0000
0000
0000
0000
0000
0000
0000
0000
0000
0000
0000
0000
0000
0000
0000
0000
0000
0000
0000
,
0000
0002
0003
0000
0000
0000
0000
0000
0000
0000
0000
0000
0000
0000
0000
0000
0000
0000
0000
0000
0000
0000
0000
0000
0100
0000
0000
0000
0000
0000
0000
0000
0000
0000
0000
0000
0000
0000
0000
0000
0000
0000
0000
0000
0000
0000
0000
0000
0010
0000
0000
0000
0000
0000
0000
0000
0000
0000
0000
0000
0000
0000
0000
0000
0000
0000
0000
0000
0000
0000
0000
0000
0100
0000
0000
0000
0000
0000
0000
0000
0000
0000
0000
0000
0000
0000
0000
0000
0000
0000
0000
0000
0000
0000
0000
0000
0001
0000
0000
0000
0000
0000
0000
0000
0000
0000
0000
0000
0000
0000
0000
0000
0000
0000
0000
0000
0000
0000
0000
0000
0010
0000
0000
0000
0000
0000
0000
0000
0000
0000
0000
0000
0000
0000
0000
0000
0000
0000
0000
0000
0000
0000
0000
0000
0200
0000
0000
0000
0000
0000
0000
0000
0000
0000
0000
0000
0000
0000
0000
0000
0000
0000
0000
0000
0000
0000
0000
0000
0000
0000
0000
0000
0000
0000
0000
0000
0000
0000
0000
0000
0000
0000
0000
0000
0000
0000
0000
0000
0000
0000
0000
0000
,
0300
0000
1000
0000
0100
0000
1000
0001
1000
0000
0001
0000
0100
0000
0001
0000
,
0010
0000
0100
0000
1000
0001
1000
0001
0100
0000
0001
0000
0010
0000
0100
1000
,
0001
1000
0010
0000
0100
0000
0001
0000
1000
0000
0001
0000
0100
0000
0001
0000
,
0010
0100
1000
0001
0100
0010
2000
3000
,
0001
0100
0001
1000
0010
0100
0010
1000
0001
0100
0001
1000
0100
1000
0001
0010
,
0100
0010
0001
1000
0100
0010
0001
1000
0100
1000
0001
0100
0001
1000
0010
0100
,
0010
1000
0001
0100
0001
1000
0100
0010
0100
1000
0001
0010
0001
1000
0100
0010
,
0001
1000
0001
0100
0010
0100
0001
1000
0001
0100
0010
1000
0001
0000
0000
0000
,
1000
0010
1000
0001
0010
0100
1000
0001
0010
0001
1000
0010
0100
0010
1000
0001
,
0100
0001
1000
0100
0010
0001
1000
0100
1000
0001
0100
0001
1000
0010
1000
0001
,
0100
0010
0100
0001
1000
0100
0010
0100
1000
0001
1000
0010
0100
0010
1000
0001
,
1000
0100
1000
0001
0010
0100
0010
0001
1000
0100
1000
0001
0100
0000
0000
0000
,
0001
1000
0001
0100
0010
0100
0001
1000
0010
0100
0001
1000
0100
0010
0001
1000
,
0100
1000
0001
0100
0010
0100
0001
1000
0100
0010
0001
1000
0001
0100
0010
0100
,
0001
1000
0100
1000
0001
0100
0001
1000
0010
0100
0010
1000
0001
0100
0001
1000
,
0100
0010
0001
1000
0100
0010
0100
1000
0001
0100
0001
1000
0001
0000
0000
0000
,
1000
0010
1000
0001
0100
0001
0100
0010
1000
0001
1000
0100
0010
0001
1000
0100
,
1000
0001
0100
0010
0100
0001
1000
0010
1000
0001
0010
0100
0010
0001
1000
0100
,
1000
0001
0100
0010
1000
0001
0010
0100
0010
0001
1000
0100
1000
0001
0100
0010
,
1000
0001
1000
0010
0100
0010
1000
0001
0010
0100
1000
0001
1000
0000
0000
0000
,
0001
0100
0010
0100
0001
1000
0100
0010
,
0100
1000
0010
0100
0010
0100
0010
0100
,
0001
0000
0010
0000
0200
0300
2000
3000
0002
0003
0200
0300
0002
0003
0020
0030
,
0100
1000
0001
0100
0010
0100
0001
0000
,
0000
0000
1000
0100
0010
0100
1000
0001
,
0100
0010
0100
0001
1000
0100
0010
0001
,
1000
0001
0100
0010
0100
0001
1000
0001
,
0010
0100
1000
0001
0000
1000
0100
0000
1000
0001
0000
0000
,
0000
0000
1000
0100
1000
0001
0100
0000
,
0000
0000
0000
0000
0001
0100
0001
1000
0001
0000
0010
0000
0100
0000
0000
0000
,
0000
0000
1000
0100
1000
0001
0100
0000
,
0000
0000
0000
0000
0001
1000
0001
0010
0100
1000
0001
0100
0001
0000
0000
0000
,
0000
0000
1000
0100
0010
0100
1000
0010
,
0100
0010
1000
0001
0010
0100
1000
0001
,
0100
0010
0100
0001
1000
0001
0010
0100
,
1000
0001
0100
0010
0100
0001
1000
0002
,
0023
0230
2300
3000
0000
0000
0000
0000
,
0000
0002
0203
0320
,
2030
0000
0000
0000
3001
0000
0100
0000
0001
1000
0100
0010
0001
0000
0000
0000
,
1000
0100
1000
0001
0100
0010
0100
0001
1000
0001
0010
0100
1000
0000
0000
0000
,
0001
0000
0100
0010
0100
0000
0001
0000
0010
0000
0100
1000
0001
0000
0100
0000
,
0010
0000
1000
0001
0100
0000
0001
0000
0010
0000
0100
0000
1000
0000
0000
0000
,
0001
0100
0001
1000
0010
0000
0000
0000
1000
0100
1000
0001
0100
0000
0000
0000
,
0001
1000
0001
0100
0010
0100
0001
1000
0100
0010
0001
1000
0001
0000
0000
0000
,
1000
0000
0100
1000
0001
0000
0100
0000
0010
0000
1000
0001
1000
0000
0001
0000
,
0010
0000
0100
1000
0001
0000
0100
0000
0001
0000
1000
0000
0010
0000
0000
0000
,
1000
0000
0100
0000
0010
0000
0100
0000
1000
0001
0100
0010
0100
0000
0000
0000
,
0001
0000
1000
0000
0001
0000
0010
0000
0100
1000
0001
1000
0010
0000
0000
0000
,
0100
0000
0001
0000
1000
0000
0001
0000
0010
0100
1000
0001
1000
0000
0000
0000
,
0001
0000
0100
0000
0010
1000
0010
0100
0001
1000
0100
0010
0001
0000
0000
0000
,
1000
0100
1000
0001
1000
0000
0000
0000
0001
0100
0010
0100
0001
0000
0000
0000
,
1000
0100
1000
0001
0100
0010
0100
0001
1000
0100
0010
0001
1000
0000
0000
0000
,
0001
0100
0010
0100
0001
1000
0100
0010
,
0100
0000
1000
0000
0001
0000
0000
0000
0100
0001
1000
0001
0100
0000
0000
0000
,
0001
0000
0100
0000
0010
0000
0100
0000
0001
1000
0100
0010
0001
0000
0000
0000
,
1000
0000
0100
0000
0010
0000
0100
0000
1000
0001
0100
0001
1000
0000
0010
0000
,
0100
001M
1M00
0001
M010
010M
10M0
0M01
,
10M0
0000
0100
1000
0001
0000
1000
0000
0001
0100
0001
1000
0100
0010
0001
1000
,
0001
0100
0001
1000
0010
0000
0000
0000
1000
0100
1000
0001
0100
0000
0000
0000
,
0001
0100
0001
1000
0010
0100
0010
1000
0001
0010
0100
1000
0001
0000
1000
0000
,
0100
1000
0001
0100
0010
0100
0001
1000
,
0100
0000
0010
0000
0001
0000
0000
0000
1000
0100
1000
0001
0100
0000
0000
0000
,
0001
0000
0100
0000
0001
1000
0001
1000
0100
0000
0010
0000
0001
0000
0100
0000
,
0010
0000
1000
0001
1000
0000
0001
0010
0100
1000
0001
0000
0100
0000
0010
0000
,
0000
2000
3000
0000
0000
0000
0000
0000
0000
0000
0000
0000
0000
0000
0000
0000
0000
0000
0000
0000
0000
0000
0000
0000
0000
0200
0300
0000
0000
0000
0000
0000
0000
0000
0000
0000
0000
0000
0000
0000
0000
0000
0000
0000
0000
0000
0000
0000
0000
2000
3000
0000
0000
0000
0000
0000
0000
0000
0000
0000
0000
0000
0000
0000
0000
0000
0000
0000
0000
0000
0000
0000
0000
0002
0003
0000
0000
0000
0000
0000
0000
0000
0000
0000
0000
0000
0000
0000
0000
0000
0000
0000
0000
0000
0000
0000
0000
0000
0020
0030
0000
0000
0000
0000
0000
0000
0000
0000
0000
0000
0000
0000
0000
0000
0000
0000
0000
0000
0000
0000
0000
0200
0300
0000
0000
0000
0000
0000
0000
0000
0000
0000
0000
0000
0000
0000
0000
0000
0000
0000
0000
0000
0000
0000
1000
0000
0000
0000
0000
0000
0000
0000
0000
0000
0000
0000
0000
0000
0000
0000
0000
0000
0000
0000
0000
0000
0000
0000
0001
0000
0000
0000
0000
0000
0000
0000
0000
0000
0000
0000
0100
0000
0000
0000
0000
0000
0000
0000
0000
0000
0000
0000
,
0001
1000
0010
0100
0010
1000
0002
0000
,
0003
0000
1000
0000
0100
0000
1000
0001
1000
0000
0010
0000
0100
0000
0001
0000
,
0010
0000
0100
0000
1000
0100
1000
0001
0100
0000
0001
0000
0010
0000
0100
1000
,
0001
1000
0010
0000
0100
0000
0001
0000
1000
0000
0001
0000
0010
0000
0001
0000
,
0100
0010
1000
0100
0010
0001
2000
3000
,
0002
0000
0103
0001
0010
0100
1000
0001
,
1000
0000
0010
0000
0100
0001
1000
0001
0100
0010
0100
0001
2000
0000
0000
0000
,
3000
0000
0001
0100
0001
0010
0200
0000
,
1300
0000
0100
0000
0010
0000
0100
0000
1000
0000
0001
0100
0001
0000
0100
0000
,
0010
0000
1000
0000
0001
0100
0001
1000
0010
0100
0010
1000
0001
0010
0100
1000
,
0001
0000
1000
0100
1000
0000
0100
0000
0010
0000
0001
1000
0001
1000
0010
0100
,
0010
1000
0001
0100
0001
1000
0100
0010
0100
1000
0001
0100
0001
1000
0010
0100
,
0010
1000
0001
0100
0001
1000
0100
0010
0001
1000
0100
1000
0001
0100
0010
0100
,
0001
1000
0001
0010
0100
0010
0001
1000
0100
1000
0001
0100
0001
1000
0010
0100
,
0010
1000
0001
0010
0100
1000
0001
0100
0010
0100
0001
1000
0001
0000
1000
0000
,
0100
0000
0010
0000
0100
1000
0001
0100
0001
1000
0010
0000
0100
0001
0100
0010
,
1000
0001
1000
0000
0001
0000
0010
0000
0100
0000
1000
0001
1000
0000
0010
0000
,
0100
0010
1000
0100
0010
0001
1000
0100
,
1000
0000
0001
0000
0100
0000
0010
0000
0100
0000
0001
1000
0100
1000
0001
0100
,
0001
1000
0100
0010
0001
1000
0001
0100
0010
1000
0001
0100
0001
0000
0000
0000
,
1000
0000
0002
0000
0000
0003
0000
0000
;
