#TITLE:Palladio;
#SUBTITLE:;
#ARTIST:Silent Nick;
#TITLETRANSLIT:;
#SUBTITLETRANSLIT:;
#ARTISTTRANSLIT:;
#CREDIT:Plaguefox (gamecast.org/plaguemix);
#BANNER:palladio-bn.png;
#BACKGROUND:palladio-bg.png;
#LYRICSPATH:;
#CDTITLE:pmgcd.png;
#MUSIC:Palladio.ogg;
#OFFSET:0.009;
#SAMPLESTART:27.045;
#SAMPLELENGTH:17.624;
#SELECTABLE:YES;
#BPMS:0.000=141.980;
#STOPS:;
#BGCHANGES:;
// cache tags:
#FIRSTBEAT:16.000;
#LASTBEAT:228.000;
#SONGFILENAME:Songs/plaguemix series/Palladio/palladio.sm;
#HASMUSIC:1;
#HASBANNER:1;
#MUSICLENGTH:104.803;
// end cache tags

//---------------dance-single - LIGHT----------------
#NOTES:
     dance-single:
     LIGHT:
     Easy:
     4:
     0.236,0.326,0.105,0.057,0.000,156.000,11.000,6.000,0.000,0.000:
0000
0000
0000
0000
,
0000
0000
0000
0000
,
0000
0000
0000
0000
,
0000
0000
0000
0000
,
1000
0100
0000
0100
,
0000
0100
0000
0100
,
0001
0100
0000
0100
,
0000
0100
0000
0100
,
1000
0000
0010
0000
,
0010
0000
1000
0000
,
0001
0000
0010
0000
,
0010
0000
0001
0000
,
1000
0000
0100
0000
,
0100
0000
1000
0000
,
0001
0000
0100
0000
,
0100
0000
0001
0000
,
1001
0000
0100
0000
,
0010
0000
0001
0000
,
1001
0000
0100
0000
,
0010
0000
1000
0000
,
1001
0000
0010
0000
,
0100
0000
0001
0000
,
1001
0000
0010
0000
,
0100
0000
1000
0000
,
1000
1000
1000
1000
,
0100
0100
0100
0100
,
0010
0010
0010
0010
,
0001
0001
0001
0001
,
0100
0100
0010
0010
,
1000
1000
0010
0010
,
0100
0100
0001
0001
,
0010
0010
0100
0000
,
1000
1000
0000
0000
1000
1000
0000
0000
,
0100
0100
0000
0000
0100
0100
0000
0000
,
0010
0010
0000
0000
0010
0010
0000
0000
,
0001
0001
0000
0000
0001
0001
0000
0000
,
0100
0100
0000
0000
0010
0010
0000
0000
,
1000
1000
0000
0000
0010
0010
0000
0000
,
1000
0100
0001
0100
,
0020
0000
0000
0000
,
0130
0000
0100
0000
,
0100
0000
0100
0000
,
0100
0000
0100
0000
,
0100
0000
0100
0000
,
1001
1000
1000
0100
,
0010
0001
0001
0010
,
1001
0001
0001
0010
,
0100
1000
1000
0100
,
1001
1000
0100
0100
,
1001
0001
0100
0100
,
1001
0100
0010
1000
,
1001
0100
0010
0001
,
2000
0100
0000
3001
,
0200
0010
0000
0301
,
0020
1000
0000
0130
,
0002
1000
0000
0013
,
0200
0000
0000
0300
,
1001
0000
0000
0000
;

//---------------dance-single - STANDARD----------------
#NOTES:
     dance-single:
     STANDARD:
     Medium:
     6:
     0.363,0.354,0.067,0.105,0.000,248.000,7.000,11.000,0.000,0.000:





0000
0000
0000
0000
,
0000
0000
0000
0000
,
0000
0000
0000
0000
,
0000
0000
0000
0000
,
0001
1000
0000
1000
0000
0010
0000
0010
,
0000
1000
0000
1000
0000
0100
0000
0100
,
0000
0001
0000
0001
0000
0010
0000
0010
,
0000
0001
0000
0001
0000
0100
0000
0100
,
0001
0010
0001
0100
0001
0000
0000
0010
,
0001
0100
0001
0000
0100
0000
0000
0000
,
1000
0010
1000
0100
1000
0000
0000
0010
,
1000
0100
1000
0000
0100
0000
0000
0000
,
0001
1000
0001
0100
0001
0000
0000
0010
,
0001
1000
0001
0000
0100
0000
0000
0000
,
1000
0001
1000
0100
1000
0010
1000
0001
,
1000
0100
1000
0000
0000
0000
0100
0000
,
0010
1000
0100
0010
0001
0000
0000
0100
,
0010
1000
0100
0000
0010
0000
0000
0000
,
0010
0001
0100
0010
1000
0000
0000
0100
,
0010
0001
0100
0000
0010
0000
0000
0000
,
0010
0100
0001
0010
0100
0000
0000
1000
,
0010
0100
0001
0000
0010
0000
0000
0000
,
0010
0100
1000
0010
0100
0001
0010
0100
,
1000
0010
0100
0000
0100
0000
0000
0000
,
0000
1000
0100
1000
0000
1000
0100
1000
,
0000
0100
0010
0100
0000
0100
0010
0100
,
0000
0010
0001
0010
0000
0010
0001
0010
,
0001
0010
0001
0000
0001
0100
0001
0000
,
0000
0001
0100
0001
0000
0001
0100
0001
,
0000
0100
0010
0100
0000
0100
0010
0100
,
0000
0010
1000
0010
0000
0010
1000
0010
,
0000
1000
0100
1000
0000
1000
0100
1000
,
0100
0100
0010
0000
0010
0010
0001
0000
,
0001
0001
0100
0000
0100
0100
0010
0000
,
0010
0010
1000
0000
1000
1000
0100
0000
,
0100
0100
0010
0000
0010
0010
0001
0000
,
0001
0001
1000
0000
1000
1000
0010
0000
,
0010
0010
0100
0000
0100
0100
0001
0000
,
0010
1000
0100
0001
,
0200
0000
0000
0000
,
0301
0000
1000
0000
,
0100
0000
1000
0000
,
0001
0000
0010
0000
,
0001
0000
1000
0000
,
2000
0100
0100
3100
,
0002
1000
1000
1003
,
0200
0001
0001
0301
,
0020
1000
1000
1030
,
0200
0010
0010
0310
,
0002
0100
0100
0103
,
2000
0001
0001
3001
,
0020
0100
0100
0130
,
0101
0100
0100
0100
,
1100
0100
0100
0100
,
1010
0010
0011
0010
,
1001
0010
0001
0100
,
2002
0000
0000
3003
,
0110
0000
0000
0000
,;

//---------------dance-single - HEAVY----------------
#NOTES:
     dance-single:
     HEAVY:
     Hard:
     8:
     0.454,0.544,0.239,0.029,0.038,305.000,25.000,3.000,0.000,0.000:
0000
0000
0000
0000
,
0000
0000
0000
0000
,
0000
0000
0000
0000
,
0000
0000
0000
0000
,
1001
0100
0000
0001
,
0000
1000
0000
0100
,
0000
0001
0000
1000
,
0000
0100
0000
0010
,
0000
1000
0010
1000
0100
0000
0000
1000
,
0001
1000
0001
0000
0000
0000
0000
0000
,
0000
0001
0010
0001
0100
0000
0000
0001
,
1000
0001
1000
0000
0000
0000
0000
0000
,
0000
1000
0001
1000
0100
0000
0000
1000
,
0010
1000
0010
0000
0000
0000
0000
0000
,
0000
0001
0010
0001
0100
0010
1000
0010
,
0100
0001
1000
0000
0000
0000
0100
0000
,
1001
0100
0010
1000
0100
0000
0000
0100
,
1000
0010
0100
0000
1001
0000
0000
0000
,
1001
0100
0010
0001
0100
0000
0000
0100
,
0001
0010
0100
0000
1001
0000
0000
0000
,
1001
0100
1000
0001
0100
0000
0000
0001
,
1000
0100
0010
0000
1001
0000
0000
0000
,
1001
0100
0001
1000
0100
0010
0001
0100
,
0010
0100
0001
0000
1001
0000
0000
0000
,
0000
0100
0001
0010
0000
0010
0001
0100
,
0000
0010
1000
0100
0000
0100
1000
0010
,
0000
0100
0001
1000
0000
1000
0001
0100
,
0001
1000
0100
0010
0001
1000
0001
0100
,
0000
0010
1000
0100
0000
0100
1000
0010
,
0000
0100
0001
0010
0000
0010
0001
0100
,
0000
0001
0010
0100
0000
0001
0010
0100
,
0000
1000
0010
0100
0000
1000
0010
0100
,
0001
0001
0010
0100
1000
1000
0100
0010
,
0001
0001
1000
0100
0010
0010
0001
1000
,
0100
0000
0100
0000
0010
0000
0000
0001
1000
0000
1000
0000
0010
0000
0000
0100
,
0001
0000
0001
0000
1000
0000
0000
0100
0010
0000
0010
0000
0001
0000
1000
0000
,
0100
0100
1000
0100
0010
0010
0001
0100
,
0010
0000
0010
0000
1000
0000
0100
0000
0010
0000
0010
0000
0001
0000
0000
0001
,
1000
0000
0000
1000
0100
0000
0000
0100
0010
0000
0000
0010
0001
0000
0000
0001
,
0200
0000
0000
0000
,
0300
0001
1000
0001
0000
0100
0010
0100
,
0000
0010
0100
0010
0000
0001
0100
0001
,
0000
0100
0001
0100
0000
1000
0010
1000
,
0000
0010
1000
0010
0100
0000
0100
0000
,
1001
0100
0010
1000
0010
0100
0001
0010
,
0001
0100
0010
0100
0001
0010
0001
0100
,
1001
0100
0010
0001
0010
0100
1000
0010
,
1000
0100
0010
0100
1000
0010
1000
0100
,
1001
0100
0010
1000
0100
0010
0001
0100
,
1001
0100
0010
0001
0100
0010
1000
0100
,
1001
0100
0001
0100
0010
0100
0001
0100
,
1001
0110
1010
0101
,
1001
0100
0010
1000
0100
0100
0010
0001
,
0001
0100
0010
1000
0010
0010
0100
0001
,
0001
0100
0010
1000
1000
0100
0010
0000
,
1001
0110
1010
0101
,
0220
0000
0000
0330
,
1001
0000
0000
0000
;
