#TITLE:Yog-Sothoth;
#SUBTITLE:;
#ARTIST:NATO;
#TITLETRANSLIT:;
#SUBTITLETRANSLIT:;
#ARTISTTRANSLIT:;
#CREDIT:;
#BANNER:../ban - Jawn2.png;
#BACKGROUND:../Jawn2 - bg.png;
#LYRICSPATH:;
#CDTITLE:../CDa.png;
#MUSIC:Yog-Sothoth.ogg;
#OFFSET:0.309;
#SAMPLESTART:56.100;
#SAMPLELENGTH:12.000;
#SELECTABLE:YES;
#BPMS:0.000=200.007;
#STOPS:;
#BGCHANGES:;
// cache tags:
#FIRSTBEAT:12.000;
#LASTBEAT:392.000;
#SONGFILENAME:Songs/Jimmy Jawns 2/Yog-Sothoth - [Aoreo]/Yog-Sothoth.sm;
#HASMUSIC:1;
#HASBANNER:1;
#MUSICLENGTH:120.944;
// end cache tags

//---------------dance-single - J. Nero----------------
#NOTES:
     dance-single:
     J. Nero:
     Challenge:
     15:
     1.000,1.000,0.182,0.099,1.000,1002.000,22.000,12.000,0.000,0.000:
0000
0000
0000
0000
,
0000
0000
0000
0000
,
0000
0000
0000
0000
,
1001
0000
0000
0000
0001
0000
0000
1000
,
0100
0100
0010
0000
,
0011
0000
0000
0000
0001
0000
0000
1000
,
0010
0000
0010
0000
0200
0000
0000
0300
,
1010
0000
0000
0000
0010
0000
0000
0100
,
0001
0001
1000
0000
,
1100
0000
0000
0000
0100
0000
0000
0010
,
0001
0000
0000
0000
0200
0001
0000
0301
,
1100
0000
0000
0000
1000
0000
0000
0010
,
0100
0000
0100
0000
0001
0010
0100
1000
,
0001
0000
0000
0000
1000
0000
0000
0010
,
0100
0100
0002
0013
,
0110
0100
1000
0001
1000
0010
0100
0001
,
1000
0010
0100
0010
1000
0001
0010
0100
,
1000
0001
1000
0100
0010
0001
1000
0001
0100
0001
1000
0010
0100
0010
1000
0001
,
1000
0100
0010
0100
1000
0001
1000
0010
0100
0010
1000
0001
1000
0100
0010
0001
,
4000
0000
0000
0000
0000
0000
3000
0001
,
1000
0100
1000
0001
1000
0010
0100
0001
1000
0001
0010
0001
0100
0010
1000
0010
,
0100
0001
0000
0101
0000
1100
0000
0000
,
1000
0000
0010
0000
0000
0000
0010
1000
0001
1000
0100
0010
0001
1000
0001
0100
,
0010
1000
0001
1000
0001
0100
0010
1000
0010
0100
0001
1000
0001
0010
0100
1000
,
0001
0100
0001
1000
0010
0100
0010
1000
0001
1000
0100
0010
0001
1000
0001
0100
,
0010
1000
0010
0100
0001
0100
0001
1000
0010
0100
0001
1000
0001
0010
0100
0010
,
0001
1000
0100
1000
0001
1000
0010
0100
0001
1000
0001
0010
0001
0100
0010
1000
,
0001
1000
0100
0010
0001
1000
0001
0100
0010
1000
0010
0100
0001
1000
0100
0010
,
0100
1000
0001
1000
0010
0100
0001
0100
0010
1000
0001
1000
0100
0010
0001
1000
,
0001
0100
0010
1000
0010
0100
0001
1000
0100
1000
0001
0010
0100
0010
0001
1000
,
0001
0100
0010
1000
0020
0000
0030
0000
1000
0001
1000
0000
0010
0000
0100
0000
,
0001
0010
0001
1000
0010
1000
0001
0100
0010
0100
0001
1000
0100
0010
0100
1000
,
0001
1000
0010
0100
0001
0100
0010
1000
0001
1000
0100
0010
0001
0100
0001
1000
,
0010
0100
0010
1000
0001
0010
0100
1000
0001
0100
0001
1000
0010
0100
0010
1000
,
0001
1000
0100
0010
0001
1000
0001
0100
0010
1000
0001
1000
0100
0010
0001
1000
,
0001
0100
0001
1000
0010
0100
0010
1000
0001
1000
0001
0100
0010
1000
0010
0100
,
0001
1000
0100
0010
0100
1000
0001
0100
0010
0100
0001
1000
0001
0100
0001
1000
,
0100
0010
0100
1000
0001
1000
0010
0100
0010
1000
0001
1000
0100
0010
0001
1000
,
0002
0000
0003
0000
0400
0000
0000
0300
0010
1000
0100
0010
0002
0000
0003
0000
,
1000
0000
0001
0100
0010
0000
1000
0100
0010
0000
0001
0100
0010
0000
1000
0100
,
0010
0000
0001
0000
0100
0000
0010
0000
1000
0010
1000
0100
0010
0001
0100
0010
,
1000
0000
0001
0010
0100
0000
0010
0001
0100
0000
0010
1000
0100
0000
0010
0001
,
0100
0000
0010
0000
1000
0000
0001
0000
0010
0100
0010
0001
0100
0010
1000
0100
,
0010
0000
0001
0100
0010
0000
1000
0100
0010
0000
0001
0100
0010
0000
1000
0100
,
0010
0000
0001
0000
1000
0000
0010
0000
1000
0100
0010
0001
0100
0001
0010
0100
,
1000
0000
0000
0010
0000
0000
0100
0000
0000
0001
0000
0000
1000
0000
0001
0000
0010
0000
0100
0000
1000
0000
0010
0000
,
0100
0000
0000
0000
0001
0000
0000
0000
0100
0000
0000
0000
0010
0000
0000
0000
1000
0000
0000
0000
0100
0000
0000
0000
0010
0000
0000
0000
0000
0000
0000
0000
0000
0011
0000
0000
0000
0000
0000
0000
0000
0000
1001
0000
0000
0000
0000
0000
,
1000
0000
0100
0010
0001
0000
0100
0010
1000
0000
0100
0010
0001
0000
0100
0010
,
1000
0000
0001
0000
0100
0000
0001
0000
0010
0100
1000
0010
0100
0001
1000
0100
,
0010
0000
0001
0100
0010
0000
1000
0100
0010
0000
0001
0100
0010
0000
1000
0100
,
0010
0000
0001
0000
1000
0000
0010
0000
0100
0001
0010
0100
1000
0010
0100
0001
,
1000
0000
0100
0010
0001
0000
0100
0010
1000
0000
0100
0010
0001
0000
0100
0010
,
1000
0000
0001
0000
0100
0000
0001
0000
0010
0100
1000
0010
0100
0001
0010
0100
,
1000
0000
0000
0001
0000
0000
1000
0000
0000
0100
0000
0000
0010
0000
0001
0000
1000
0000
0001
0000
0100
0000
0010
0000
,
0100
0000
0000
0000
0001
0000
0000
0000
0010
0000
0000
0000
0100
0000
0000
0000
1000
0000
0000
0000
0001
0000
0000
0000
1000
0000
0000
0000
0000
0000
0000
0000
0000
1010
0000
0000
0000
0000
0000
0000
0000
0000
0110
0000
0000
0000
0000
0000
,
0200
0000
0000
0000
,
0000
0000
0000
0000
,
0301
0001
0010
0010
,
0100
0100
1000
1000
,
0010
0010
0100
0100
,
0001
0001
0010
0010
,
0100
0100
1000
1000
,
0001
0000
0000
0000
1000
0100
1000
0100
0010
0000
0001
0000
0100
0000
0000
0000
,
1001
0000
0000
0001
0000
0000
0100
0000
0000
0001
0000
0000
0010
0000
0000
0100
0000
0000
1000
0000
0001
0000
1000
0000
,
0010
0100
0001
0000
1000
0000
1000
0000
0010
0000
0020
0000
0000
0000
0030
0000
,
0110
0000
0100
0000
0001
0000
1000
0000
0001
0100
0001
1000
0100
0000
0010
0000
,
0011
0000
0001
0001
0100
0200
0000
0300
,
1010
0000
1000
0000
0100
0000
0010
0000
0100
1000
0001
0100
0001
0000
0100
0000
,
0110
0000
0000
0000
0000
0000
0010
0000
0000
1000
0000
0000
0001
0000
1000
0000
0001
0000
0010
0000
0100
0000
1000
0000
,
0010
0000
1010
0000
1100
0000
0100
0010
0001
1000
0010
0100
,
0001
0000
1000
0000
0010
0000
0100
0000
0001
0010
0100
1000
0002
0000
0003
0000
,
4000
0000
0000
0000
0000
0000
0000
0000
0000
0000
0000
0000
0000
3000
0001
0000
,
1000
0100
1000
0001
1000
0100
1000
0001
0100
0001
1000
0001
0010
0001
1000
0100
,
0010
0001
0100
0010
0000
0110
0000
0000
,
1000
0100
1000
0001
0010
0100
1000
0001
1000
0010
0100
0001
1000
0010
0100
0001
,
1000
0010
1000
0100
0010
0001
1000
0010
1000
0100
0010
0001
1000
0001
0100
0001
,
0010
0100
1000
0001
0100
0010
1000
0001
0100
0001
0010
0100
1000
0001
0100
0010
,
1000
0100
0010
0001
1000
0001
0100
0010
1000
0001
0100
0001
0010
0100
1000
0001
,
1000
0100
0010
0100
1000
0001
0100
0010
0100
0001
1000
0001
1000
0100
0010
0001
,
0100
0001
1000
0010
0100
0001
0100
0010
1000
0001
0010
0100
0010
0001
1000
0010
,
1000
0100
0010
0001
1000
0001
0100
0010
1000
0001
1000
0100
0010
0001
1000
0001
,
0100
0010
1000
0010
0100
0001
0010
0100
1000
0001
1000
0010
0100
0001
0100
0010
,
1000
0001
0010
0001
1000
0010
1000
0100
0010
0000
0000
0011
0000
0000
1001
0000
,
1000
0010
1000
0100
0010
0001
0100
0001
1000
0010
0100
0001
1000
0001
0010
0100
,
1000
0010
1000
0100
0010
0001
0100
0001
1000
0010
0100
0001
1000
0001
0010
0100
,
1000
0010
1000
0100
0010
0001
0100
0001
1000
0010
0100
0001
1000
0001
0010
0100
,
1000
0001
0100
0001
1000
0100
0010
0100
1000
0001
1000
0010
0100
0001
0100
0010
,
2000
0000
0000
0000
3000
0000
0000
0000
0001
1000
0010
0100
0001
1000
0100
1000
,
0010
0100
0001
1000
0001
0010
0100
0010
0001
1000
0100
0010
0001
0010
0100
1000
,
0010
1000
0001
0010
0001
1000
0100
1000
0010
0100
0001
1000
0001
0010
0100
1000
,
0010
1000
0001
0100
0001
1000
0100
1000
0010
0100
0001
1000
0001
0010
0100
1000
,
0010
1000
0001
0100
0010
1000
0001
0010
0100
0010
0001
0100
0010
1000
0001
1000
,
0100
0010
0001
0010
0100
1000
0010
1000
0001
0100
0001
0010
0001
0100
0010
1000
,
0001
1000
0100
0010
0100
1000
0001
1000
0010
0100
0001
0010
0100
1000
0100
0010
,
0001
1000
0010
0100
0010
1000
0001
1000
0100
0010
0001
0010
0100
1000
0001
0100
,
0010
0000
0000
0100
0000
0000
0001
0000
0000
1000
0000
0000
0100
0000
0000
0010
0000
0000
0001
0000
0000
1000
0000
0000
0001
0000
0000
0000
0100
0000
0000
0000
0010
0000
0000
0000
1000
0000
0000
0000
0001
0000
0000
0000
0010
0000
0000
0000
,
0200
0000
0000
0000
,
0000
0000
0000
0000
,
0300
0000
0000
0000
;
