#TITLE:Save Me;
#SUBTITLE:;
#ARTIST:Darren Styles;
#TITLETRANSLIT:;
#SUBTITLETRANSLIT:;
#ARTISTTRANSLIT:;
#CREDIT:;
#BANNER:SaveMe-bn.png;
#BACKGROUND:SaveMe-bg.png;
#LYRICSPATH:;
#CDTITLE:;
#MUSIC:Darren Styles - Save Me.ogg;
#OFFSET:0.020;
#SAMPLESTART:43.353;
#SAMPLELENGTH:12.000;
#SELECTABLE:YES;
#DISPLAYBPM:85.000:170.000;
#BPMS:0.000=170.000,64.000=85.000,96.000=170.000,127.000=340.000,129.000=170.000;
#STOPS:;
#BGCHANGES:;
// cache tags:
#FIRSTBEAT:16.000;
#LASTBEAT:257.000;
#SONGFILENAME:Songs/Rodd's Rad Christmas Pack/Save Me (Rodd Steps)/Save Me (Rodd Steps).sm;
#HASMUSIC:1;
#HASBANNER:1;
#MUSICLENGTH:107.276;
// end cache tags

//---------------dance-single - R. Farias----------------
#NOTES:
     dance-single:
     R. Farias:
     Challenge:
     10:
     0.820,0.988,0.410,0.308,0.606,539.000,44.000,33.000,31.000,0.000:

0000
0000
0000
0000
,
0000
0000
0000
0000
,
0000
0000
0000
0000
,
0000
0000
0000
0000
,
0001
0100
0010
1000
0001
0100
0010
1000
0001
0100
0010
1000
0001
0100
0010
1000
,
0100
0010
0001
1000
0100
0010
0001
1000
0100
0010
0001
1000
0100
0010
0001
0100
,
0010
1000
0100
1000
0100
1000
0100
0010
0001
0100
0010
1000
0100
0010
0001
0100
,
0010
1000
0100
0010
0001
0100
0010
0100
0001
1000
0100
0010
0001
0100
0010
1000
,
0100
0100
0110
0010
0001
0100
0010
1000
,
0100
0010
0011
0001
0100
0010
0100
0001
,
1000
0100
1100
0100
0010
0001
0100
0010
,
0100
0001
1001
1000
0100
0010
0001
0100
,
0010
1000
1010
1000
0100
0010
0110
0010
,
0001
0100
0101
0100
0010
1000
1010
1000
,
0100
0100
0010
0010
0001
0001
1000
1000
,
0001
0100
0010
1000
0001
0100
0010
1000
0100
0010
0001
0100
0010
0000
1000
0000
,
0002
0000
0000
0000
0203
0320
2030
3002
,
0000
0000
2000
0000
0000
0003
3000
0000
0200
0000
0320
0000
0032
0000
2000
0000
,
0000
0003
0000
0000
3000
0000
0000
0001
0200
0000
0310
2000
0000
3100
0020
0000
,
0000
0000
0030
0000
0200
0000
2300
0000
3001
0200
0000
0310
2000
0000
3001
0000
,
2002
0000
0000
0003
0000
3000
0001
0100
0010
1000
0001
0000
1000
0000
0200
0000
,
0000
0320
0000
0032
0000
0003
0100
0020
,
2000
0000
0000
0000
3000
0000
0130
0002
,
0000
0000
0000
0000
0003
0000
1000
0100
0010
0000
0001
0000
1000
0000
0001
0000
,
M100
0010
0100
0010
010M
0010
0100
0010
M100
0010
0100
0010
010M
0010
0100
0010
,
M100
0010
0100
0010
1000
0M10
1000
001M
1000
0M10
1000
0001
10M0
0001
1M00
0001
,
1000
0100
10M0
0100
1000
010M
1000
0100
0010
0001
M010
0001
0010
0M01
0010
0001
,
M010
0001
0010
0M01
0010
0001
M010
0001
0100
0010
100M
0100
0010
M001
0100
0010
,
1000
0001
1M00
0001
1000
00M1
1000
0001
1M00
0001
1000
00M1
1000
0100
0010
M100
,
0010
0100
001M
0100
0010
M100
0010
0100
001M
0100
0010
010M
0010
0100
M010
0100
,
0010
0001
0100
0010
1000
0100
0010
0001
0010
0100
1000
0001
0100
0010
1000
0001
,
0100
0010
0100
0001
1000
0100
0010
0001
2000
0000
0000
0000
0M0M
0000
0000
0000
,
0000
3000
1001
0000
0001
0000
0100
0000
,
0010
2000
0000
0100
0000
0001
0000
0001
,
0000
0001
3002
0000
0100
0000
1000
0000
,
0103
0020
0000
1000
0000
0100
0000
1000
,
0000
1030
0200
0000
0010
0000
1000
0000
,
0010
0320
0000
0001
0000
0100
0000
0001
,
0000
0130
0200
0000
1000
0000
0001
0000
,
1300
0001
0100
0000
0110
0000
0101
0000
,
1001
0000
1000
0100
1000
0100
0010
0001
,
0010
0001
0100
0001
0100
0001
1000
0001
,
1000
0100
0010
0001
0010
0001
0100
0001
,
0100
0010
1000
0010
1000
0001
1000
0001
,
1000
0000
0100
0000
0010
0001
1000
0100
0010
0001
1000
0100
0010
0001
1000
0100
,
0010
0001
1000
0100
0010
0100
1000
0001
0010
0100
1000
0001
0010
0100
1000
0001
,
0010
0100
1000
0001
0100
0010
0100
0001
1000
0100
0010
0100
1000
0001
0100
0000
,
0010
1000
0000
1001
0000
0101
0000
0100
,
0010
0010
1000
0001
1001
1000
0100
0010
,
0001
0100
0010
1000
1010
1000
0100
0010
,
0100
1000
0001
0100
0101
0100
0010
0100
,
0001
1000
0100
0010
0110
0010
0001
0100
,
0010
0000
1000
0010
1000
0000
1000
0000
1100
0000
0100
0000
0010
0000
0001
0000
,
0101
0100
0010
1000
1001
1000
0100
0010
,
0110
0010
0001
0100
0101
0100
0010
1000
,
1001
0000
1000
0000
0100
0000
0010
0000
0110
0000
0000
0000
0011
0000
0000
1001
,
0000
0101
0110
0010
1000
0100
0010
0001
,
0101
0100
0010
1000
1010
1000
0100
0010
,
0110
0010
0001
1000
1001
0001
0100
0010
,
0110
0010
1000
0100
1100
0100
0010
0001
,
0011
0000
0001
0100
0010
0000
0010
0000
0110
0000
0010
0000
1000
0000
0001
0000
,
1001
1000
0100
0010
0011
0001
0100
0010
,
0110
0100
0001
1000
1001
1000
0100
0010
,
0011
0001
0200
0000
0000
0000
0000
0000
,
0000
0000
0000
0300
1001
0000
0000
0000
0000
0000
0000
0000
0000
0000
0000
0000
;
