#TITLE:Inner Universe;
#SUBTITLE:;
#ARTIST:Adraen;
#TITLETRANSLIT:;
#SUBTITLETRANSLIT:;
#ARTISTTRANSLIT:;
#CREDIT:Braeden47;
#BANNER:../Banner.png;
#BACKGROUND:../BG.PNG;
#LYRICSPATH:;
#CDTITLE:../CDTitleBRAEDEN.png;
#MUSIC:Inner Universe.ogg;
#OFFSET:0.000;
#SAMPLESTART:9.756;
#SAMPLELENGTH:12.000;
#SELECTABLE:YES;
#BPMS:0.000=196.000,88.000=98.000,92.000=196.000,156.000=98.000,172.000=196.000,198.000=98.000,214.000=196.000,310.000=98.000,314.000=196.000;
#STOPS:197.000=1.837
;
#BGCHANGES:;
// cache tags:
#FIRSTBEAT:16.000;
#LASTBEAT:313.500;
#SONGFILENAME:Songs/Index Fusion/Inner Universe - [Braeden]/Inner Universe.sm;
#HASMUSIC:1;
#HASBANNER:1;
#MUSICLENGTH:114.807;
// end cache tags

//---------------dance-single - ----------------
#NOTES:
     dance-single:
     :
     Challenge:
     15:
     1.000,1.000,0.226,0.096,1.000,902.000,26.000,11.000,0.000,0.000:

0000
0000
0000
0000
,
0000
0000
0000
0000
,
0000
0000
0000
0000
,
0000
0000
0000
0000
,
1000
0100
0010
0001
0010
0100
1000
0001
0100
0010
1000
0100
0010
0001
0010
0100
,
1000
0001
0100
0010
1000
0001
0010
0100
1000
0100
0010
0001
0100
0010
1000
0001
,
0100
0010
1000
0001
0010
0100
1000
0001
0100
0010
1000
0100
0010
0001
0010
0100
,
1000
0001
0100
0010
1000
0001
0010
0100
1000
0001
0100
0010
1000
0100
0010
0001
,
0010
0000
0100
0000
1100
0000
1000
0001
0100
0010
1000
0000
0001
0010
0001
0010
,
0001
0000
0010
0100
1000
0100
0010
0000
0001
0010
0001
0010
0001
0000
0010
0000
,
0100
0000
1000
0000
1001
0000
0001
0010
0100
1000
0100
0000
0010
0001
0010
0001
,
0010
0000
0100
1000
0100
0000
0010
0000
0001
0010
0100
1000
0100
0010
0001
0100
,
0010
0000
1000
0000
0010
0000
1000
0001
1000
0010
0100
0000
0010
1000
0010
1000
,
0100
0000
0010
0000
0001
0000
1000
0000
0100
0010
0001
0010
0100
1000
0001
0010
,
0100
0000
1000
0000
1001
0000
0010
1000
0010
0000
0100
0010
0100
0000
0001
0100
,
0001
0000
1000
0001
0010
0000
0100
0000
1000
0010
0100
0001
0100
0010
1000
0100
,
0010
0000
0001
0010
0100
1000
0100
0000
0010
0001
0100
0001
0010
0100
1000
0010
,
0100
0000
0001
0100
0010
1000
0010
0000
0100
0001
0100
0001
1000
0000
0010
0100
,
0010
0000
1000
0000
0010
0000
0100
0001
0100
0010
1000
0000
0100
0010
0001
0100
,
0010
0000
1000
0010
0100
0000
0001
0000
0010
0100
1000
0100
0010
0001
0100
0010
,
1000
0000
0001
0000
0100
0000
0001
0100
0010
1000
0010
0000
1000
0100
0010
0001
,
1000
0000
0010
0000
0100
0000
0001
0000
0100
0001
0010
0100
1000
0100
0010
0100
,
2000
0000
0000
0000
,
3100
0010
0001
0100
0010
1000
0001
0100
0010
1000
0100
0010
0100
1000
0001
0100
,
0010
1000
0001
0010
0100
1000
0001
0100
0010
1000
0100
0010
0001
0010
0100
1000
,
0001
0100
0010
1000
0100
0010
0001
0010
0100
1000
0001
0100
0010
1000
0001
0010
,
0001
1000
0100
0010
0001
0100
0010
1000
0001
0010
0100
1000
0001
0100
0010
1000
,
0100
0010
0001
1000
0010
0100
0010
1000
0001
0010
0100
1000
0001
0100
0001
1000
,
0010
0100
0001
0100
0010
1000
0100
0010
0001
1000
0100
1000
0010
1000
0001
0100
,
0010
1000
0100
0010
0001
0010
0100
1000
0001
0010
0001
0100
0010
0100
0001
0010
,
0100
1000
0100
0010
0001
0100
0010
1000
0100
0010
0100
1000
0001
0100
0010
1000
,
0001
0010
0001
1000
0100
0010
0001
1000
0010
0100
0001
0010
0001
1000
0100
0010
,
0001
0100
0010
1000
0001
0010
0100
1000
0001
0100
0010
1000
0100
0010
0001
0010
,
0100
1000
0001
0100
0010
1000
0100
0010
0100
1000
0001
0010
0100
1000
0001
0100
,
0010
1000
0100
0010
0100
1000
0001
0100
0010
1000
0100
0010
0001
0010
0100
1000
,
0001
0100
0010
1000
0001
0010
0100
1000
0100
0010
0100
1000
0100
0010
0100
1000
,
0001
0100
0010
0100
0001
0100
0010
0100
0001
1000
0100
1000
0010
1000
0100
1000
,
0001
0100
0010
0110
0000
1010
0000
0000
,
1100
0000
0000
0110
0000
0100
0010
0001
,
0011
0022
0000
0000
0000
0000
0033
0000
,
0101
0202
0000
0000
0000
0000
0303
0000
,
1010
2020
0000
0000
0000
0000
3030
0000
,
1001
2002
0000
0000
0000
0000
3003
0000
,
0101
0000
0100
0000
0110
0000
0010
0000
1000
0000
0001
0100
0010
1000
0001
0000
,
1000
0100
0010
0100
1000
0000
0001
0100
0010
1000
0100
0010
0001
0100
0010
0000
,
1010
0000
1000
0000
1001
0000
0001
0000
0010
0000
0100
1000
0001
0100
0010
0000
,
1000
0100
0010
0100
1000
0001
0100
0010
1000
0010
0100
0001
0010
0100
1000
0100
,
0010
0000
0001
0010
0100
1000
0010
0000
0100
0000
0001
0000
0100
0010
1000
0010
,
0100
0001
0100
0000
0010
0000
1000
0000
0001
0000
0100
0010
1000
0100
0010
0000
,
0110
0000
1010
0000
0010
0000
0000
1000
,
0000
0000
0000
0000
,
0000
0000
0000
0000
0010
0000
0000
0100
,
0000
0000
0000
0000
,
0000
0000
0000
0000
0000
0000
0000
0000
1000
0000
0010
0000
0100
0000
0001
0010
,
0100
0000
1000
0000
0100
0010
0001
0000
0010
0000
0100
1000
0100
1000
0100
0000
,
1000
0010
0100
0001
0100
0010
1000
0001
0100
0000
0010
0000
1000
0000
0100
0010
,
0001
0100
0010
0000
1000
0001
0100
0010
1000
0000
0100
0010
0001
0010
0100
0000
,
1000
0010
0100
0010
1000
0001
0100
0001
0010
0000
0100
0000
1000
0010
1000
0010
,
0100
0000
0001
0000
0010
0100
1000
0100
0010
0000
0001
0000
0100
0000
0010
0000
,
1000
0010
1000
0010
1000
0100
0010
0001
0010
0000
0100
0000
1000
0000
0010
0100
,
0001
0000
0100
0010
1000
0000
0010
0100
0001
0000
0010
0100
1000
0000
0100
0000
,
1000
0000
0010
0000
1010
0000
0000
0000
1000
0100
0010
0001
0010
0100
1000
0001
,
0100
0010
1000
0100
0010
0100
1000
0001
0010
0100
1000
0001
0100
0010
1000
0100
,
0010
0001
0010
0100
1000
0001
0100
0010
1000
0100
0010
0001
0010
0100
1000
0001
,
0100
0010
1000
0100
0010
0100
1000
0001
0100
0010
1000
0100
0010
0001
0010
0100
,
1000
0001
0010
0100
1000
0001
0100
0010
0100
0001
1000
0010
0100
0010
1000
0100
,
0010
0100
1000
0001
0100
0010
0100
0001
0010
0100
1000
0001
0100
0010
0100
0001
,
0010
0100
1000
0001
0100
0010
1000
0100
0010
0001
0010
0100
1000
0001
0010
0001
,
0100
0010
0100
0001
0010
0100
1000
0010
0100
0010
1000
0100
0010
0001
0100
0010
,
0100
0000
0000
0000
0011
0000
0000
0000
0100
0010
0001
0010
0100
1000
0010
0100
,
0001
0100
0010
1000
0001
1000
0100
1000
0010
0100
0001
1000
0100
0010
0001
0100
,
0010
1000
0001
0100
0001
0010
0001
1000
0100
0010
0001
0010
0100
1000
0010
0100
,
0001
0100
0010
1000
0001
1000
0010
1000
0001
0010
0100
1000
0001
0010
0100
1000
,
0010
0100
0001
1000
0100
0010
0001
0010
0100
1000
0100
0010
0001
0010
0100
1000
,
0010
0100
0001
0100
0010
1000
0001
1000
0010
1000
0001
0100
0001
1000
0001
0100
,
0010
1000
0010
0100
0001
0100
0010
1000
0100
0010
0001
0010
0100
1000
0010
1000
,
0001
0100
0001
1000
0100
0010
0001
0010
0100
0010
0100
1000
0001
0010
0100
1000
,
0100
0010
0001
0010
0001
0000
0000
0000
0110
0000
0011
0000
0000
0000
2002
0000
,
0000
0000
0000
3003
0000
0000
0000
0000
;

//---------------dance-single - ----------------
#NOTES:
     dance-single:
     :
     Easy:
     6:
     0.324,0.373,0.122,0.453,0.000,194.000,14.000,52.000,0.000,0.000:
0000
0000
0000
0000
,
0000
0000
0000
0000
,
0000
0000
0000
0000
,
0000
0000
0000
0000
,
2002
0000
0000
0000
,
0000
0000
0000
0000
,
0000
0000
0000
0000
,
3003
0000
0000
0000
,
2000
0000
3100
0020
,
0030
0011
0000
0000
,
0002
0000
1003
0200
,
0300
0110
0000
0000
,
0020
0000
0031
0200
,
0300
0101
0000
0000
,
0020
0000
1030
0200
,
0300
1100
0000
0000
,
0002
0000
0013
0002
,
0003
0101
0000
0000
,
0020
0000
1030
0200
,
0300
1100
0000
0000
,
0002
0000
0013
0200
,
0000
2300
0000
3000
,
0022
0000
0000
0033
,
0002
0000
0000
0023
0000
0000
0230
0000
,
0000
1300
0010
1000
0000
0000
0001
0000
,
0011
0000
0000
0110
0000
0000
1100
0000
,
0100
0000
0000
0100
0000
0000
0010
0000
,
0002
0000
0000
2003
0000
0000
3020
0000
,
0000
0130
0001
0100
0000
0000
0010
0000
,
1000
0000
0000
0100
0000
0010
0000
0000
,
0001
0000
0000
0100
0000
0000
0001
0000
,
0200
0000
0000
0320
0000
0000
2030
0000
,
0000
3010
0100
0010
0000
0000
1000
0000
,
0010
0000
0000
0100
0000
0000
0001
0000
,
0100
0000
0000
0010
0000
0000
1000
0000
,
0020
0000
0000
2030
0000
0000
3200
0000
,
0000
0310
0001
0100
0000
0000
0010
0000
,
1000
0000
0000
0010
0000
0100
0000
0000
,
0001
0000
0000
0100
0000
0000
0001
0000
,
0100
0100
0000
0000
0000
0000
0000
0000
,
0010
0010
0000
0000
0000
0000
0000
0000
,
0100
0100
0000
0000
0000
0000
0000
0000
,
0001
0001
0000
0000
0000
0000
0000
0000
,
0200
0000
0000
0310
1000
0000
0020
0000
,
0000
0230
0000
0300
,
0002
0000
0000
0103
0010
0000
2000
0000
,
0000
3200
0000
0300
,
0020
0000
0000
0031
0100
0000
0020
0000
,
0000
2030
0000
3000
,
1100
0000
1100
0000
0010
0000
0000
0001
,
0000
0000
0000
0000
,
0000
0000
0000
0000
1000
0000
0000
0001
,
0000
0000
0000
0000
,
0000
0000
0100
0010
,
1000
0010
0100
0001
,
0010
0100
1000
0010
,
0100
0001
0010
0100
,
1000
0010
0100
0001
,
0100
0010
1000
0010
,
0100
0001
0100
0010
,
1000
0010
0100
0001
,
0100
0000
0010
0000
2000
0000
0000
3020
,
0000
0000
0230
0000
0000
0301
0010
0001
,
0000
0000
0100
0000
0010
0000
0000
1000
,
0000
0010
0000
0000
,
0000
0000
0100
0000
0020
0000
0000
2030
,
0000
0000
3200
0000
0000
0310
0001
0100
,
0000
0000
0010
0000
1000
0000
0000
0100
,
0000
0010
0000
0000
0001
0000
0000
0010
,
0000
0000
0100
0000
2000
0000
0000
3020
,
0000
0000
0230
0000
0000
0301
0010
0100
,
0000
0000
1000
0000
0010
0000
0000
0100
,
0000
0001
0000
0000
,
0000
0000
0010
0000
0200
0000
0000
2300
,
0000
0000
3020
0000
0000
0130
0001
0100
,
0000
0000
0010
0000
1000
0000
0000
0001
,
0000
0010
0000
0000
0001
0000
0000
0010
,
0000
0000
0001
0000
1000
1000
0000
1001
;

//---------------dance-single - ----------------
#NOTES:
     dance-single:
     :
     Medium:
     8:
     0.503,0.613,0.261,0.479,0.000,319.000,30.000,55.000,0.000,0.000:
0000
0000
0000
0000
,
0000
0000
0000
0000
,
0000
0000
0000
0000
,
0000
0000
0000
0000
,
2200
0000
0000
0000
,
0000
0000
0000
0000
,
0000
0000
0000
0000
,
3300
0000
0000
0000
,
0002
0000
0000
0013
0100
0000
2000
0000
,
0000
3000
2200
0000
0000
0000
3300
0000
,
0002
0000
0000
0013
0100
0000
2000
0000
,
0000
3000
2200
0000
0000
0000
3300
0000
,
0002
0000
0000
0013
0001
0000
2000
0000
,
0000
3000
2200
0000
0000
0000
3300
0000
,
0002
0000
0000
0103
0010
0000
2000
0000
,
0000
3000
2020
0000
0000
0000
3030
0000
,
2000
0000
0000
3100
0010
0000
0002
0000
,
0000
0003
0022
0000
0000
0000
0033
0000
,
0002
0000
0000
0013
0100
0000
2000
0000
,
0000
3000
2002
0000
0000
0000
3003
0000
,
0200
0000
0000
0310
1000
0000
0020
0000
,
0000
0030
0200
0000
0000
0000
0300
0000
,
0022
0000
0000
0033
,
1000
0100
0010
0001
1000
0100
0010
0001
,
1000
0100
0010
0002
0000
0000
0103
0000
,
0010
1000
0010
1000
0001
1000
0010
1000
,
0010
1000
0001
0020
0000
0000
0031
0000
,
0100
0010
1000
0010
0100
0001
0100
0010
,
1000
0010
1000
0002
0000
0000
0013
0000
,
0100
1000
0100
1000
0010
0100
0001
0100
,
0010
1000
0100
0010
0001
0010
0100
1000
,
0001
0010
0001
0010
0001
0010
0001
0010
,
0001
0010
0001
0020
0000
0000
0130
0000
,
1000
0010
1000
0010
1000
0010
1000
0010
,
1000
0001
0010
0200
0000
0000
1300
0000
,
0100
0010
0001
0010
0100
1000
0010
0100
,
0001
0100
0010
2000
0000
0000
3010
0000
,
1010
0000
0000
0110
0000
0101
0000
0000
,
0011
0000
0000
0001
1000
0100
0010
0001
,
0011
0011
0000
0000
0000
0000
0000
0000
,
1100
1100
0000
0000
0000
0000
0000
0000
,
1010
1010
0000
0000
0000
0000
0000
0000
,
0101
0101
0000
0000
0000
0000
0000
0000
,
0001
0000
0010
0000
0100
0000
0100
1000
,
0000
1000
0100
0000
0010
0001
0010
0001
,
0010
0000
0001
0000
0100
0000
0010
1000
,
0000
0010
0100
0000
0001
0010
0100
1000
,
0100
0000
0100
0000
0010
0000
0001
0010
,
0000
0001
0010
0000
0100
1000
0100
1000
,
0010
0000
1001
0000
0011
0000
0000
0001
,
0000
0000
0000
0000
,
0000
0000
0000
0000
0010
0000
0000
0100
,
0000
0000
0000
0000
,
0000
0000
1000
1000
,
0001
0010
0100
0000
1000
0000
1000
0000
,
0001
0010
0001
0000
0100
0000
0100
0000
,
0010
1000
0010
0000
0100
0000
0001
0000
,
0001
0010
0001
1000
0100
0000
0010
0000
,
0001
0000
1000
0000
0010
0010
0100
0100
,
0001
0010
0100
1100
,
0110
0011
0011
0011
,
1000
0100
0010
0000
0002
0000
0000
0203
,
0000
0000
2300
0000
0000
3100
0010
2000
,
0000
0000
3020
0000
0032
0000
0000
0023
,
0000
2030
0000
0000
0000
0000
0000
0000
,
0000
0000
3020
0000
0230
0000
0000
0302
,
0000
0000
0023
0000
0000
0130
1000
0020
,
0000
0000
0130
0000
0002
0000
0000
0023
,
0000
0000
0230
0000
1300
0000
0000
0100
,
0010
0000
0001
0000
1000
0100
0010
0001
,
1000
0100
0010
0001
1000
0100
0010
0001
,
1000
0100
0010
0001
1000
0010
0100
0001
,
1000
0010
0100
0001
1000
0010
1000
0010
,
0100
0001
0100
0001
1000
0010
1000
0010
,
0100
0001
0100
0001
0010
0100
1000
0100
,
0010
0001
0100
0010
1000
0010
0100
0001
,
0010
0100
1000
0100
0010
0001
1000
0010
,
1000
0100
0010
0001
1100
1100
0000
2002
,
0000
3003
0000
0000
;

//---------------dance-single - Copied from----------------
#NOTES:
     dance-single:
     Copied from:
     Hard:
     10:
     0.674,0.751,0.270,0.470,0.152,457.000,31.000,54.000,0.000,0.000:
0000
0000
0000
0000
,
0000
0000
0000
0000
,
0000
0000
0000
0000
,
0000
0000
0000
0000
,
2200
0000
0000
0000
,
0000
0000
0000
0000
,
0000
0000
0000
0000
,
3300
0000
0000
0000
,
0110
0000
0100
0010
0001
1000
0001
0100
,
0001
0010
0100
1000
0010
0100
0001
0000
,
0010
0100
1000
0010
0001
0010
0100
0001
,
0010
0000
0100
0000
1000
0000
0100
0000
0010
0000
0001
0000
1000
0010
1000
0100
,
0010
0001
0010
0100
1000
0010
0100
0001
,
0100
0000
0100
0000
0010
0000
0010
0000
1000
0000
0100
0000
0010
0001
0010
0001
,
1000
0000
0000
0000
1001
0000
0000
1000
0010
0000
0000
0010
0100
0000
0000
0100
,
0001
0000
0000
0001
0010
0000
0100
0000
0000
0000
1000
0000
0100
0010
0001
0010
,
0100
1000
0010
1000
0001
0100
0001
0010
,
0100
1000
0100
0010
0001
1000
0001
0000
,
0010
0100
1000
0100
0010
0001
0100
0010
,
1000
0000
0010
0000
0100
0000
0001
0000
0010
0000
0100
0000
1000
0100
0010
0100
,
0010
0001
0100
0001
0100
0010
1000
0010
,
1000
0000
0010
0000
0100
0000
0001
0000
0100
0000
0001
0000
0010
0100
0010
0100
,
2000
0000
0000
0000
,
3200
0310
0001
0100
1000
0200
0310
1000
,
0200
0310
0001
0020
0130
1000
0010
0001
,
0020
1030
0100
0001
0100
2000
3010
0100
,
0020
0031
0010
0200
0310
1000
0100
0010
,
0200
0301
0100
0010
0100
2000
3010
0001
,
0020
1030
0100
0002
0103
1000
0010
0100
,
0002
0013
0100
2000
3100
0020
0031
0100
,
0020
1030
0010
0200
0301
0010
0001
0200
,
0002
0000
0000
0303
0000
0101
0000
0000
,
0110
0000
0000
1010
0000
0000
2000
0000
,
0200
0000
0000
0000
3300
0110
0000
0000
,
0011
0000
0000
1001
0000
0000
0200
0000
,
0020
0000
0330
0000
0000
1100
0000
0000
,
1010
0000
0000
1000
0000
0000
0000
0000
,
0101
0000
0000
0110
0000
1010
0000
0000
,
1100
0000
0000
0110
0000
0100
0010
0001
,
0011
0022
0000
0000
0000
0000
0033
0000
,
0101
0202
0000
0000
0000
0000
0303
0000
,
1010
2020
0000
0000
0000
0000
3030
0000
,
1001
2002
0000
0000
0000
0000
3003
0000
,
0001
0000
1000
0000
0001
0000
0010
0100
,
0000
0100
1000
0000
0100
0010
0001
0010
,
0001
0000
0100
0000
0010
0000
1000
0100
,
0000
0100
0010
0000
0001
0100
0010
1000
,
0010
0000
0100
0000
0001
0000
0010
0100
,
0000
0100
1000
0010
0100
0001
0010
0100
,
1000
0000
1100
0000
0010
0000
0000
0001
,
0000
0000
0000
0000
,
0000
0000
0000
0000
0010
0000
0000
0100
,
0000
0000
0000
0000
,
0000
0000
0000
0000
1000
0010
0100
0001
,
0100
0010
1000
0100
0010
0001
0010
0100
,
1000
0010
0100
0001
0100
0010
1000
0100
,
0010
0001
0100
0001
0100
0010
1000
0010
,
1000
0000
0010
0000
0100
0001
0100
0001
0010
0000
0100
0000
1000
0000
0010
0000
,
1000
0010
0100
0001
0100
0001
0100
0010
,
1000
0000
0010
0000
1000
0100
0010
0001
0010
0000
0100
0000
1000
0000
0000
0000
,
0010
0000
0100
0000
0001
0000
0010
0100
,
1000
0010
1010
0000
1002
1003
0001
0010
,
0100
2000
3100
0010
0002
0103
0010
2000
,
3010
0100
0001
0010
0200
1300
0010
0100
,
0001
0020
0130
1000
0200
0310
0001
0200
,
0310
1000
0010
0100
0002
0013
0100
1000
,
0100
0020
0031
0100
0020
1030
0010
0200
,
0301
0010
0100
1000
0200
0310
0001
2000
,
3001
0020
0130
0010
0200
1300
0100
0020
,
0032
0000
0003
0000
0011
0000
0000
0000
0100
1000
0100
0000
0010
0000
0001
0000
,
0100
0000
0010
0000
1000
0000
0010
0000
0100
0001
0010
0000
0100
0000
1000
0000
,
0010
0000
1000
0000
0010
0000
0100
0000
0001
0100
0001
0000
0100
0000
0010
0000
,
1000
0000
0010
0000
1000
0000
0100
0000
0010
0001
0100
0000
0010
0000
1000
0000
,
0010
0000
0100
0000
0001
0000
0010
0000
0100
1000
0010
0000
0100
0000
0001
0000
,
0010
0000
0100
0000
1000
0000
0001
0000
1000
0100
1000
0100
1000
0000
0001
0010
,
0001
0010
0001
0000
0000
0000
0000
0000
1000
0010
1000
0010
1000
0000
0001
0100
,
0001
0100
0001
0000
0000
0000
0000
0000
1000
0100
1000
0001
1000
0000
0010
1000
,
0001
1000
0100
0000
0010
0000
0000
0000
0110
0000
0011
0000
0000
0000
2002
0000
,
0000
0000
0000
3003
0000
0000
0000
0000
;

//---------------dance-single - ----------------
#NOTES:
     dance-single:
     :
     Beginner:
     4:
     0.177,0.305,0.096,0.026,0.000,128.000,11.000,3.000,0.000,0.000:
0000
0000
0000
0000
,
0000
0000
0000
0000
,
0000
0000
0000
0000
,
0000
0000
0000
0000
,
2002
0000
0000
0000
,
0000
0000
0000
0000
,
3003
0000
0000
0000
,
0000
0000
0000
0000
,
1000
0000
0001
0001
,
0000
0100
0000
0000
,
0010
0000
1000
1000
,
0000
0001
0000
0000
,
1000
0000
0100
0100
,
0000
0010
0000
0000
,
0001
0000
0100
0100
,
0000
0000
0000
0000
,
0010
0000
1000
1000
,
0000
0001
0000
0000
,
1000
0000
0010
0010
,
0000
0100
0000
0000
,
0001
0000
1000
1000
,
0000
0100
0000
0000
,
0002
0000
0000
0003
,
1000
0000
0000
0000
,
0001
0000
0000
0000
,
0100
0000
0000
0000
,
0010
0000
0000
0000
,
1000
0000
0000
0000
,
0001
0000
0000
0000
,
1000
0000
0000
0000
,
0001
0000
0000
0000
,
1001
0000
0000
0000
,
0010
0000
0000
0000
,
0100
0000
0000
0000
,
0001
0000
0000
0000
,
1000
0000
0000
0000
,
0001
0000
0000
0000
,
1000
0000
0000
0000
,
0001
0000
0000
0000
,
1000
1000
0000
0000
0000
0000
0000
0000
,
0010
0010
0000
0000
0000
0000
0000
0000
,
0100
0100
0000
0000
0000
0000
0000
0000
,
0001
0001
0000
0000
0000
0000
0000
0000
,
1001
0000
0001
0000
,
1000
1000
1000
0000
,
0001
0000
1001
0000
,
0010
0010
0010
0000
,
0100
0000
1001
0000
,
1000
0001
1000
0000
,
1001
0000
1001
0000
0001
0000
0000
1000
,
0000
0000
0000
0000
,
0000
0000
0000
0000
0001
0000
0000
0010
,
0000
0000
0000
0000
,
0000
0000
1000
0000
,
0001
0000
1000
0001
,
1000
0000
0010
0000
,
1000
0000
0001
0100
,
0001
0100
0001
0000
,
1000
0000
0010
0010
,
0010
0000
1000
0000
,
0001
0000
1000
0001
,
1000
0000
1001
0000
,
0000
0000
0000
0000
0010
0000
0000
0010
,
0000
0000
1001
0000
,
0000
0000
0000
0000
0100
0000
0000
0100
,
0000
0000
1001
0000
,
0000
0000
0000
0000
0010
0000
0000
0010
,
0000
0000
0000
0000
1001
0000
0000
0100
,
0000
0100
0000
0000
1000
0000
0000
0001
,
0000
0000
1000
0000
,
0001
0000
0100
0000
,
0010
0000
1000
0000
,
0100
0000
0010
0000
,
0001
0000
0000
0000
1000
0000
0000
0010
,
0000
0000
1000
0000
0000
0000
0000
0001
,
0000
0000
1000
0000
0010
0000
0000
0010
,
0000
0010
0000
0000
,
0000
0000
0000
0000
0001
0001
0000
1000
;

//---------------dance-double - Copied from----------------
#NOTES:
     dance-double:
     Copied from:
     Hard:
     11:
     0.706,1.000,0.357,0.035,0.222,522.000,41.000,4.000,0.000,0.000:
00000000
00000000
00000000
00000000
,
00000000
00000000
00000000
00000000
,
00000000
00000000
00000000
00000000
,
00000000
00000000
00000000
00000000
,
00022000
00000000
00000000
00000000
,
00000000
00000000
00000000
00000000
,
00000000
00000000
00000000
00000000
,
00033000
00000000
00000000
00000000
,
00011000
00010000
00000100
00010000
00000010
00001000
00000001
00000100
,
00001000
00000100
00000001
00000010
00001000
00000010
00000001
00000100
,
00000010
00010000
00001000
00100000
00001000
00010000
00000100
00010000
,
00001000
00000000
00100000
00000000
00010000
00000000
01000000
00000000
00100000
00000000
10000000
00000000
00010000
00100000
00010000
00100000
,
00010000
01000000
00010000
10000000
01000000
00100000
00001000
00100000
,
00010000
00000000
00010000
00000000
00010000
00000000
00010000
00000000
00100000
00000000
00001000
00000000
00010000
00001000
00010000
00001000
,
00010000
00000000
00000000
00000100
00010000
00000000
00000000
00010000
00001000
00000000
00000000
00001000
00010000
00000000
00000000
00010000
,
00000100
00000000
00000000
00000100
00001000
00000000
00001000
00000000
00000000
00000000
00000001
00000000
00000100
00000001
00000100
00000001
,
00000100
00000010
00010000
00001000
00100000
00010000
01000000
00100000
,
10000000
00000000
01000000
00000000
01000000
00000000
00100000
00000000
00010000
10000000
00000000
00010000
10000000
00000000
00100000
00000000
,
01000000
00010000
00100000
00001000
00010000
00000100
00001000
00000010
,
00010000
00000000
00001000
00000000
00100000
00000000
00010000
00000000
01000000
00000000
00100000
00000000
10000000
00010000
10000000
00010000
,
10000000
00100000
01000000
00001000
01000000
00100000
01000000
00001000
,
01000000
00000000
00010000
00000000
00100000
00000000
00001000
00000000
00100000
00000000
00010000
00000000
10000000
00010000
10000000
00010000
,
10000000
00000000
00000000
00000000
,
00001001
00000001
00001000
00000010
00000100
00000110
00000010
00010000
,
00011000
00001000
00100000
00101000
00001000
01000000
00010000
10000000
,
10010000
10000000
01000000
00100000
00010000
00110000
00100000
00001000
,
00101000
00010000
00000100
00010100
00001000
00000001
00000100
00000010
,
00000110
00000010
00010000
00001000
00100000
00110000
00010000
10000000
,
10010000
10000000
00100000
10100000
10000000
00010000
01000000
00001000
,
01001000
00000000
00000000
00011000
00000000
00010100
00000000
00000001
,
00001001
00000000
00000000
00000110
00000000
00000001
00000001
00000001
,
00000010
00001000
00000010
00000001
00000100
00001000
00010000
01000000
,
10000000
01000000
00010000
00001000
00000100
00000001
00000010
00001000
,
00000010
00000100
00010000
01000000
10000000
01000000
00100000
10000000
,
00100000
00000000
01000000
00000000
00010000
00000000
10000000
00000000
00010000
10000000
00010000
10000000
01000000
00100000
01000000
00100000
,
01000000
00100000
00001000
00100000
01000000
10000000
01000000
00010000
,
01000000
10000000
00010000
01000000
00001000
00010000
00001000
01000000
,
01010000
00000000
00000000
10100000
00000000
01010000
00000000
00000000
,
00011000
00000000
00000000
00000110
00000000
00000001
00000100
00000001
,
00001001
00001001
00000000
00000000
00000000
00000000
00000000
00000000
,
10010000
10010000
00000000
00000000
00000000
00000000
00000000
00000000
,
00000011
00000011
00000000
00000000
00000000
00000000
00000000
00000000
,
11000000
11000000
00000000
00000000
00000000
00000000
00000000
00000000
,
00001001
00000001
00001000
00000100
00100000
00010000
01000000
00100000
,
10000000
10000000
01000000
00100000
00010000
01000000
00010000
10000000
,
10010000
00000000
01010000
01000000
00100000
10000000
01000000
00100000
,
00001000
00100000
00010000
00001000
00010000
00100000
00001000
00010000
,
00000100
00010000
00001000
00010000
00000010
00000100
00000010
00010000
,
00000010
00000100
00000010
00010000
00000010
00000100
00000010
00010000
,
00001000
01000000
01001000
00000000
00010000
00000000
00000000
10000000
,
00000000
00000000
00000000
00000000
,
00000000
00000000
00000000
00000000
00000001
00000000
00000000
00010000
,
00000000
00000000
00000000
00000000
,
00000000
00000000
00000000
00000000
10000000
01000000
10000000
01000000
,
00100000
01000000
00100000
01000000
00100000
00010000
00100000
00010000
,
00100000
00001000
00100000
00001000
00010000
00000100
00010000
00000100
,
00010000
00001000
00010000
00001000
00010000
00000010
00010000
00000010
,
00000100
00000010
00000100
00000010
00000100
00000001
00000100
00000001
,
00000100
00000010
00000100
00000010
00001000
00000010
00001000
00000010
,
00010000
00000010
00010000
00001000
00010000
00001000
00010000
00001000
,
00100000
00001000
00100000
00001000
01000000
00001000
01000000
00010000
,
10000000
00010000
10000000
00000000
10010000
10000000
00010000
00100000
,
01000000
01000000
10000000
00100000
01000000
01000000
00010000
01000000
,
01000000
00100000
10000000
00100000
01000000
01000000
00010000
00100000
,
00001000
00010000
00010000
00000100
00001000
00001000
00000010
00000100
,
00000100
00000001
00000100
00000010
00010000
00010000
00001000
01000000
,
00100000
10000000
10000000
00100000
01000000
01000000
00010000
01000000
,
01000000
00100000
10000000
00100000
01000000
00010000
10000000
01000000
,
00100000
00010000
00100000
01000000
10000000
00010000
10000000
01000000
,
00100000
00000000
00110000
00000000
00100000
00001000
00000010
00001000
,
00100000
00010000
10000000
01000000
00010000
00001000
00000100
00000001
,
00000100
00001000
00010000
01000000
10000000
00100000
00010000
00001000
,
00000010
00000001
00000010
00001000
00010000
00100000
10000000
00010000
,
00100000
00000000
00000000
00000000
00001000
00000000
00000000
00000000
00010000
00001000
00010000
00001000
00010000
00001000
00010000
00001000
,
01000000
00001000
01000000
00001000
01000000
00001000
01000000
00001000
01000000
00010000
01000000
00010000
01000000
00010000
01000000
00010000
,
10000000
00100000
10000000
00100000
10000000
00100000
10000000
00100000
01000000
00010000
01000000
00010000
01000000
00010000
01000000
00010000
,
00100000
00001000
00100000
00001000
00100000
00001000
00100000
00001000
00010000
00000100
00010000
00000100
00010000
00000100
00010000
00000100
,
00001000
00000010
00001000
00000010
00001000
00000000
00000000
00000000
00000011
00000000
00000011
00000000
00000000
00000000
20020000
00000000
,
00000000
00000000
00000000
30030000
00000000
00000000
00000000
00000000
;
