#TITLE:Sunday Everyday;
#SUBTITLE:;
#ARTIST:DJ Sharpnel;
#TITLETRANSLIT:;
#SUBTITLETRANSLIT:;
#ARTISTTRANSLIT:;
#CREDIT:;
#BANNER:sunday everyday bn.png;
#BACKGROUND:sunday everyday bg.png;
#LYRICSPATH:;
#CDTITLE:;
#MUSIC:Sunday Everyday.ogg;
#OFFSET:-0.073;
#SAMPLESTART:30.082;
#SAMPLELENGTH:13.332;
#SELECTABLE:YES;
#DISPLAYBPM:144.000;
#BPMS:0.000=144.000;
#STOPS:;
#BGCHANGES:;
// cache tags:
#FIRSTBEAT:22.000;
#LASTBEAT:552.000;
#SONGFILENAME:Songs/SHARPNELSTREAMZ v2/Sunday Everyday/Sunday Everyday.sm;
#HASMUSIC:1;
#HASBANNER:1;
#MUSICLENGTH:233.404;
// end cache tags

//---------------dance-single - 13- (TYLR)----------------
#NOTES:
     dance-single:
     13- (TYLR):
     Challenge:
     13:
     1.000,0.976,0.064,0.000,1.000,1765.000,15.000,0.000,14.000,0.000:
0000
0000
0000
0000
,
0000
0000
0000
0000
,
0000
0000
0000
0000
,
0000
0000
0000
0000
,
0000
0000
0000
0000
,
0000
0000
0MM0
0000
,
0001
0000
0000
0000
0100
0000
0100
0000
0010
1000
0010
1000
0100
0000
0000
0000
,
0010
0000
0000
0000
0001
0000
0000
0001
1000
0000
0000
0000
0010
0000
0010
0000
,
0100
0000
0000
0000
0001
0000
0000
0001
0010
0100
0010
0100
1000
0000
1000
0000
,
0001
1000
0001
0100
0010
1000
0100
0010
0001
1000
0001
1000
0001
1000
0001
1000
,
0001
0000
0100
0010
0000
1000
0100
0010
0001
0000
0010
0001
0000
0100
0010
1000
,
0001
0000
1000
0001
0000
0010
0100
0000
1000
0010
0001
0000
0010
0100
0010
1000
,
0001
0000
0010
0001
0000
0100
0010
1000
0001
0000
1000
0001
0000
0010
0100
1000
,
0001
0000
0100
0001
1000
0000
0100
0000
0010
0001
0100
0000
0001
1000
0100
1000
,
0100
0000
0010
0001
0000
0010
0100
1000
0001
0000
1000
0001
0000
0100
0010
1000
,
0001
0000
1000
0001
0010
0000
0100
0000
1000
0010
0001
0000
0010
0100
0010
1000
,
0001
0000
0010
0001
0000
0100
0010
1000
0001
0000
1000
0001
0000
0010
0100
1000
,
0001
1000
0001
0100
0010
1000
0100
0010
0001
1000
0001
1000
0001
1000
0001
1000
,
0001
0010
0100
1000
0010
1000
0100
0010
0001
1000
0010
0100
0001
0100
0010
1000
,
0100
0010
0001
0100
0010
0100
0001
1000
0100
0010
1000
0010
1000
0010
0100
1000
,
0001
1000
0010
0100
0001
0100
0010
1000
0001
0010
0100
1000
0010
1000
0100
0010
,
0001
0100
0010
1000
0001
1000
0010
0100
0001
1000
0001
1000
0001
1000
0001
1000
,
0001
0100
0010
1000
0100
1000
0010
0100
0001
1000
0100
0010
0001
0010
0100
1000
,
0010
0100
0001
0010
0100
0010
0001
1000
0010
0100
1000
0100
1000
0100
0010
1000
,
0001
1000
0100
0010
0001
0010
0100
1000
0001
0100
0010
1000
0100
1000
0010
0100
,
0001
0010
0100
1000
0001
1000
0100
0010
0001
1000
0001
1000
0001
1000
0001
1000
,
0001
0000
0100
0001
0000
0010
0001
0000
1000
0001
0000
0001
0000
0100
0010
0000
,
1000
0000
0100
1000
0000
0010
1000
0000
0001
1000
0000
1000
0000
0001
0010
0100
,
M10M
0000
0010
0100
0000
0001
0100
0000
0010
0100
0000
0100
0000
0001
0010
0000
,
0100
0000
0010
1000
0000
0010
0100
0000
0000
0010
1000
0010
0000
0001
0100
0010
,
1000
0000
0100
1000
0000
0010
1000
0000
0001
1000
0000
1000
0000
0100
0010
0000
,
0001
0000
0100
0001
0000
0010
0001
0000
1000
0001
0000
0001
0000
1000
0010
0100
,
M10M
0000
0010
0100
0000
1000
0100
0000
0010
0100
0000
0100
0000
1000
0010
0000
,
0100
0000
0010
0001
0000
0010
0100
0000
0000
0010
0001
0010
0000
0100
0010
1000
,
0001
0000
0010
0001
0000
0100
0001
0000
1000
0001
0000
0001
0000
0010
0100
0000
,
1000
0000
0010
1000
0000
0100
1000
0000
0001
1000
0000
1000
0000
0001
0010
0100
,
M10M
0000
0010
0100
0000
0001
0100
0000
0010
0100
0000
0100
0000
0001
0010
0100
,
1000
0010
0100
1000
0100
0010
1000
0001
0010
0100
0001
0100
0010
0001
0100
0010
,
1000
0000
0100
1000
0000
0010
1000
0000
0001
1000
0000
1000
0000
0100
0010
0000
,
0001
0000
0100
0001
0000
0010
0001
0000
1000
0001
0000
0001
0000
1000
0010
0100
,
M10M
0000
0010
0100
0000
1000
0100
0000
0010
0100
0000
0100
0000
1000
0010
0100
,
0001
0100
0010
0001
0010
0100
0001
1000
0100
0010
1000
0010
0100
1000
0010
0100
,
0001
0000
0010
0001
0000
0100
0001
0000
1000
0001
0000
0001
0000
0010
0100
0000
,
1000
0000
0010
1000
0000
0100
1000
0000
0001
1000
0000
1000
0000
0001
0010
0100
,
M10M
0000
0010
0100
0000
0001
0100
0000
0010
0100
0000
0100
0000
0001
0010
0100
,
1000
0010
0100
1000
0100
0010
1000
0001
0010
0100
0001
0100
0010
0001
0100
0010
,
1000
0000
0100
1000
0000
0010
1000
0000
0001
1000
0000
1000
0000
0100
0010
0000
,
0001
0000
0100
0001
0000
0010
0001
0000
1000
0001
0000
0001
0000
1000
0010
0100
,
M10M
0000
0010
0100
0000
1000
0100
0000
0010
0100
0000
0100
0000
1000
0010
0100
,
0001
0100
0010
0001
0010
0100
0001
1000
0100
0010
1000
0010
0100
1000
0010
0100
,
0010
1000
0001
0010
0100
1000
0100
0010
0001
1000
0001
0000
1000
0000
0001
0000
,
0100
0000
0010
0000
1000
0010
0100
0000
0001
0000
1000
0010
0100
0000
0001
1000
,
0001
0010
0001
1000
0100
0010
0100
1000
0001
0100
0010
0000
1000
0000
0010
0000
,
0100
0000
0001
0000
1000
0010
0100
0000
0001
0000
1000
0010
0100
0000
0001
1000
,
0100
0010
0100
1000
0001
0100
0010
1000
0001
0010
0100
0000
1000
0000
0001
0000
,
0100
0000
0010
0000
1000
0001
0100
0000
0010
0000
1000
0001
0100
0000
0010
1000
,
0001
1000
0000
0001
1000
0000
0010
0000
0000
0000
0010
0000
0100
0000
0010
0000
,
1000
0001
0010
0001
1000
0010
0100
0001
0010
0100
1000
0010
0100
0001
1000
0001
,
1000
0100
0010
0001
0100
0010
0001
0010
0100
1000
0001
0010
0100
0010
1000
0001
,
0010
0100
1000
0010
0001
0010
0100
0001
0010
0100
1000
0001
0100
0010
1000
0100
,
0001
0100
0010
0001
0100
0010
0001
0010
0100
0001
0010
0100
1000
0010
0001
0010
,
0100
0001
0100
0010
1000
0001
0010
0100
1000
0001
1000
0001
1000
0001
1000
0001
,
1000
0010
0100
0010
0001
0010
0100
0001
1000
0100
0010
0001
1000
0001
0100
0010
,
0001
0010
0100
0001
1000
0100
0010
0001
0100
0001
1000
0100
0010
0100
1000
0010
,
0001
0010
0100
0001
0010
0100
0001
0100
0010
0001
0100
0010
0001
0010
1000
0100
,
0010
0001
0010
0100
1000
0001
1000
0010
1000
0001
1000
0001
1000
0001
1000
0001
,
1000
0100
0010
0001
0100
0010
0001
0010
0100
1000
0001
0010
0100
0010
1000
0001
,
0010
0100
1000
0010
0001
0010
0100
0001
0010
0100
1000
0001
0100
0010
1000
0100
,
0001
0100
0010
0001
0100
0010
0001
0010
0100
0001
0010
0100
1000
0010
0001
0010
,
0100
0001
0100
0010
1000
0001
0010
0100
1000
0001
1000
0001
1000
0001
1000
0001
,
1000
0010
0100
0010
0001
0010
0100
0001
1000
0100
0010
0001
1000
0001
0100
0010
,
0001
0010
0100
0001
1000
0100
0010
0001
0100
0001
1000
0100
0010
0100
1000
0010
,
0001
0010
0100
0001
0010
0100
0001
0100
0010
0001
0100
0010
0001
0010
1000
0100
,
0010
0001
0010
0100
1000
0001
1000
0010
1000
0001
1000
0001
1000
0001
1000
0001
,
0100
0000
0010
0000
0100
0001
0000
0100
0010
0000
0100
0001
0000
0100
0010
0000
,
1000
0000
0001
0000
0010
0001
0000
1000
0001
0000
0010
0001
0000
1000
0001
0000
,
0010
0000
0100
0000
0010
0001
0000
0010
0100
0000
0010
0001
0000
0010
0100
0000
,
1000
0000
0010
0000
0100
0010
0000
1000
0010
0000
0100
0010
0000
1000
0001
0000
,
1000
0000
0100
0000
1000
0001
0000
1000
0100
0000
1000
0001
0000
1000
0100
0000
,
0010
0000
0001
0000
1000
0001
0000
0010
0001
0000
1000
0001
0000
0010
0001
0000
,
1000
0000
0010
0000
0100
0010
0000
1000
0010
0000
0100
0010
0000
1000
0010
0000
,
1000
0000
0100
0000
1000
0001
0000
1000
0100
0000
1000
0001
0000
0100
0001
0000
,
0100
0000
0010
0000
0100
0001
0000
0100
0010
0000
0100
0001
0000
0100
0010
0000
,
1000
0000
0001
0000
0010
0001
0000
1000
0001
0000
0010
0001
0000
1000
0001
0000
,
0010
0000
0100
0000
0010
0001
0000
0010
0100
0000
0010
0001
0000
0010
0100
0000
,
1000
0000
0010
0000
0100
0010
0000
1000
0010
0000
0100
0010
0000
1000
0001
0000
,
1000
0000
0100
0000
1000
0001
0000
1000
0100
0000
1000
0001
0000
1000
0100
0000
,
0010
0000
0001
0000
1000
0001
0000
0010
0001
0000
1000
0001
0000
0010
0001
0000
,
1000
0000
0010
0000
0100
0010
0000
1000
0010
0000
0100
0010
0000
1000
0010
0000
,
1000
0000
0100
0000
1000
0001
0000
1000
0100
0000
1000
0001
0000
0100
0010
0000
,
1000
0100
0010
0001
0100
0001
0010
0100
1000
0001
0100
0010
1000
0010
0100
0001
,
0010
0100
1000
0010
0100
0010
1000
0001
0010
0100
0001
0100
0001
0100
0010
0001
,
1000
0001
0100
0010
1000
0010
0100
0001
1000
0100
0010
0001
0100
0001
0010
0100
,
1000
0010
0100
0001
1000
0001
0100
0010
1000
0001
1000
0001
1000
0001
1000
0001
,
1000
0010
0100
0001
0010
0001
0100
0010
1000
0001
0010
0100
1000
0100
0010
0001
,
0100
0010
1000
0100
0010
0100
1000
0001
0100
0010
0001
0010
0001
0010
0100
0001
,
1000
0001
0010
0100
1000
0100
0010
0001
1000
0010
0100
0001
0010
0001
0100
0010
,
1000
0100
0010
0001
1000
0001
0010
0100
1000
0001
1000
0001
1000
0001
1000
0001
,
1000
0010
0100
0001
0010
0001
0100
0010
1000
0001
0010
0100
1000
0100
0010
0001
,
0100
0010
1000
0100
0010
0100
1000
0001
0100
0010
0001
0010
0001
0010
0100
0001
,
1000
0001
0010
0100
1000
0100
0010
0001
1000
0010
0100
0001
0010
0001
0100
0010
,
1000
0100
0010
0001
1000
0001
0010
0100
1000
0001
1000
0001
1000
0001
1000
0001
,
1000
0100
0010
0001
0100
0001
0010
0100
1000
0001
0100
0010
1000
0010
0100
0001
,
0010
0100
1000
0010
0100
0010
1000
0001
0010
0100
0001
0100
0001
0100
0010
0001
,
1000
0001
0100
0010
1000
0010
0100
0001
1000
0100
0010
0001
0100
0001
0010
0100
,
1000
0010
0100
0001
1000
0001
0100
0010
1000
0001
1000
0001
1000
0001
1000
0001
,
1000
0000
0001
0000
0101
0000
0001
1000
0000
0000
0000
1100
0000
0100
0010
0000
,
0001
0000
1000
0000
1010
0000
1000
0001
0000
0000
0000
0011
0000
0010
0100
0000
,
1000
0000
0001
0000
0011
0000
0001
1000
0000
0000
0000
1010
0000
0010
0100
0000
,
0001
0000
1000
0000
1100
0000
1000
0001
0000
0000
0000
0101
0000
0100
0010
0000
,
1000
0000
0001
0000
0101
0000
0001
1000
0000
0000
0000
1100
0000
0100
0010
0000
,
0001
0000
1000
0000
1010
0000
1000
0001
0000
0000
0000
0011
0000
0010
0100
0000
,
1000
0000
0001
0000
0011
0000
0001
1000
0000
0000
0000
1010
0000
0010
0100
0000
,
0001
0000
1000
0000
1100
0000
1000
0001
0010
0100
1000
0001
0100
0010
1000
0100
,
0010
0100
1000
0001
0010
0001
1000
0010
0100
0001
1000
0010
0100
0010
1000
0001
,
0010
0100
1000
0001
0010
0001
1000
0010
0100
0001
1000
0010
0100
0010
1000
0001
,
0010
0100
1000
0001
0010
0001
1000
0010
0100
0001
1000
0010
0100
0010
1000
0001
,
0010
0100
1000
0001
0010
0001
1000
0010
0100
0001
1000
0010
0100
0010
1000
0100
,
0010
0100
1000
0001
0010
0001
1000
0010
0100
0001
1000
0010
0100
0010
1000
0001
,
0010
0100
1000
0001
0010
0001
1000
0010
0100
0001
1000
0010
0100
0010
1000
0001
,
0010
0100
1000
0001
0010
0001
1000
0010
0100
0001
1000
0010
0100
0010
1000
0001
,
0010
0100
1000
0001
0010
0001
1000
0001
1000
0010
0100
0001
1000
0100
0010
0001
,
1000
0010
0100
0001
0010
0100
0001
0100
0010
1000
0001
0100
0010
0100
1000
0001
,
0100
0010
1000
0100
0001
0100
0010
0001
0100
0010
1000
0001
0010
0100
1000
0010
,
0001
0010
0100
0001
0010
0100
0001
0100
0010
0001
0100
0010
1000
0100
0001
0100
,
0010
0001
0010
0100
1000
0001
0100
0010
1000
0001
1000
0001
1000
0001
1000
0001
,
1000
0100
0010
0100
0001
0100
0010
0001
1000
0010
0100
0001
1000
0001
0010
0100
,
0001
0100
0010
0001
1000
0010
0100
0001
0010
0001
1000
0010
0100
0010
1000
0100
,
0001
0100
0010
0001
0100
0010
0001
0010
0100
0001
0010
0100
0001
0100
1000
0010
,
0100
0001
0100
0010
1000
0001
1000
0100
1000
0001
1000
0001
1000
0001
1000
0001
,
1000
0010
0100
0001
0010
0100
0001
0100
0010
1000
0001
0100
0010
0100
1000
0001
,
0100
0010
1000
0100
0001
0100
0010
0001
0100
0010
0001
0010
0001
0010
0100
0001
,
1000
0100
0010
0001
0100
0010
0001
0010
0100
0001
0010
0100
1000
0010
0001
0010
,
0100
0001
0100
0010
1000
0001
0010
0001
0100
0010
0001
0010
0001
0010
0001
0010
,
0100
0001
1000
0100
0001
0100
0010
0001
1000
0100
0010
0001
1000
0001
0100
0010
,
0001
0010
0100
0001
1000
0100
0010
0001
0100
0010
0001
0010
0001
0010
0100
0001
,
1000
0100
0010
0001
0100
0010
0001
0010
0100
0001
0010
0100
0001
0100
1000
0010
,
0100
0001
0010
0100
1000
0001
1000
0010
0100
0010
0001
0010
0001
0010
0100
0001
,
1000
0000
0000
0000
;

//---------------dance-single - NoCrossovers----------------
#NOTES:
     dance-single:
     NoCrossovers:
     Hard:
     13:
     1.000,0.976,0.064,0.000,1.000,1765.000,15.000,0.000,14.000,0.000:
0000
0000
0000
0000
,
0000
0000
0000
0000
,
0000
0000
0000
0000
,
0000
0000
0000
0000
,
0000
0000
0000
0000
,
0000
0000
0MM0
0000
,
0001
0000
0000
0000
0100
0000
0100
0000
0010
1000
0010
1000
0100
0000
0000
0000
,
0010
0000
0000
0000
0001
0000
0000
0001
1000
0000
0000
0000
0010
0000
0010
0000
,
0100
0000
0000
0000
0001
0000
0000
0001
0010
0100
0010
0100
1000
0000
1000
0000
,
0001
1000
0001
0100
0010
1000
0100
0010
0001
1000
0001
1000
0001
1000
0001
1000
,
0001
0000
0100
0010
0000
1000
0100
0010
0001
0000
0010
0001
0000
0100
0010
1000
,
0001
0000
1000
0001
0000
0010
0100
0000
1000
0010
0001
0000
0010
0100
0010
1000
,
0001
0000
0010
0001
0000
0100
0010
1000
0001
0000
1000
0001
0000
0010
0100
1000
,
0001
0000
0100
0001
1000
0000
0100
0000
0010
0001
0100
0000
0001
1000
0100
1000
,
0100
0000
0010
0001
0000
0010
0100
1000
0001
0000
1000
0001
0000
0100
0010
1000
,
0001
0000
1000
0001
0010
0000
0100
0000
1000
0010
0001
0000
0010
0100
0010
1000
,
0001
0000
0010
0001
0000
0100
0010
1000
0001
0000
1000
0001
0000
0010
0100
1000
,
0001
1000
0001
0100
0010
1000
0100
0010
0001
1000
0001
1000
0001
1000
0001
1000
,
0001
0010
0100
1000
0010
1000
0100
0010
0001
1000
0010
0100
0001
0100
0010
1000
,
0100
0010
0001
0100
0010
0100
0001
1000
0100
0010
0001
0010
0001
0010
0100
1000
,
0001
1000
0010
0100
0001
0100
0010
1000
0001
0010
0100
1000
0010
1000
0100
0010
,
0001
0100
0010
1000
0001
1000
0010
0100
0001
1000
0001
1000
0001
1000
0001
1000
,
0001
0100
0010
1000
0100
1000
0010
0100
0001
1000
0100
0010
0001
0010
0100
1000
,
0010
0100
0001
0010
0100
0010
0001
1000
0010
0100
0001
0100
0001
0100
0010
1000
,
0001
1000
0100
0010
0001
0010
0100
1000
0001
0100
0010
1000
0100
1000
0010
0100
,
0001
0010
0100
1000
0001
1000
0100
0010
0001
1000
0001
1000
0001
1000
0001
1000
,
0001
0000
0100
0001
0000
0010
0001
0000
1000
0001
0000
0001
0000
0100
0010
0000
,
1000
0000
0100
1000
0000
0010
1000
0000
0001
1000
0000
1000
0000
0001
0010
0100
,
M10M
0000
0010
0100
0000
0001
0100
0000
0010
0100
0000
0100
0000
0001
0010
0000
,
0100
0000
0010
1000
0000
0010
0100
0000
0000
0010
1000
0010
0000
0001
0100
0010
,
1000
0000
0100
1000
0000
0010
1000
0000
0001
1000
0000
1000
0000
0100
0010
0000
,
0001
0000
0100
0001
0000
0010
0001
0000
1000
0001
0000
0001
0000
1000
0010
0100
,
M10M
0000
0010
0100
0000
1000
0100
0000
0010
0100
0000
0100
0000
1000
0010
0000
,
0100
0000
0010
0001
0000
0010
0100
0000
0000
0010
0001
0010
0000
0100
0010
1000
,
0001
0000
0010
0001
0000
0100
0001
0000
1000
0001
0000
0001
0000
0010
0100
0000
,
1000
0000
0010
1000
0000
0100
1000
0000
0001
1000
0000
1000
0000
0001
0010
0100
,
M10M
0000
0010
0100
0000
0001
0100
0000
0010
0100
0000
0100
0000
0001
0010
0100
,
1000
0010
0100
0001
0100
0010
1000
0001
0010
0100
1000
0100
0010
0001
0100
0010
,
1000
0000
0100
1000
0000
0010
1000
0000
0001
1000
0000
1000
0000
0100
0010
0000
,
0001
0000
0100
0001
0000
0010
0001
0000
1000
0001
0000
0001
0000
1000
0010
0100
,
M10M
0000
0010
0100
0000
1000
0100
0000
0010
0100
0000
0100
0000
1000
0010
0100
,
0001
0100
0010
1000
0010
0100
0001
1000
0100
0010
0001
0010
0100
1000
0010
0100
,
0001
0000
0010
0001
0000
0100
0001
0000
1000
0001
0000
0001
0000
0010
0100
0000
,
1000
0000
0010
1000
0000
0100
1000
0000
0001
1000
0000
1000
0000
0001
0010
0100
,
M10M
0000
0010
0100
0000
0001
0100
0000
0010
0100
0000
0100
0000
0001
0010
0100
,
1000
0010
0100
0001
0100
0010
1000
0001
0010
0100
1000
0100
0010
0001
0100
0010
,
1000
0000
0100
1000
0000
0010
1000
0000
0001
1000
0000
1000
0000
0100
0010
0000
,
0001
0000
0100
0001
0000
0010
0001
0000
1000
0001
0000
0001
0000
1000
0010
0100
,
M10M
0000
0010
0100
0000
1000
0100
0000
0010
0100
0000
0100
0000
1000
0010
0100
,
0001
0100
0010
1000
0010
0100
0001
1000
0100
0010
0001
0010
0100
1000
0010
0100
,
0010
1000
0001
0010
0100
1000
0100
0010
0001
1000
0001
0000
1000
0000
0001
0000
,
0100
0000
0010
0000
1000
0010
0100
0000
0001
0000
1000
0010
0100
0000
0001
1000
,
0001
0010
0001
1000
0100
0010
0100
1000
0001
0100
0010
0000
1000
0000
0010
0000
,
0100
0000
0001
0000
1000
0010
0100
0000
0001
0000
1000
0010
0100
0000
0001
1000
,
0100
0010
0100
1000
0001
0100
0010
1000
0001
0010
0100
0000
1000
0000
0001
0000
,
0100
0000
0010
0000
1000
0001
0100
0000
0010
0000
1000
0001
0100
0000
0010
1000
,
0001
1000
0000
0001
1000
0000
0010
0000
0000
0000
0010
0000
0100
0000
0010
0000
,
1000
0001
0010
0001
1000
0010
0100
0001
0010
0100
1000
0010
0100
0001
1000
0001
,
1000
0100
0010
0001
0100
0010
1000
0010
0100
0001
1000
0010
0100
0010
1000
0001
,
0010
0100
1000
0010
1000
0010
0100
0001
0010
0100
1000
0001
0100
0010
1000
0100
,
1000
0100
0010
0001
0100
0010
1000
0010
0100
0001
0010
0100
1000
0010
1000
0010
,
0100
0001
0100
0010
1000
0001
0010
0100
1000
0001
1000
0001
1000
0001
1000
0001
,
1000
0010
0100
0010
1000
0010
0100
0001
1000
0100
0010
0001
1000
0001
0100
0010
,
1000
0010
0100
0001
1000
0100
0010
0001
0100
0001
1000
0100
0010
0100
1000
0010
,
0100
0010
0100
0001
0010
0100
1000
0100
0010
0001
0100
0010
0100
0010
1000
0100
,
0010
0001
0010
0100
1000
0001
1000
0010
1000
0001
1000
0001
1000
0001
1000
0001
,
1000
0100
0010
0001
0100
0010
1000
0010
0100
0001
1000
0010
0100
0010
1000
0001
,
0010
0100
1000
0010
0100
0010
0100
0001
0010
0100
1000
0001
0100
0010
1000
0100
,
1000
0100
0010
0001
0100
0010
1000
0010
0100
0001
0010
0100
1000
0010
0100
0010
,
0100
0001
0100
0010
1000
0001
0010
0100
1000
0001
1000
0001
1000
0001
1000
0001
,
1000
0010
0100
0010
1000
0010
0100
0001
1000
0100
0010
0001
1000
0001
0100
0010
,
1000
0010
0100
0001
1000
0100
0010
0001
0100
0001
1000
0100
0010
0100
1000
0010
,
0100
0010
0100
0001
0010
0100
1000
0100
0010
0001
0100
0010
0100
0010
1000
0100
,
0010
0001
0010
0100
1000
0001
1000
0010
1000
0001
1000
0001
1000
0001
1000
0001
,
0100
0000
0010
0000
0100
0001
0000
0100
0010
0000
0100
0001
0000
0100
0010
0000
,
1000
0000
0001
0000
0010
0001
0000
1000
0001
0000
0010
0001
0000
1000
0001
0000
,
0010
0000
0100
0000
0010
0001
0000
0010
0100
0000
0010
0001
0000
0010
0100
0000
,
1000
0000
0010
0000
0100
0010
0000
1000
0010
0000
0100
0010
0000
1000
0001
0000
,
1000
0000
0100
0000
1000
0001
0000
1000
0100
0000
1000
0001
0000
1000
0100
0000
,
0010
0000
0001
0000
1000
0001
0000
0010
0001
0000
1000
0001
0000
0010
0001
0000
,
1000
0000
0010
0000
0100
0010
0000
1000
0010
0000
0100
0010
0000
1000
0010
0000
,
1000
0000
0100
0000
1000
0001
0000
1000
0100
0000
1000
0001
0000
0100
0001
0000
,
0100
0000
0010
0000
0100
0001
0000
0100
0010
0000
0100
0001
0000
0100
0010
0000
,
1000
0000
0001
0000
0010
0001
0000
1000
0001
0000
0010
0001
0000
1000
0001
0000
,
0010
0000
0100
0000
0010
0001
0000
0010
0100
0000
0010
0001
0000
0010
0100
0000
,
1000
0000
0010
0000
0100
0010
0000
1000
0010
0000
0100
0010
0000
1000
0001
0000
,
1000
0000
0100
0000
1000
0001
0000
1000
0100
0000
1000
0001
0000
1000
0100
0000
,
0010
0000
0001
0000
1000
0001
0000
0010
0001
0000
1000
0001
0000
0010
0001
0000
,
1000
0000
0010
0000
0100
0010
0000
1000
0010
0000
0100
0010
0000
1000
0010
0000
,
1000
0000
0100
0000
1000
0001
0000
1000
0100
0000
1000
0001
0000
0100
0010
0000
,
1000
0100
0010
0001
0100
0001
0010
0100
1000
0001
0100
0010
1000
0010
0100
0001
,
0010
0100
1000
0010
0100
0010
1000
0001
0010
0100
1000
0100
1000
0100
0010
0001
,
1000
0001
0100
0010
1000
0010
0100
0001
1000
0100
0010
0001
0100
0001
0010
0100
,
1000
0010
0100
0001
1000
0001
0100
0010
1000
0001
1000
0001
1000
0001
1000
0001
,
1000
0010
0100
0001
0010
0001
0100
0010
1000
0001
0010
0100
1000
0100
0010
0001
,
0100
0010
1000
0100
0010
0100
1000
0001
0100
0010
1000
0010
1000
0010
0100
0001
,
1000
0001
0010
0100
1000
0100
0010
0001
1000
0010
0100
0001
0010
0001
0100
0010
,
1000
0100
0010
0001
1000
0001
0010
0100
1000
0001
1000
0001
1000
0001
1000
0001
,
1000
0010
0100
0001
0010
0001
0100
0010
1000
0001
0010
0100
1000
0100
0010
0001
,
0100
0010
1000
0100
0010
0100
1000
0001
0100
0010
1000
0010
1000
0010
0100
0001
,
1000
0001
0010
0100
1000
0100
0010
0001
1000
0010
0100
0001
0010
0001
0100
0010
,
1000
0100
0010
0001
1000
0001
0010
0100
1000
0001
1000
0001
1000
0001
1000
0001
,
1000
0100
0010
0001
0100
0001
0010
0100
1000
0001
0100
0010
1000
0010
0100
0001
,
0010
0100
1000
0010
0100
0010
1000
0001
0010
0100
1000
0100
1000
0100
0010
0001
,
1000
0001
0100
0010
1000
0010
0100
0001
1000
0100
0010
0001
0100
0001
0010
0100
,
1000
0010
0100
0001
1000
0001
0100
0010
1000
0001
1000
0001
1000
0001
1000
0001
,
1000
0000
0001
0000
0101
0000
0001
1000
0000
0000
0000
1100
0000
0100
0010
0000
,
0001
0000
1000
0000
1010
0000
1000
0001
0000
0000
0000
0011
0000
0010
0100
0000
,
1000
0000
0001
0000
0011
0000
0001
1000
0000
0000
0000
1010
0000
0010
0100
0000
,
0001
0000
1000
0000
1100
0000
1000
0001
0000
0000
0000
0101
0000
0100
0010
0000
,
1000
0000
0001
0000
0101
0000
0001
1000
0000
0000
0000
1100
0000
0100
0010
0000
,
0001
0000
1000
0000
1010
0000
1000
0001
0000
0000
0000
0011
0000
0010
0100
0000
,
1000
0000
0001
0000
0011
0000
0001
1000
0000
0000
0000
1010
0000
0010
0100
0000
,
0001
0000
1000
0000
1100
0000
1000
0001
0010
0100
1000
0001
0100
0010
1000
0100
,
0010
0100
1000
0001
0010
0001
1000
0010
0100
0001
1000
0010
0100
0010
1000
0001
,
0010
0100
1000
0001
0010
0001
1000
0010
0100
0001
1000
0010
0100
0010
1000
0001
,
0010
0100
1000
0001
0010
0001
1000
0010
0100
0001
1000
0010
0100
0010
1000
0001
,
0010
0100
1000
0001
0010
0001
1000
0010
0100
0001
1000
0010
0100
0010
1000
0100
,
0010
0100
1000
0001
0010
0001
1000
0010
0100
0001
1000
0010
0100
0010
1000
0001
,
0010
0100
1000
0001
0010
0001
1000
0010
0100
0001
1000
0010
0100
0010
1000
0001
,
0010
0100
1000
0001
0010
0001
1000
0010
0100
0001
1000
0010
0100
0010
1000
0001
,
0010
0100
1000
0001
0010
0001
1000
0001
1000
0010
0100
0001
1000
0100
0010
0001
,
1000
0010
0100
0001
0010
0100
1000
0100
0010
0001
1000
0100
0010
0100
1000
0001
,
0100
0010
1000
0100
1000
0100
0010
0001
0100
0010
1000
0001
0010
0100
1000
0010
,
1000
0010
0100
0001
0010
0100
1000
0100
0010
0001
0100
0010
1000
0100
1000
0100
,
0010
0001
0010
0100
1000
0001
0100
0010
1000
0001
1000
0001
1000
0001
1000
0001
,
1000
0100
0010
0100
1000
0100
0010
0001
1000
0010
0100
0001
1000
0001
0010
0100
,
1000
0100
0010
0001
1000
0010
0100
0001
0010
0001
1000
0010
0100
0010
1000
0100
,
1000
0100
0010
0001
0100
0010
1000
0010
0100
0001
0010
0100
1000
0100
1000
0010
,
0100
0001
0100
0010
1000
0001
1000
0100
1000
0001
1000
0001
1000
0001
1000
0001
,
1000
0010
0100
0001
0010
0100
1000
0100
0010
0001
1000
0100
0010
0100
1000
0001
,
0100
0010
1000
0100
1000
0100
0010
0001
0100
0010
1000
0010
1000
0010
0100
0001
,
1000
0100
0010
0001
0100
0010
1000
0010
0100
0001
0010
0100
1000
0010
1000
0010
,
0100
0001
0100
0010
1000
0001
0010
0001
0100
0010
1000
0010
1000
0010
1000
0010
,
0100
0001
1000
0100
1000
0100
0010
0001
1000
0100
0010
0001
1000
0001
0100
0010
,
1000
0010
0100
0001
1000
0100
0010
0001
0100
0010
1000
0010
1000
0010
0100
0001
,
1000
0100
0010
0001
0100
0010
1000
0010
0100
0001
0010
0100
1000
0100
1000
0010
,
0100
0001
0010
0100
1000
0001
1000
0010
0100
0010
1000
0010
1000
0010
0100
0001
,
1000
0000
0000
0000
;
