#TITLE:Adventure Of A Lifetime;
#SUBTITLE:;
#ARTIST:Coldplay;
#TITLETRANSLIT:;
#SUBTITLETRANSLIT:;
#ARTISTTRANSLIT:;
#CREDIT:;
#BANNER:Banner.png;
#BACKGROUND:BG.png;
#LYRICSPATH:;
#CDTITLE:CDTitle_Collabs.png;
#MUSIC:Coldplay - Adventure Of A Lifetime.ogg;
#OFFSET:0.033;
#SAMPLESTART:135.837;
#SAMPLELENGTH:29.999;
#SELECTABLE:YES;
#BPMS:0.000=113.885;
#STOPS:;
#BGCHANGES:256.000=BG.png=1.000=0=0=1,
345.000=BG.png=1.000=0=0=1,
99999=-nosongbg-=1.000=0=0=0 // don't automatically add -songbackground-
;
// cache tags:
#FIRSTBEAT:0.500;
#LASTBEAT:488.000;
#SONGFILENAME:Songs/owenviau1 Simfiles 7/Adventure Of A Lifetime - [owenviau1, Kirby5464] v1.0.0/Adventure Of A Lifetime.sm;
#HASMUSIC:1;
#HASBANNER:1;
#MUSICLENGTH:258.333;
// end cache tags

//---------------dance-single - 20.53 (20+) (owenvia----------------
#NOTES:
     dance-single:
     20.53 (20+) (owenvia:
     Challenge:
     20:
     1.000,1.000,0.081,0.519,1.000,2979.000,21.000,134.000,0.000,2.000:

0000
0000
1000
0100
0010
0001
0100
0001
1000
0100
0010
0001
0200
0000
0310
2000
,
0000
3000
0001
0010
0100
1000
0001
0100
0010
0100
0001
1000
0020
0000
0130
0002
,
0000
0003
1000
0100
1000
0010
0100
0001
0100
0010
1000
0001
2000
0000
3010
0200
,
0000
0300
0001
1000
0001
0010
0100
1000
0001
0100
0010
1000
0020
0000
0000
0230
,
0000
0300
0000
0000
0001
0000
1000
0000
0100
0000
1000
0000
0010
0000
0100
0000
0001
0000
1000
0000
0100
0000
0010
0000
0002
0000
0000
0000
1003
0000
0200
0000
,
0000
0300
1000
0010
0100
0001
0100
0010
1000
0001
0010
0001
0200
0000
0310
2000
,
0000
3000
0001
0010
0100
1000
0001
0100
0001
1000
0010
0100
0002
0000
1003
0200
,
0000
0300
1000
0010
0100
0001
0010
0001
1000
0010
0100
0000
0202
0000
0000
0303
,
2010
0000
0000
0000
3001
0000
0100
0000
0001
0010
0100
1000
0010
0100
0001
1000
0100
1000
0010
0100
0001
0100
0010
1000
0001
1000
0100
0010
0001
1000
0010
0100
,
0001
0100
0010
1000
0001
0010
0100
1000
0010
0100
0010
1000
0001
0010
0001
0100
0010
1000
0010
0100
0001
1000
0100
1000
0001
0100
0010
0100
0001
1000
0010
1000
,
0001
0100
0010
0100
0001
1000
0100
1000
0010
0100
0010
1000
0001
0010
0001
0100
0010
0100
0001
1000
0100
1000
0010
0100
0001
1000
0100
0010
0001
1000
0010
0100
,
0001
1000
0100
1000
0001
0100
0010
1000
0001
0100
0001
0010
0100
1000
0001
0100
0010
1000
0010
0100
0001
1000
0100
1000
0001
0100
0010
0100
0001
1000
0010
1000
,
0100
0010
0001
1000
0100
1000
0001
0010
0100
1000
0001
0100
0001
1000
0010
0100
0010
1000
0001
0100
0001
0010
0100
1000
0001
0100
0010
0100
0001
1000
0010
1000
,
0100
0010
0001
0100
0010
1000
0001
0010
0001
0100
0010
1000
0010
0100
0001
1000
0100
1000
0001
0010
0001
1000
0100
0010
0001
0100
0001
1000
0010
0100
0001
1000
,
0100
1000
0001
0010
0100
1000
0001
0100
0010
1000
0010
0100
0001
1000
0100
0010
0001
1000
0010
1000
0001
0100
0001
0010
0100
1000
0001
0010
0001
1000
0010
0100
,
0010
1000
0001
0010
0001
1000
0010
0100
0010
1000
0001
0010
0100
1000
0001
0100
0001
1000
0010
0100
0001
1000
0100
1000
0020
0000
0000
0000
0000
0000
0230
0000
,
0302
0000
0000
0000
0000
0000
0000
0000
1003
0010
1000
0001
0100
0010
0100
0001
1000
0100
1000
0010
0100
0001
1000
0100
0010
0001
1000
0010
0100
0001
1000
0001
,
0010
0100
1000
0001
0100
0001
1000
0010
0100
0001
0100
0010
1000
0001
1000
0100
0010
0001
1000
0010
1000
0001
0100
0010
0100
0001
1000
0100
1000
0001
0010
0001
,
0100
0010
1000
0001
0010
0100
1000
0001
0100
0010
0100
0001
1000
0100
0010
0001
1000
0010
1000
0001
0100
0010
0100
0001
1000
0100
1000
0001
0010
0100
1000
0010
,
0100
0010
1000
0001
0100
0001
1000
0100
0010
0001
0100
0010
1000
0001
0100
0001
0010
0100
1000
0001
0100
0010
1000
0001
0100
0001
1000
0100
1000
0010
0100
0010
,
1000
0001
0010
0100
1000
0001
0100
0001
1000
0010
0100
0001
1000
0100
0010
0001
0010
0100
1000
0010
0100
0001
1000
0100
1000
0010
0100
0001
1000
0100
1000
0001
,
0100
0010
1000
0010
0100
0001
1000
0100
0010
0001
0100
0010
1000
0001
0010
0001
1000
0001
0010
0100
1000
0001
0100
0001
1000
0010
0100
0001
1000
0100
0010
0001
,
0010
0100
1000
0010
0100
0001
1000
0100
1000
0010
0100
0001
1000
0100
1000
0001
0100
0010
1000
0010
0100
0001
1000
0100
0010
0001
0100
0010
1000
0001
0010
0001
,
0100
0010
1000
0010
0100
0001
1000
0100
1000
0010
0100
0001
1000
0100
0010
0001
0100
0001
1000
0010
0100
0001
0100
0010
1000
0000
0001
0000
0000
0000
0000
0000
,
0100
0000
0000
0000
0010
0000
1000
0000
0001
0100
0010
1000
0001
0010
0100
1000
0010
0100
0010
1000
0001
0010
0001
0100
0010
1000
0010
0100
0001
1000
0100
1000
,
0001
0100
0010
0100
0001
1000
0010
1000
0001
0100
0010
0100
0001
1000
0100
1000
0010
0100
0010
1000
0001
0010
0001
0100
0010
0100
0001
1000
0100
1000
0010
0100
,
0001
1000
0100
0010
0001
1000
0010
0100
0001
1000
0100
1000
0001
0100
0010
1000
0001
0100
0001
0010
0100
1000
0001
0100
0010
1000
0010
0100
0001
1000
0100
1000
,
0001
0100
0010
0100
0001
1000
0010
1000
0100
0010
0001
1000
0100
1000
0001
0010
0100
1000
0001
0100
0001
1000
0010
0100
0010
1000
0001
0100
0001
0010
0100
1000
,
0001
0100
0010
0100
0001
1000
0010
1000
0100
0010
0001
0100
0010
1000
0001
0010
0001
0100
0010
1000
0010
0100
0001
1000
0100
1000
0001
0010
0001
1000
0100
0010
,
0001
0100
0001
1000
0010
0100
0001
1000
0100
1000
0001
0010
0100
1000
0001
0100
0010
1000
0010
0100
0001
1000
0100
0010
0001
1000
0010
1000
0001
0100
0001
0010
,
0100
1000
0001
0010
0001
1000
0010
0100
0010
1000
0001
0010
0001
1000
0010
0100
0010
1000
0001
0010
0100
1000
0001
0100
0001
0100
0010
1000
0001
0010
0100
1000
,
0010
0100
0010
1000
0001
0010
0001
0100
0010
1000
0010
0100
0001
1000
0100
1000
0001
0100
0010
0100
0001
1000
0010
1000
0001
0100
0010
0100
0001
1000
0100
1000
,
0010
0100
0010
1000
0001
0010
0001
0100
0010
0100
0001
1000
0100
1000
0010
0100
0001
1000
0100
0010
0001
1000
0010
0100
0001
1000
0100
1000
0001
0100
0010
1000
,
0001
0100
0001
0010
0100
1000
0001
0100
0010
1000
0010
0100
0001
1000
0100
1000
0001
0100
0010
0100
0001
1000
0010
1000
0100
0010
0001
1000
0100
1000
0001
0010
,
0100
1000
0001
0100
0001
1000
0010
0100
0010
1000
0001
0100
0001
0010
0100
1000
0001
0100
0010
0100
0001
1000
0010
1000
0100
0010
0001
0100
0010
1000
0001
0010
,
0001
0100
0010
1000
0010
0100
0001
1000
0100
1000
0001
0010
0001
1000
0010
0100
0001
1000
0010
1000
0001
0100
0010
1000
0002
0000
0000
0000
0000
0000
0000
0000
,
0023
0000
0230
0000
1300
0000
0010
0000
0200
0301
0000
1000
0010
0000
0200
0000
,
0301
0000
1000
0100
0010
0000
0001
0000
0100
0010
2000
0000
3002
0000
0023
0030
,
0200
0300
2000
3010
0200
0000
0000
0000
0000
0000
0000
0000
0000
0000
0000
0000
,
0000
0000
0000
0000
0000
0000
0302
0000
2003
0000
3020
0000
2032
0000
0000
3003
,
2100
0000
0000
0000
3010
0000
0100
0000
0001
1000
0010
0100
0001
0010
0001
1000
0010
0100
0001
1000
0100
0010
0001
0100
0001
1000
0100
0010
0001
1000
0010
0100
,
0001
0100
0010
1000
0001
0010
0100
1000
0010
0100
0010
1000
0001
0010
0001
0100
0010
1000
0010
0100
0001
1000
0100
1000
0001
0100
0010
0100
0001
1000
0010
1000
,
0001
0100
0010
0100
0001
1000
0100
1000
0010
0100
0010
1000
0001
0010
0001
0100
0010
0100
0001
1000
0100
1000
0010
0100
0001
1000
0100
0010
0001
1000
0010
0100
,
0001
1000
0100
1000
0001
0100
0010
1000
0001
0100
0001
0010
0100
1000
0001
0100
0010
1000
0010
0100
0001
1000
0100
1000
0001
0100
0010
0100
0001
1000
0010
1000
,
0100
0010
0001
1000
0100
1000
0001
0010
0100
1000
0001
0100
0001
1000
0010
0100
0010
1000
0001
0100
0001
0010
0100
1000
0001
0100
0010
0100
0001
1000
0010
1000
,
0100
0010
0001
0100
0010
1000
0001
0010
0001
0100
0010
1000
0010
0100
0001
1000
0100
1000
0001
0010
0001
1000
0100
0010
0001
0100
0001
1000
0010
0100
0001
1000
,
0100
1000
0001
0010
0100
1000
0001
0100
0010
1000
0010
0100
0001
1000
0100
0010
0001
1000
0010
1000
0001
0100
0001
0010
0100
1000
0001
0010
0001
1000
0010
0100
,
0010
1000
0001
0010
0001
1000
0010
0100
0010
1000
0001
0010
0100
1000
0001
0100
0001
1000
0010
0100
0001
1000
0010
0100
0002
0000
0000
0000
0000
0000
0203
0000
,
0320
0000
0000
0000
0000
0000
0000
0000
1030
0100
1000
0001
0100
0010
1000
0001
0010
0100
1000
0010
0100
0001
1000
0100
0010
0001
1000
0010
0100
0001
1000
0001
,
0010
0100
1000
0001
0100
0001
1000
0010
0100
0001
0100
0010
1000
0001
1000
0100
0010
0001
1000
0010
1000
0001
0100
0010
0100
0001
1000
0100
1000
0001
0010
0001
,
0100
0010
1000
0001
0010
0100
1000
0001
0100
0010
0100
0001
1000
0100
0010
0001
1000
0010
1000
0001
0100
0010
0100
0001
1000
0100
1000
0001
0010
0100
1000
0010
,
0100
0010
1000
0001
0100
0001
1000
0100
0010
0001
0100
0010
1000
0001
0100
0001
0010
0100
1000
0001
0100
0010
1000
0001
0100
0001
1000
0100
1000
0010
0100
0010
,
1000
0001
0010
0100
1000
0001
0100
0001
1000
0010
0100
0001
1000
0100
0010
0001
0010
0100
1000
0010
0100
0001
1000
0100
1000
0010
0100
0001
1000
0100
1000
0001
,
0100
0010
1000
0010
0100
0001
1000
0100
0010
0001
0100
0010
1000
0001
0010
0001
1000
0001
0010
0100
1000
0001
0100
0001
1000
0010
0100
0001
1000
0100
0010
0001
,
0010
0100
1000
0010
0100
0001
1000
0100
1000
0010
0100
0001
1000
0100
1000
0001
0100
0010
1000
0010
0100
0001
1000
0100
0010
0001
0100
0010
1000
0001
0010
0001
,
0100
0010
1000
0010
0100
0001
1000
0100
1000
0010
0100
0001
1000
0100
0010
0001
0100
0001
1000
0010
0100
0001
0100
0010
1000
0000
0100
0000
0000
0000
0000
0000
,
1000
0000
0000
0000
0010
0000
0100
0000
0001
1000
0010
1000
0001
0010
0100
1000
0010
0100
0010
1000
0001
0010
0001
0100
0010
1000
0010
0100
0001
1000
0100
1000
,
0001
0100
0010
0100
0001
1000
0010
1000
0001
0100
0010
0100
0001
1000
0100
1000
0010
0100
0010
1000
0001
0010
0001
0100
0010
0100
0001
1000
0100
1000
0010
0100
,
0001
1000
0100
0010
0001
1000
0010
0100
0001
1000
0100
1000
0001
0100
0010
1000
0001
0100
0001
0010
0100
1000
0001
0100
0010
1000
0010
0100
0001
1000
0100
1000
,
0001
0100
0010
0100
0001
1000
0010
1000
0100
0010
0001
1000
0100
1000
0001
0010
0100
1000
0001
0100
0001
1000
0010
0100
0002
0000
0000
0000
0000
0000
0000
0000
,
2003
0000
3200
0000
0310
0000
0001
0000
0200
0301
0000
1000
0010
0000
0200
0000
,
0301
0000
1000
0100
0010
0000
0001
0000
0100
0010
2000
0000
3002
0000
0203
0300
,
0020
0030
0200
0301
2000
0000
0000
0000
0000
0000
0000
0000
0000
0000
0000
0000
,
0000
0000
0000
0000
0000
0000
3002
0000
2003
0000
3020
0000
2230
0000
0000
3300
,
2001
0000
0000
0000
3100
0000
0010
0000
0001
1000
0010
0100
0010
1000
0001
0100
0010
1000
0010
0100
0001
0100
0010
1000
0001
1000
0100
0010
0001
1000
0010
0100
,
0001
0100
0010
1000
0001
0010
0100
1000
0010
0100
0010
1000
0001
0010
0001
0100
0010
1000
0010
0100
0001
1000
0100
1000
0001
0100
0010
0100
0001
1000
0010
1000
,
0001
0100
0010
0100
0001
1000
0100
1000
0010
0100
0010
1000
0001
0010
0001
0100
0010
0100
0001
1000
0100
1000
0010
0100
0001
1000
0100
0010
0001
1000
0010
0100
,
0001
1000
0100
1000
0001
0100
0010
1000
0001
0100
0001
0010
0100
1000
0001
0100
0010
1000
0010
0100
0001
1000
0100
1000
0001
0100
0010
0100
0001
1000
0010
1000
,
0100
0010
0001
1000
0100
1000
0001
0010
0100
1000
0001
0100
0001
1000
0010
0100
0010
1000
0001
0100
0001
0010
0100
1000
0001
0100
0010
0100
0001
1000
0010
1000
,
0100
0010
0001
0100
0010
1000
0001
0010
0001
0100
0010
1000
0010
0100
0001
1000
0100
1000
0001
0010
0001
1000
0100
0010
0001
0100
0001
1000
0010
0100
0001
1000
,
0100
1000
0001
0010
0100
1000
0001
0100
0010
1000
0010
0100
0001
1000
0100
0010
0001
1000
0010
1000
0001
0100
0001
0010
0100
1000
0001
0010
0001
1000
0010
0100
,
0010
1000
0001
0010
0001
1000
0010
0100
0010
1000
0001
0010
0100
1000
0001
0100
0001
1000
0010
0100
0001
0010
0001
1000
0200
0000
0000
0000
0000
0000
2300
0000
,
3002
0000
0023
0000
0130
0000
2000
3000
0002
0003
0020
0000
0430
0000
1300
0004
,
1000
0000
0043
0000
0130
0000
2000
3000
0002
0003
2000
0000
3040
0000
0130
0004
,
0100
0000
4003
0000
3010
0000
0200
0300
0002
0003
0200
0000
0340
0000
1030
0400
,
1000
0000
4300
0000
3001
0000
0020
0030
0002
0003
2000
0000
3020
0000
0230
0000
,
0320
0000
2030
0000
3001
0000
0020
0030
0200
0300
2000
0000
3040
0000
0130
0001
,
2000
0000
0000
0000
3100
0000
0020
0000
0000
0000
0000
0000
0032
0000
0000
0000
2003
0000
0000
0000
3200
0000
0000
0000
4300
0000
0000
0000
3010
0000
0000
0100
,
0000
0001
2000
3000
0200
0000
0320
0000
0032
0000
2003
0000
3040
0000
0130
0004
,
0100
0000
2003
3010
0200
0000
0301
2000
0000
0000
3010
0000
0200
0000
0302
0000
,
2003
0000
0000
0000
3010
0000
0200
0300
0002
0003
2000
0000
3004
0000
0103
0010
,
1000
0000
0020
0000
0000
0000
0030
0000
0200
0000
0000
0000
0000
0000
0302
0000
0000
0000
0003
0000
0000
0000
0000
0000
4000
0000
0000
0000
3010
0000
0000
0100
,
0000
0020
0000
0030
2000
0000
3002
0003
0020
0030
0200
0000
4300
0000
3010
0200
,
0302
0000
0000
0000
0003
0000
2000
0000
0000
0000
0000
0000
3000
0000
0020
0000
0130
0000
0000
0000
0000
0000
0000
0000
0002
0000
0000
0003
2000
0000
0000
3000
,
0200
0310
0001
1000
,
0020
0000
0030
0200
0000
0000
0300
0002
1003
0000
0000
0000
0200
0000
0320
0000
,
0032
0000
0000
0000
1003
0000
0010
0000
1000
0100
0010
0001
1000
0010
1000
0001
0010
0100
1000
0010
0100
0001
1000
0100
0010
0001
1000
0010
0100
0001
1000
0001
,
0010
0100
1000
0001
0100
0001
1000
0010
0100
0001
0100
0010
1000
0001
1000
0100
0010
0001
1000
0010
1000
0001
0100
0010
0100
0001
1000
0100
1000
0001
0010
0001
,
0100
0010
1000
0001
0010
0100
1000
0001
0100
0010
0100
0001
1000
0100
0010
0001
1000
0010
1000
0001
0100
0010
0100
0001
1000
0100
1000
0001
0010
0100
1000
0010
,
0100
0010
1000
0001
0100
0001
1000
0100
0010
0001
0100
0010
1000
0001
0100
0001
0010
0100
1000
0001
0100
0010
1000
0001
0100
0001
1000
0100
1000
0010
0100
0010
,
1000
0001
0010
0100
1000
0001
0100
0001
1000
0010
0100
0001
1000
0100
0010
0001
0010
0100
1000
0010
0100
0001
1000
0100
1000
0010
0100
0001
1000
0100
1000
0001
,
0100
0010
1000
0010
0100
0001
1000
0100
0010
0001
0100
0010
1000
0001
0010
0001
1000
0001
0010
0100
1000
0001
0100
0001
1000
0010
0100
0001
1000
0100
0010
0001
,
0010
0100
1000
0010
0100
0001
1000
0100
1000
0010
0100
0001
1000
0100
1000
0001
0100
0010
1000
0010
0100
0001
1000
0100
0010
0001
0100
0010
1000
0001
0010
0001
,
0100
0010
1000
0010
0100
0001
1000
0100
1000
0010
0100
0001
1000
0100
0010
0001
0100
0001
1000
0010
0100
0001
0100
0010
1000
0000
0001
0000
0000
0000
0000
0000
,
0010
0000
0000
0000
0100
0000
1000
0000
0001
0100
0010
1000
0001
0010
0100
1000
0010
0100
0010
1000
0001
0010
0001
0100
0010
1000
0010
0100
0001
1000
0100
1000
,
0001
0100
0010
0100
0001
1000
0010
1000
0001
0100
0010
0100
0001
1000
0100
1000
0010
0100
0010
1000
0001
0010
0001
0100
0010
0100
0001
1000
0100
1000
0010
0100
,
0001
1000
0100
0010
0001
1000
0010
0100
0001
1000
0100
1000
0001
0100
0010
1000
0001
0100
0001
0010
0100
1000
0001
0100
0010
1000
0010
0100
0001
1000
0100
1000
,
0001
0100
0010
0100
0001
1000
0010
1000
0100
0010
0001
1000
0100
1000
0001
0010
0100
1000
0001
0100
0001
1000
0010
0100
0001
0100
0010
1000
0001
0010
0100
1000
,
0010
0100
0010
1000
0001
0010
0001
0100
0010
1000
0010
0100
0001
1000
0100
1000
0001
0100
0010
0100
0001
1000
0010
1000
0001
0100
0010
0100
0001
1000
0100
1000
,
0010
0100
0010
1000
0001
0010
0001
0100
0010
0100
0001
1000
0100
1000
0010
0100
0001
1000
0100
0010
0001
1000
0010
0100
0001
1000
0100
1000
0001
0100
0010
1000
,
0001
0100
0001
0010
0100
1000
0001
0100
0010
1000
0010
0100
0001
1000
0100
1000
0001
0100
0010
0100
0001
1000
0010
1000
0100
0010
0001
1000
0100
1000
0001
0010
,
0100
1000
0001
0100
0001
1000
0010
0100
0001
0100
0010
1000
0001
0010
0100
1000
0010
0100
0010
1000
0001
0010
0001
0100
0010
1000
0010
0100
0001
1000
0100
1000
,
0001
0100
0010
0100
0001
1000
0010
1000
0001
0100
0010
1000
0001
0010
0100
1000
0010
0100
0010
1000
0001
0010
0001
0100
0010
1000
0010
0100
0001
1000
0100
1000
,
0001
0100
0010
0100
0001
1000
0010
1000
0001
0100
0010
0100
0001
1000
0100
1000
0010
0100
0010
1000
0001
0010
0001
0100
0010
0100
0001
1000
0100
1000
0010
0100
,
0001
1000
0100
0010
0001
1000
0010
0100
0001
1000
0100
1000
0001
0100
0010
1000
0001
0100
0001
0010
0100
1000
0001
0100
0010
1000
0010
0100
0001
1000
0100
1000
,
0001
0100
0010
0100
0001
1000
0010
1000
0100
0010
0001
1000
0100
1000
0001
0010
0100
1000
0001
0100
0001
1000
0010
0100
0001
0010
0001
1000
0010
0100
0001
1000
,
0100
1000
0010
0100
0001
0100
0010
1000
0001
1000
0100
0010
0001
1000
0010
0100
0001
0100
0010
1000
0001
0010
0100
1000
0010
0100
0010
1000
0001
0010
0001
0100
,
0010
1000
0010
0100
0001
1000
0100
1000
0001
0100
0010
0100
0001
1000
0010
1000
0001
0100
0010
0100
0001
1000
0100
1000
0010
0100
0010
1000
0001
0010
0001
0100
,
0010
0100
0001
1000
0100
1000
0010
0100
0001
1000
0100
0010
0001
1000
0010
0100
0001
1000
0100
1000
0001
0100
0010
1000
0001
0100
0001
0010
0100
1000
0001
0100
,
0010
1000
0010
0100
0001
1000
0100
1000
0001
0100
0010
0100
0001
1000
0010
1000
0100
0010
0001
1000
0100
1000
0001
0010
0100
1000
0001
0100
0001
1000
0010
0100
,
0010
1000
0001
0100
0001
0010
0100
1000
0001
0100
0010
0100
0001
1000
0010
1000
0100
0010
0001
0100
0010
1000
0001
0010
0001
0100
0010
1000
0010
0100
0001
1000
,
0100
1000
0001
0010
0001
1000
0100
0010
0001
0100
0001
1000
0010
0100
0001
1000
0100
1000
0001
0010
0100
1000
0001
0100
0010
1000
0010
0100
0001
1000
0100
0010
,
0001
1000
0010
1000
0001
0100
0001
0010
0100
1000
0001
0010
0001
1000
0010
0100
0010
1000
0001
0010
0001
1000
0010
0100
0010
1000
0001
0010
0100
1000
0001
0100
,
0001
0010
0100
1000
0010
0100
0001
1000
0100
1000
0010
0100
0001
0100
0010
1000
0001
1000
0100
0010
0001
1000
0010
0100
0001
0100
0010
1000
0001
0010
0100
1000
,
0010
0100
0010
1000
0001
0010
0001
0100
0010
1000
0010
0100
0001
1000
0100
1000
0001
0100
0010
0100
0001
1000
0010
1000
0001
0100
0010
0100
0001
1000
0100
1000
,
0010
0100
0010
1000
0001
0010
0001
0100
0010
0100
0001
1000
0100
1000
0010
0100
0001
1000
0100
0010
0001
1000
0010
0100
0001
1000
0100
1000
0001
0100
0010
1000
,
0001
0100
0001
0010
0100
1000
0001
0100
0010
1000
0010
0100
0001
1000
0100
1000
0001
0100
0010
0100
0001
1000
0010
1000
0100
0010
0001
1000
0100
1000
0001
0010
,
0100
1000
0001
0100
0001
1000
0010
0100
0010
1000
0001
0100
0001
0010
0100
1000
0001
0100
0010
0100
0001
1000
0010
0100
0002
0000
0000
0000
0000
0000
0000
0000
,
2003
0000
0000
0000
3200
0000
0000
0300
0040
0000
0000
0030
0002
0000
0000
0003
,
2000
0000
0000
0000
3020
0000
0030
0000
0400
0000
0000
0000
0302
0000
0000
0003
,
2000
0000
0000
0000
3010
0100
0002
0000
2003
0000
0000
0000
3001
0010
0200
0000
,
2300
0000
0000
0000
3001
0100
0020
0000
4030
0000
0000
0000
3100
0010
0002
0000
,
0003
0000
0000
0000
;
