#TITLE:At Least I Can Say I Tried;
#SUBTITLE:;
#ARTIST:Cex;
#TITLETRANSLIT:;
#SUBTITLETRANSLIT:;
#ARTISTTRANSLIT:;
#CREDIT:;
#BANNER:atleast-banner.png;
#BACKGROUND:atleast-bg.png;
#LYRICSPATH:;
#CDTITLE:cynic.png;
#MUSIC:At Least I Can Say I Tried (Edit) - Cex.mp3;
#OFFSET:-0.034;
#SAMPLESTART:73.846;
#SAMPLELENGTH:10.530;
#SELECTABLE:YES;
#BPMS:0.000=182.000,320.000=91.000;
#STOPS:;
#BGCHANGES:;
// cache tags:
#FIRSTBEAT:16.000;
#LASTBEAT:353.500;
#SONGFILENAME:Songs/Community Keyboard Megapack - Volume 1/(Cynic) At Least I Can Say I Tried/atleast.sm;
#HASMUSIC:1;
#HASBANNER:1;
#MUSICLENGTH:131.924;
// end cache tags

//---------------dance-single - ----------------
#NOTES:
     dance-single:
     :
     Challenge:
     11:
     0.985,1.000,1.000,0.493,0.364,686.000,159.000,65.000,0.000,0.000:  // measure 1
0000
0000
0000
0000
,  // measure 2
0000
0000
0000
0000
,  // measure 3
0000
0000
0000
0000
,  // measure 4
0000
0000
0000
0000
,  // measure 5
2002
0000
0000
0000
0000
0000
0000
3003
,  // measure 6
0200
0000
0000
0000
0010
0000
0000
0300
,  // measure 7
0001
1000
0100
0010
,  // measure 8
0001
0000
1010
0000
0100
0002
0000
0003
,  // measure 9
1001
0010
0100
0001
1000
0000
0100
0100
,  // measure 10
0010
0001
0100
0010
0100
0001
1000
1000
,  // measure 11
0010
0100
0001
1000
0100
0000
0010
0001
,  // measure 12
1000
0000
0100
0000
1000
0000
0010
0000
0100
0000
0001
0000
1000
0100
1000
0000
,  // measure 13
0001
0100
0010
0000
1000
0000
0100
0000
0010
0000
0100
0000
0010
0000
0001
0000
,  // measure 14
0100
0010
1000
0000
0100
0000
0010
0000
0100
1000
0001
0000
0100
0000
0001
0000
,  // measure 15
1001
0000
1000
0000
0100
0000
0010
0000
0001
1000
0100
0000
1000
0000
0010
0000
,  // measure 16
0100
0001
1000
0000
0100
0000
0010
0000
0001
1000
0001
1000
0010
0000
0100
0000
,  // measure 17
1001
0000
0100
0010
1000
0000
1010
0000
0010
0100
0001
1000
0001
0000
0110
0000
,  // measure 18
0001
0010
0100
0000
1000
0000
0001
0000
0110
0000
0100
0000
0001
0000
1000
0100
,  // measure 19
0010
0100
0011
0100
1010
1100
1010
0100
,  // measure 20
1001
0000
0100
0000
1001
0000
0100
0000
0010
0001
0100
0001
0010
0000
0001
0000
,  // measure 21
0100
0010
1000
0000
1010
0000
0101
0000
0100
0001
0010
0000
0011
0000
1100
0000
,  // measure 22
1000
0100
0010
0100
0010
0000
0011
0000
0001
0100
0010
0000
0100
0010
1000
0001
,  // measure 23
0010
0100
1000
0000
0011
0000
0100
0000
1010
0000
0100
0000
0001
1000
0010
0000
,  // measure 24
1001
0000
0100
0000
1001
0000
0010
0000
1000
0010
0100
0001
1000
0100
0010
0001
,  // measure 25
1000
0000
0100
0010
0000
1000
0100
0000
0000
0010
0000
0001
,  // measure 26
0100
0000
0010
1000
0000
0000
1010
0000
0000
0101
0000
0000
,  // measure 27
1001
0000
0010
0100
0000
0001
0010
0000
0000
0100
0000
1000
,  // measure 28
0010
0000
0100
0001
0000
0000
0101
0000
0000
1010
0000
0000
,  // measure 29
1001
0000
0000
0001
0100
0000
0010
0000
0000
1000
0001
0000
0100
0000
0000
0010
0000
0000
1000
0000
0000
0010
0100
0000
,  // measure 30
0010
0000
0000
1000
0001
0000
1000
0000
0000
0000
0000
0000
1010
0000
0000
0100
0000
0000
0101
0000
0000
0001
0000
0000
,  // measure 31
1001
0000
0000
1000
0010
0000
0100
0000
0000
0001
1000
0000
0010
0000
0000
0100
0000
0000
0001
0000
0000
0100
0010
0000
,  // measure 32
0100
0000
0000
0001
1000
0000
0001
0000
0000
0000
0000
0000
0101
0000
0000
0010
0000
0000
1010
0000
0000
1000
0000
0000
,  // measure 33
1002
0000
0010
0003
0201
0000
1000
0300
2200
0000
0000
3300
0022
0000
0000
0033
,  // measure 34
2001
0000
0100
3000
2020
0000
0000
3030
0102
0000
0100
0003
0021
0000
1000
0030
,  // measure 35
0202
0000
0000
0303
0210
0000
0001
0300
2200
0000
0000
3300
0120
0000
0001
0030
,  // measure 36
1200
0000
0001
0300
1010
0000
0201
0000
1000
0300
0021
0000
0100
0030
0110
0000
,  // measure 37
2001
0000
0100
3000
1020
0000
0001
0030
0022
0000
0000
0033
2200
0000
0000
3300
,  // measure 38
1002
0000
0010
0003
0202
0000
0000
0303
2010
0000
0010
3000
1200
0000
0001
0300
,  // measure 39
2020
0000
0000
3030
0120
0000
1000
0030
0022
0000
0000
0033
0210
0000
1000
0300
,  // measure 40
0021
0000
1000
0030
0101
0000
1020
0000
0001
0030
1200
0000
0010
0300
0110
0000
,  // measure 41
1001
0000
0100
0000
1010
0000
0100
0001
0010
0000
0100
0000
1010
0000
0110
0000
,  // measure 42
1001
0000
0010
0000
0101
0000
0010
0100
1000
0010
0100
0001
0100
0000
0110
0000
,  // measure 43
1001
0000
0100
0000
1010
0000
0100
0001
1000
0100
0010
0001
1000
0000
0100
1000
,  // measure 44
0010
0000
0100
0000
0011
0000
0100
0010
0100
0000
0010
0000
1100
0000
0101
0000
,  // measure 45
1001
0000
0100
0000
2002
0000
0000
3003
0100
0000
0010
0000
1010
0000
0100
0000
,  // measure 46
0011
0000
0100
0000
2020
0000
0000
3030
0100
0000
0001
1000
0100
0000
0010
0000
,  // measure 47
0011
0100
1000
0010
0101
0010
0101
0010
,  // measure 48
0100
0001
0010
0100
1000
0010
0100
0001
,  // measure 49
1001
0100
0010
0000
1001
1001
0010
0000
,  // measure 50
1001
0100
0010
0100
1001
1001
0010
0000
,  // measure 51
0110
0000
0110
0000
0001
0000
1000
0000
1001
0000
0000
0000
1000
0001
1000
0000
,  // measure 52
0110
0000
0100
0000
0110
0000
0010
0000
1000
0001
1000
0000
0001
0010
0100
1000
,  // measure 53
0001
0000
0100
0000
0010
0000
2000
0000
0001
0000
0001
0000
0001
0000
0001
3000
,  // measure 54
0010
0000
0100
0000
0001
1000
0100
0010
0001
0000
0100
0000
0100
0000
0100
0000
,  // measure 55
1001
0000
0001
0000
0010
0000
0100
0000
1000
0001
0100
0000
0010
0000
1000
0000
,  // measure 56
1001
0100
1001
0100
1000
0010
0100
0001
,  // measure 57
1001
0000
1000
0100
0010
0000
0001
0000
1000
0000
0100
0000
0010
0000
0100
0000
,  // measure 58
1100
0000
0000
0000
0011
0000
0100
0000
0001
0000
1000
0100
0010
0000
0100
0000
,  // measure 59
1001
0000
1001
0000
0010
0000
0100
1000
0010
0000
0100
0001
0010
0000
0010
0000
,  // measure 60
0102
1000
0013
2100
0001
3010
0100
0010
,  // measure 61
1001
0000
0100
0000
0010
0000
0001
0100
0020
0000
0100
0000
0100
0000
0130
0000
,  // measure 62
0001
0000
1000
0000
0100
0010
0001
0000
0011
0000
0100
0000
0010
0000
0100
0000
,  // measure 63
1001
0000
0010
0000
0010
0000
0100
0001
0010
0000
0100
1000
0010
0000
0010
0000
,  // measure 64
0101
0000
1001
0000
0011
0000
1100
0000
1001
0000
1010
0000
1001
0010
0100
0010
,  // measure 65
1001
0100
1010
0100
0001
1001
0100
0100
,  // measure 66
1001
0000
0010
0000
0100
0000
0001
0000
2000
0000
3100
0000
1000
0001
1000
0000
,  // measure 67
0110
0000
0110
0000
0001
0000
1000
0000
0100
0000
1000
0000
0010
0100
0011
0000
,  // measure 68
0100
0000
1010
0000
0100
0000
0101
0000
0011
0000
1000
0000
0001
1000
0001
1000
,  // measure 69
0010
0100
0001
1000
0100
1010
0010
0110
,  // measure 70
0110
0000
0001
0000
1000
0000
0100
0000
0010
0000
0001
0000
0100
0010
0100
0000
,  // measure 71
1001
0100
0001
0100
0001
0100
0001
0100
,  // measure 72
0110
0010
1000
0010
1000
0010
1000
0010
,  // measure 73
1001
0100
1010
0100
0001
1001
0100
0100
,  // measure 74
1001
0000
0010
0000
0100
0000
0001
0000
2000
0000
3100
0000
1000
0001
1000
0000
,  // measure 75
0110
0000
0110
0000
0001
0000
1000
0000
0100
0000
1000
0000
0010
0100
0011
0000
,  // measure 76
0100
0110
0010
1010
1001
0100
1001
0100
,  // measure 77
1001
0100
1010
0100
0001
1001
0100
0100
,  // measure 78
1001
0000
0010
0000
0100
0000
0001
0000
2000
0000
3100
0000
1000
0001
1000
0000
,  // measure 79
0110
0000
0110
0000
0001
0000
1000
0000
0100
0000
1000
0000
0010
0100
0011
0000
,  // measure 80
0100
0110
0010
1010
1001
0100
1001
0100
,  // measure 81
1001
0000
0100
0001
0100
0000
0020
0000
0000
0000
0030
0000
1000
0010
0100
0000
,  // measure 82
0001
2000
0000
0000
0000
0000
0000
3000
,  // measure 83
0010
0000
0100
0001
0100
0000
0002
0000
0000
0000
0003
0000
0100
0010
0200
0000
,  // measure 84
0300
0000
0002
0000
0000
0000
0003
0000
1000
0000
0100
0010
0000
1000
0001
0000
,  // measure 85
0110
0000
0001
1000
0100
0000
0020
0000
0000
0000
0030
0000
0001
0010
0100
0000
,  // measure 86
1000
0000
0010
0100
0000
0001
0010
0000
0100
1000
0000
0010
0100
0000
0001
0000
,  // measure 87
1001
0000
1000
0100
1000
0000
0020
0000
0000
0000
0030
0000
0100
0001
2000
0000
,  // measure 88
3000
0000
0200
0000
0000
0000
0300
0000
1000
0000
0010
0100
0000
0001
0020
0000
,  // measure 89
0000
0000
0000
0030
0000
0000
0000
0000
;

//---------------dance-single - ----------------
#NOTES:
     dance-single:
     :
     Hard:
     9:
     0.616,0.737,0.394,0.190,0.064,492.000,52.000,25.000,0.000,0.000:  // measure 1
0000
0000
0000
0000
,  // measure 2
0000
0000
0000
0000
,  // measure 3
0000
0000
0000
0000
,  // measure 4
0000
0000
0000
0000
,  // measure 5
0200
0000
0000
0000
,  // measure 6
0320
0000
0000
0000
,  // measure 7
1030
0000
0100
0000
,  // measure 8
1000
0010
0100
0001
,  // measure 9
1000
0001
0100
0000
1010
0000
0010
0100
,  // measure 10
0001
1000
0100
0000
0010
0000
0001
0001
,  // measure 11
1000
0000
1000
0000
1010
0000
0010
0100
,  // measure 12
0001
1000
0100
0010
0001
0000
1000
0010
,  // measure 13
0100
0000
0100
0000
0110
0000
0010
1000
,  // measure 14
0100
1000
0001
0000
0101
0000
0100
0100
,  // measure 15
0010
0000
1000
0001
0010
0000
0100
1000
,  // measure 16
0100
0000
1100
0000
0011
0000
0010
0100
,  // measure 17
1000
0000
1010
0000
0010
0100
0001
0100
,  // measure 18
0001
0000
0011
0000
0010
0100
1000
0100
,  // measure 19
1000
0001
1000
0000
0010
0100
0010
0000
,  // measure 20
0110
0000
1001
0000
0110
0000
1001
0100
,  // measure 21
0010
0000
0110
0000
0100
0001
1000
0001
,  // measure 22
0100
0000
0100
0000
0001
0100
0001
0100
,  // measure 23
0001
0010
0100
0000
0100
1000
0001
0000
,  // measure 24
1001
0000
1001
0000
1000
0010
0100
0001
,  // measure 25
1000
1100
0011
0001
,  // measure 26
0101
1010
1000
1001
,  // measure 27
0001
0011
1100
1000
,  // measure 28
1010
0101
1001
0110
,  // measure 29
1001
0000
0100
0010
0000
0000
1000
0001
,  // measure 30
0000
0000
0010
0100
0010
0000
0100
1000
,  // measure 31
0001
0000
0100
0010
1000
0000
0001
0100
,  // measure 32
0010
0000
0000
0000
0010
0000
1000
0000
0000
0000
0000
0000
0001
0000
0000
0100
0000
0000
1000
0000
0000
0010
0000
0000
,  // measure 33
0002
0000
1000
1000
1003
0000
1010
0000
,  // measure 34
0001
0010
0100
0000
0010
0100
1000
0001
,  // measure 35
0200
0010
0310
0010
2000
0000
0002
3000
,  // measure 36
0103
0001
0010
0100
1000
0010
0100
0001
,  // measure 37
2000
0000
0001
0001
3001
0000
0101
0000
,  // measure 38
1000
0100
0010
0000
0100
0010
0001
1000
,  // measure 39
0020
0100
0130
0100
0002
0000
2000
0003
,  // measure 40
3010
1000
0100
0010
0001
0100
0010
1000
,  // measure 41
0001
0001
1000
0000
0010
0100
0001
1000
,  // measure 42
0100
0100
0010
0000
0001
0100
0001
1000
,  // measure 43
0100
0100
0010
0000
0011
0000
1100
0000
,  // measure 44
0102
0000
2003
0100
0000
3001
0100
0000
,  // measure 45
0110
0000
0010
1000
0100
1000
0001
0100
,  // measure 46
0010
0010
1000
0000
0001
0010
0100
0000
,  // measure 47
1000
0010
0100
0010
0100
0001
1001
0000
,  // measure 48
0100
1000
0010
0100
0001
0010
0100
1000
,  // measure 49
0001
0001
0010
0000
0100
0100
1000
0000
,  // measure 50
0001
0001
0100
0010
1000
0000
1010
0000
,  // measure 51
0010
0010
0100
0001
1000
0000
1100
0000
,  // measure 52
1001
0000
1001
0000
0001
0100
0010
0010
,  // measure 53
0100
0000
0010
2000
0001
0000
0001
3000
,  // measure 54
0001
0100
0010
1000
1100
0000
1100
0000
,  // measure 55
0100
0010
0001
0001
0010
0100
1000
1000
,  // measure 56
0001
0000
0011
0000
0010
0100
1000
0001
,  // measure 57
1000
0000
0110
0000
0100
0001
1000
0100
,  // measure 58
0010
0000
0001
0010
0100
0010
0100
0100
,  // measure 59
1000
1000
0001
0000
0100
0001
1000
1000
,  // measure 60
0100
1000
0010
0100
0001
0010
0100
1000
,  // measure 61
0001
0000
0200
0010
0000
0010
0300
0010
,  // measure 62
1000
0000
0001
0000
0010
0100
0010
0100
,  // measure 63
1000
0000
0000
0000
0010
0000
0100
0001
0100
0000
0001
1000
0001
0000
0001
0000
,  // measure 64
0010
0100
1000
0000
0010
0100
0001
0000
,  // measure 65
1001
0000
0010
0000
0100
1000
0100
0000
,  // measure 66
0010
0000
0001
0000
0100
0010
0100
0001
,  // measure 67
1000
0000
0010
1000
0001
0000
0010
0100
,  // measure 68
0000
0100
0000
0100
1000
0000
1010
0000
,  // measure 69
1001
0000
0100
0001
0000
1000
0100
0000
,  // measure 70
0010
0000
0001
1000
0001
0000
0010
0100
,  // measure 71
1000
1000
0010
0100
0001
0000
1000
0100
,  // measure 72
0000
0100
0000
0100
0010
0000
0001
1000
,  // measure 73
0001
0100
0010
0000
1000
0100
1000
0100
,  // measure 74
0010
0000
0011
0000
0001
0100
0001
1000
,  // measure 75
0001
0010
0100
0000
1000
0100
1000
0001
,  // measure 76
0000
0001
0000
0001
0010
0000
0010
0100
,  // measure 77
1000
0000
0010
1000
0010
0100
0001
1000
,  // measure 78
0100
0000
0010
0001
1000
0000
0001
1000
,  // measure 79
0010
0010
0100
0001
1000
0000
1000
0100
,  // measure 80
0000
0100
0000
0100
0010
0000
0011
0000
,  // measure 81
1001
0000
0100
0001
0100
0000
0020
0000
0000
0000
0030
0000
0100
0010
1000
0000
,  // measure 82
0001
0200
0000
0000
0000
0000
0000
0300
,  // measure 83
1001
0000
0100
0010
0001
0000
2000
0000
0000
0000
3000
0000
0010
0100
0002
0000
,  // measure 84
0003
0000
2200
0000
0000
0000
3300
0000
1000
0000
0010
0100
0000
0001
1000
0000
,  // measure 85
0110
0000
0100
0001
1000
0000
0200
0000
0000
0000
0300
0000
0010
0001
1000
0000
,  // measure 86
0010
0000
0000
0100
0000
0000
0001
0000
0000
1000
0000
0000
0100
0000
0010
0000
,  // measure 87
1001
0000
1000
0010
0100
0000
0002
0000
0000
0000
0003
0000
1000
0010
2000
0000
,  // measure 88
3000
0000
0002
0000
0000
0000
0003
0000
1000
0000
0001
0010
0000
0100
2000
0000
,  // measure 89
0000
0000
0000
3000
0000
0000
0000
0000
;
