#TITLE:Drum & Bass;
#SUBTITLE:;
#ARTIST:Dr. Flowershirts;
#TITLETRANSLIT:;
#SUBTITLETRANSLIT:;
#ARTISTTRANSLIT:;
#CREDIT:;
#BANNER:drumybass-bn.png;
#BACKGROUND:drumybass.png;
#LYRICSPATH:;
#CDTITLE:!cd-title.png;
#MUSIC:DrumyBass.mp3;
#OFFSET:0.900;
#SAMPLESTART:34.340;
#SAMPLELENGTH:12.000;
#SELECTABLE:YES;
#BPMS:0.000=182.040;
#STOPS:;
#BGCHANGES:;
// cache tags:
#FIRSTBEAT:4.000;
#LASTBEAT:298.000;
#SONGFILENAME:Songs/Community Keyboard Megapack - Volume 3/(Cal) Drum & Bass/Drum.sm;
#HASMUSIC:1;
#HASBANNER:1;
#MUSICLENGTH:101.101;
// end cache tags

//---------------dance-single - ----------------
#NOTES:
     dance-single:
     :
     Hard:
     12:
     1.000,1.000,0.841,0.682,1.000,708.000,85.000,69.000,0.000,0.000:
0000
0000
0000
0000
,
0002
0203
0320
2030
,
3010
1010
0000
1001
,
0000
0010
1001
0000
1000
0100
0001
0010
,
2000
0000
0000
3000
1100
0000
0101
0010
,
0000
0012
1000
0000
0000
0000
0000
0103
,
1100
1100
0010
1001
,
1000
0010
1001
0000
0000
0010
0000
0000
,
2000
0000
0000
0000
0000
0000
0000
0000
3001
0010
0100
1000
0001
0010
0100
1000
0001
0010
0100
1000
0001
0010
0100
1000
0001
0010
0100
1000
0001
0010
0100
1000
,
0001
0000
0000
0000
0001
0000
0000
0000
0001
0000
0000
0000
0001
0000
0000
0000
0001
0000
0000
0000
0001
0000
0000
0000
0001
0010
0100
0010
0001
0000
0000
0000
,
0011
0000
0010
0100
0010
0000
1000
0100
0010
0100
1000
0000
0100
0000
0000
0000
,
1000
0000
0000
0000
0001
0000
0010
0100
0010
0100
1000
0000
0001
0000
0000
0000
,
1000
0000
0000
0000
0001
0000
0100
0010
0001
0010
0100
0000
1010
0000
1000
0010
,
0100
0010
1000
0000
0011
0000
0100
0010
0100
0000
0100
1000
0100
1000
0100
1000
,
0101
0000
0010
1000
0010
0000
0001
1000
0001
0100
0010
0000
0100
0000
0000
0000
,
0011
0000
0000
0000
1010
0000
0010
0100
0010
0100
0010
0000
1100
0000
0000
0000
,
2010
0000
0000
0000
3002
0000
0000
0000
0103
0000
0001
1000
0001
1000
0001
0000
,
0100
0000
0001
1000
0001
1000
0100
0000
0100
0000
0001
0100
0010
0100
0001
0100
,
0020
0030
0000
0000
0020
0030
1000
0001
0100
0010
1000
0000
0100
0000
0000
0000
,
0200
0302
0203
0302
2003
3000
0001
0010
0100
1000
0001
0000
0100
0000
0000
0000
,
1000
0000
0000
0000
0011
0000
0010
0100
0010
1000
0010
0000
1100
0000
0001
0010
,
0002
2003
3002
2003
3200
0320
0032
0003
1100
0000
0001
0010
0100
1000
0100
0010
,
0001
0000
0000
0000
2000
3000
0001
1000
0001
0100
0010
0000
1001
0000
0000
0000
,
2000
3200
0320
0032
0023
0030
1000
0010
0100
0010
1000
0000
0011
0000
0000
0000
,
2000
3000
0010
0100
2000
3100
0010
0000
1000
0000
0010
0001
0010
0100
1000
0000
,
0020
0030
0020
0030
0020
0030
0020
0030
0000
0000
1000
0100
1000
0001
1000
0001
,
1000
0000
1002
0000
,
1000
0000
1000
0000
,
1003
0000
0000
0000
1001
0000
0100
0010
0100
0010
1000
0000
0001
0000
0100
0010
,
0200
0302
0203
0302
0023
0230
2300
3000
0011
0000
1000
0001
1000
0001
1000
0001
,
1000
0000
0000
0000
0201
0300
0001
0100
1000
0100
0001
0000
0100
0000
1000
0000
,
0020
0230
2300
3200
0320
0030
0001
0100
0001
0100
0010
0000
0100
0000
0000
0000
,
1000
0000
0001
0010
0100
1000
0100
0000
0100
0000
0001
1000
0001
1000
0001
1000
,
0002
0000
0100
0000
0000
0000
0100
0000
0000
0000
0103
0000
0010
0100
0010
0100
,
1000
0000
0001
0010
0100
0000
0001
0010
0001
0100
0010
0000
0100
0000
0000
0000
,
1000
0100
0010
0000
0001
0000
0001
0010
0100
0010
0001
0000
0100
0000
0010
0100
,
0010
0000
0010
0000
0110
0000
0001
0010
0100
1000
0001
0010
0100
0000
1010
0000
,
1000
0001
0010
0000
0100
0000
0001
1000
0100
1000
0001
0000
1100
0000
0001
0000
,
1000
0100
0010
0001
0010
0100
1000
0100
0010
0001
0010
0100
1000
0100
0010
0001
,
0100
0010
1000
0001
0010
0100
0010
0001
1000
0100
1000
0001
0100
0010
1000
0100
,
0010
0001
0010
0100
1000
0001
0010
0001
1000
0010
0100
0001
0010
0100
0010
0001
,
0100
0010
1000
0010
0100
0001
1000
0100
0010
0100
1000
0000
1000
0000
0000
0000
,
1000
0000
0010
0000
0100
0000
0010
0100
0010
0001
0010
0000
0100
0000
0000
0000
,
1001
0000
0000
0000
1010
0000
1000
0100
0010
0001
0010
0000
0010
0000
0010
0000
,
1010
0000
0000
0000
0011
0000
0100
1000
0100
0010
0001
0000
1000
0000
0100
0010
,
0100
0001
1000
0000
0010
0000
1000
0100
1000
0000
0001
0010
0001
0010
0001
0010
,
0001
0000
0000
0000
1010
0000
0100
0010
0001
0010
0100
0000
0110
0000
0000
0000
,
0011
0000
0000
0000
0101
0000
0001
1000
0100
0010
0001
0000
0001
0000
0000
0000
,
0101
0000
0001
0010
1000
0100
0010
0000
0100
0000
1000
0001
1000
0001
1000
0000
,
0010
0000
0100
0010
0100
0010
0100
0000
0100
0000
1000
0100
0010
0100
0010
0001
,
2000
0000
0000
0000
3020
0000
0000
0000
1030
0100
0010
0001
0010
0100
1000
0010
,
0100
0001
1000
0100
1000
0001
0010
0100
1000
0100
0010
0001
1000
0010
0100
0001
,
0010
0000
0010
0000
1001
0000
0010
0100
0010
0000
1000
0010
0100
0000
0100
0000
,
1000
0010
1000
0000
0011
0000
0010
0100
0010
1000
0010
0000
1100
0000
0101
0000
,
0020
0000
0000
0000
0230
0000
0310
1000
0100
0010
0001
0000
0100
0000
0011
0000
,
2000
3200
0320
0032
2003
3000
0001
0100
0010
0100
0001
0000
0001
0000
1000
0100
,
0010
0000
1100
0000
0101
0000
0001
0010
0100
0010
0001
0010
0100
0000
1010
0000
,
0200
0320
0230
0302
2003
3002
2003
3010
0100
0010
1000
0000
0001
0000
1000
0000
,
0011
1100
1001
1010
,
0110
1001
1010
1100
,
0011
0110
1100
0110
,
0011
1001
0110
1001
,
0110
1010
1100
1010
,
1100
1001
0101
1001
,
0101
0000
1000
0001
0100
0010
1000
0000
0001
0000
0010
0100
0010
1000
0010
0100
,
1000
0000
0100
0000
0010
0000
0001
0000
1000
0000
0100
0000
0010
0000
0100
0000
2000
0000
0000
0000
0000
0000
0000
0000
0000
0000
0000
0000
0000
0000
0000
3000
,
0001
0000
0000
0000
1100
0000
0001
0100
1000
0100
0001
0000
1100
0000
0000
0000
,
0001
0010
0100
0000
1000
0000
0001
0100
0010
0100
0001
0000
0100
0000
1000
0001
,
1000
0000
1000
0000
0011
0000
0010
0100
0010
0100
0010
0000
0001
0000
1000
0000
,
0001
0100
0010
0000
0110
0000
1000
0010
0100
0001
0100
0000
0010
0000
1100
0000
,
0101
0000
0000
0000
1100
0000
0001
1000
0001
0100
0010
1000
0100
0000
0000
0000
,
1000
0001
1000
0000
0001
0000
0100
0010
1000
0001
0100
0000
1010
0000
0000
0000
,
0011
0000
0011
0000
0101
0000
0001
1000
0010
0100
0001
0000
1100
0000
0100
0000
,
0100
1000
0010
0000
0010
0100
0010
0100
0010
0100
0010
0100
0010
0100
0010
0100
,
2002
0000
3003
0000
;
