#TITLE:DeVouR;
#SUBTITLE:;
#ARTIST:DJ Cristo;
#TITLETRANSLIT:;
#SUBTITLETRANSLIT:;
#ARTISTTRANSLIT:;
#CREDIT:;
#BANNER:../fthescorept1bn.png;
#BACKGROUND:../fthescorept1bg.png;
#LYRICSPATH:;
#CDTITLE:;
#MUSIC:DeVouR.ogg;
#OFFSET:-2.080;
#SAMPLESTART:74.080;
#SAMPLELENGTH:19.130;
#SELECTABLE:YES;
#BPMS:0.000=200.000;
#STOPS:;
#BGCHANGES:;
// cache tags:
#FIRSTBEAT:0.000;
#LASTBEAT:411.000;
#SONGFILENAME:Songs/Fuck The Score Part I/DeVouR [Dossar]/DeVouR.sm;
#HASMUSIC:1;
#HASBANNER:1;
#MUSICLENGTH:127.869;
// end cache tags

//---------------dance-single - ----------------
#NOTES:
     dance-single:
     :
     Challenge:
     18:
     1.000,1.000,0.000,0.023,1.000,1204.000,0.000,3.000,0.000,0.000:
0001
0000
0000
0001
0000
0000
0001
0000
,
0000
0000
1000
0000
0001
0000
1000
0100
,
0010
0000
0000
0010
0000
0000
0010
0000
,
0000
0000
0100
0000
0010
0000
0100
0010
,
0001
0000
0000
0001
0000
0000
0001
0000
,
0000
0000
1000
0000
0001
0000
1000
0100
,
0010
0000
0000
0010
0000
0000
0010
0000
,
0000
0000
0100
0000
0010
0000
0100
0010
,
0001
1000
1000
0001
1000
1000
0001
1000
,
1000
1000
0010
1000
0001
1000
0100
0010
,
0001
1000
1000
0001
1000
1000
0001
1000
,
1000
1000
0010
1000
0001
1000
0100
0010
,
0001
1000
1000
0001
1000
1000
0001
1000
,
1000
1000
0010
1000
0001
1000
0100
0010
,
0001
1000
1000
0001
1000
1000
0001
1000
,
1000
1000
0010
1000
0001
1000
0100
0010
,
0001
0000
1000
0000
0100
0000
1000
0000
0001
0010
0001
0000
1000
0000
0100
0010
,
0001
0000
0000
0000
0000
0000
1000
0000
0000
0000
0000
0000
0010
0000
0000
0000
0000
0000
0100
0000
0000
0001
0000
0000
1000
0000
0000
0010
0000
0000
0100
0000
0001
0000
1000
0000
0001
0000
0000
0000
0000
0000
1000
0000
0010
0000
0100
0000
,
0001
0000
1000
0000
0001
0000
0010
0100
1000
0100
0010
0000
0001
0000
1000
0000
,
0010
0000
0000
0000
0000
0000
0100
0000
0000
0001
0000
0000
0010
0000
0000
0000
0000
0000
0100
0000
0000
1000
0000
0000
0010
0000
0000
0000
0000
0000
0100
0000
0000
0001
0000
0000
0010
0000
0000
0000
0000
0000
0100
0000
1000
0000
0100
0000
,
0010
0000
0001
0000
1000
0000
0010
0100
0001
0100
0010
0000
1000
0000
0001
0010
,
0100
0000
0000
0000
0000
0000
1000
0000
0000
0000
0000
0000
0001
0000
0000
0000
0000
0000
0100
0000
0000
0010
0000
0000
1000
0000
0000
0010
0000
0000
0100
0000
0000
0000
0000
0000
0001
0000
1000
0000
0010
0000
1000
0000
0001
0000
0100
0000
,
0001
1000
1000
0010
1000
1000
0001
1000
,
0001
0010
0100
1000
0001
0010
0100
1000
0001
0000
0010
0000
0100
0000
1000
0000
,
0001
1000
0010
1000
0001
0100
0001
1000
0010
0100
0001
1000
0010
1000
0001
0100
0010
1000
0001
0100
0001
1000
0010
0100
,
0001
0000
0000
0000
0001
0000
0000
1000
0001
0000
0000
0000
0001
0000
0000
0000
,
1000
0100
0010
0100
0000
0000
1000
0000
0000
0100
0010
0100
1000
0000
0000
0001
0000
0000
1000
0100
0010
0100
0000
0000
,
1000
0000
0000
0001
0000
0000
0100
0010
1000
0001
0000
0000
1000
0010
0100
0001
0000
0000
1000
0000
0000
0100
0000
0000
,
0010
0001
0010
0100
0000
0000
1000
0000
0000
0100
0010
0100
1000
0000
0000
0001
0000
0000
1000
0100
0010
0001
0000
0000
,
1000
0000
0000
0010
0000
0000
0100
0001
0100
0010
0000
0000
1000
0010
1000
0001
0000
0000
0100
0000
0000
0010
0000
0000
,
1000
0001
0010
0001
0000
0000
1000
0000
0000
0100
1000
0100
0010
0000
0000
0100
0000
0000
0010
0001
1000
0001
0000
0000
,
1000
0000
0000
0010
0000
0000
0100
0001
1000
0001
0000
0000
1000
0010
0100
0001
0000
0000
1000
0000
0000
0010
0000
0000
,
0100
0001
1000
0001
0000
0000
1000
0000
0000
0001
0010
0100
1000
0000
0000
0100
0000
0000
0010
0001
0010
0100
0000
0000
,
1000
0000
0000
0001
0000
0000
0100
0010
1000
0001
0000
0000
1000
0010
0100
0001
0000
0000
1000
0000
0000
0100
0000
0000
,
0010
0000
0100
0000
1000
0000
0100
0000
0000
0000
0000
0000
1000
0000
0000
0000
0000
0000
0001
0000
0100
0000
0010
0000
0100
0000
0000
0001
0000
0000
1000
0000
0000
0000
0000
0000
0001
0000
0100
0000
0010
0000
1000
0000
0000
0001
0000
0000
,
0100
0000
0000
0000
0000
0000
0010
0000
0000
1000
0000
0000
0001
0000
0100
0000
0001
0000
1000
0000
0000
0000
0000
0000
0001
0000
0010
0000
0100
0000
1000
0000
0100
0000
0010
0000
0001
0000
0000
0000
0000
0000
1000
0000
0010
0000
0100
0000
,
0001
0000
1000
0000
0001
0000
0100
0000
0000
0000
0000
0000
0010
0000
0000
0000
0000
0000
1000
0000
0010
0000
1000
0000
0001
0000
0000
0100
0000
0000
0001
0000
0000
0000
0000
0000
1000
0000
0010
0000
0100
0000
0001
0000
0000
0000
0000
0000
,
1000
0000
0000
0000
0000
0000
0001
0000
0000
1000
0000
0000
0001
0000
0010
0000
0100
0000
1000
0000
0000
0000
0000
0000
0001
0000
1000
0000
0100
0000
1000
0000
0000
0000
0000
0000
0001
0000
0000
0000
0000
0000
1000
0000
0100
0000
0010
0000
,
0001
0000
0010
0000
0100
0000
1000
0000
0000
0000
0000
0000
0001
0000
0000
0000
0000
0000
1000
0000
0010
0000
1000
0000
0001
0000
0000
0100
0000
0000
0001
0000
0000
0000
0000
0000
1000
0000
0010
0000
0100
0000
0001
0000
0000
1000
0000
0000
,
0001
0000
0000
0000
0000
0000
0100
0000
0000
0000
0000
0000
0010
0000
1000
0000
0001
0000
1000
0000
0000
0010
0000
0000
0100
0000
0001
0000
1000
0000
0001
0000
0000
0000
0000
0000
1000
0000
0100
0000
1000
0000
0001
0000
0010
0000
0100
0000
,
1000
0001
0010
0001
0000
0000
1000
0000
0000
0100
0010
0100
1000
0000
0000
0001
0000
0000
0100
0010
0100
0001
0000
0000
,
1000
0000
0000
0010
0000
0000
0100
0000
0000
0001
0000
0000
1000
0000
0010
0000
1000
0000
0001
0000
0000
0100
0000
0000
0010
0000
1000
0000
0010
0000
0100
0000
0000
0000
0000
0000
0001
0000
0000
0000
0000
0000
1000
0000
0000
0000
0000
0000
,
0001
0000
0100
0010
1000
0100
0010
0001
1000
0000
0010
0000
0100
0000
0001
0000
,
0010
0000
0000
0000
0000
0000
0000
0000
0100
0000
0000
0000
0000
0000
0000
0000
1000
0000
0000
0000
0001
0000
0000
0000
0000
0000
2000
3000
0200
0300
2000
3000
,
0001
0100
0000
0000
0100
0010
0000
0000
0010
1000
0000
0000
1000
0001
0000
0000
0001
0100
0000
0000
0100
0010
0000
0000
0010
1000
0000
0000
1000
0001
0000
0000
,
0001
0010
0000
0000
0010
0100
0000
0000
0100
1000
0000
0000
1000
0100
0000
0000
0100
0010
0000
0000
0010
0001
0000
0000
0001
0000
1000
0000
0010
0100
0000
0000
,
0100
0001
0000
0000
0001
1000
0000
0000
1000
0100
0000
0000
0100
0010
0000
0000
0010
0100
0000
0000
0100
1000
0000
0000
1000
0001
0000
0000
0001
0100
0000
0000
,
0100
0000
0010
0000
1000
0000
0001
0000
0010
0000
0100
0000
1000
0000
0001
0000
0100
0010
0000
0000
0010
1000
0000
0000
1000
0001
0000
0000
0001
0100
0000
0000
,
0100
0010
1000
0001
0000
0000
1000
0000
0000
0001
0000
0000
1000
0100
0010
0001
0000
0000
1000
0000
0000
0010
0000
0000
,
0100
0000
0001
0000
1000
0000
0010
0000
0100
0000
0001
0000
1000
0000
0001
0000
0100
0000
0010
0000
1000
0001
0000
0000
0001
0100
0000
0000
0100
0010
0000
0000
,
0010
1000
0000
0000
1000
0001
0000
0000
0001
0010
0000
0000
0010
0100
0000
0000
0100
0010
0000
0000
0010
0001
0000
0000
0001
1000
0000
0000
1000
0010
0000
0000
,
0010
0000
0000
0000
0000
0000
0100
0000
0000
0000
0000
0000
0000
0000
0000
0000
0000
0000
0000
0000
0000
0000
0000
0000
0100
0000
0000
0000
0000
0000
0001
0000
0000
0000
0000
0000
0000
0000
0000
0000
0000
0000
0000
0000
0000
0000
0000
0000
0001
0000
0000
0000
0000
0000
1000
0000
0000
0000
0000
0000
0000
0000
0000
0000
0000
0000
0000
0000
0000
0000
0000
0000
1000
0000
0000
0000
0000
0000
0100
0000
0000
0000
0000
0000
0000
0000
0000
0000
0000
0000
0000
0000
0000
0000
0000
0000
0100
0000
0000
0000
0000
0000
0010
0000
0000
0000
0000
0000
0000
0000
0000
0000
0000
0000
0000
0000
0000
0000
0000
0000
0010
0000
0000
0000
0000
0000
0001
0000
0000
0000
0000
0000
0000
0000
0000
0000
0000
0000
0000
0000
0000
0000
0000
0000
0001
0000
0000
0000
0000
0000
0000
0000
0010
0000
0000
0000
0000
0000
0000
0000
0100
0000
0000
0000
0000
0000
0000
0000
1000
0000
0000
0000
0000
0000
0000
0000
0100
0000
0000
0000
0000
0000
0000
0000
0010
0000
0000
0000
0000
0000
0000
0000
,
0001
0000
1000
0000
0100
0000
1000
0000
0001
0010
0001
0000
1000
0000
0100
0010
,
0001
0000
0000
0000
0000
0000
1000
0000
0000
0000
0000
0000
0010
0000
0000
0000
0000
0000
0100
0000
0000
0001
0000
0000
1000
0000
0000
0010
0000
0000
0100
0000
0001
0000
1000
0000
0001
0000
0000
0000
0000
0000
1000
0000
0010
0000
0100
0000
,
0001
0000
1000
0000
0001
0000
0010
0100
1000
0100
0010
0000
0001
0000
1000
0000
,
0010
0000
1000
0000
0010
0000
0100
0000
0000
0001
0000
0000
1000
0000
0100
0000
1000
0000
0001
0000
0000
0100
0000
0000
0010
0000
0000
0000
0000
0000
1000
0000
0000
0001
0000
0000
1000
0000
0000
0000
0000
0000
0001
0000
0010
0000
0001
0000
,
1000
0000
0100
0000
0010
0000
0001
0000
0000
0000
0000
0000
1000
0000
0000
0000
0000
0000
0010
0000
0000
0100
0000
0000
0001
0000
1000
0000
0001
0000
0100
0000
0000
0000
0000
0000
1000
0000
0000
0000
0000
0000
0001
0000
0000
0010
0000
0000
,
0100
0000
0000
1000
0000
0000
0001
0000
0000
1000
0000
0000
0100
0000
0000
0010
0000
0000
0001
0000
0000
1000
0000
0000
0100
0000
0000
1000
0000
0000
0001
0000
0000
0000
0000
0000
1000
0000
0010
0000
1000
0000
0001
0000
0100
0000
0001
0000
,
1000
0001
0001
0100
0001
0001
1000
0001
,
1000
0000
0000
0100
0000
0000
0010
0000
0000
0001
0000
0000
1000
0000
0000
0100
0000
0000
0010
0000
0000
0001
0000
0000
1000
0000
0000
0000
0000
0000
0100
0000
0000
0000
0000
0000
1000
0000
0100
0000
0010
0000
0001
0000
0010
0000
0100
0000
,
1000
0000
0001
0000
0010
0000
0001
0000
1000
0100
1000
0000
0001
0000
0010
0100
,
1000
0000
0000
0000
0000
0000
0001
0000
0000
0000
0000
0000
0100
0000
0000
0000
0000
0000
0010
0000
0000
1000
0000
0000
0001
0000
0000
0100
0000
0000
0010
0000
1000
0000
0001
0000
1000
0000
0000
0000
0000
0000
0001
0000
0100
0000
0010
0000
,
1000
0000
0001
0000
1000
0000
0100
0010
0001
0010
0100
0000
1000
0000
0001
0000
,
0100
0000
0001
0000
0100
0000
0010
0000
0000
1000
0000
0000
0001
0000
0010
0000
0001
0000
1000
0000
0000
0010
0000
0000
0100
0000
0000
0000
0000
0000
0001
0000
0000
1000
0000
0000
0001
0000
0000
0000
0000
0000
1000
0000
0100
0000
1000
0000
,
0001
0000
0010
0000
0100
0000
1000
0000
0000
0000
0000
0000
0001
0000
0000
0000
0000
0000
0100
0000
0000
0010
0000
0000
1000
0000
0001
0000
1000
0000
0010
0000
0000
0000
0000
0000
0001
0000
0000
0000
0000
0000
1000
0000
0000
0100
0000
0000
,
0010
0000
0000
0001
0000
0000
1000
0000
0000
0001
0000
0000
0010
0000
0000
0100
0000
0000
1000
0000
0000
0001
0000
0000
0010
0000
0000
0001
0000
0000
1000
0000
0000
0000
0000
0000
0001
0000
0100
0000
0001
0000
1000
0000
0010
0000
1000
0000
,
0001
1000
1000
0010
1000
1000
0001
1000
,
0001
0000
0000
0010
0000
0000
0100
0000
0000
1000
0000
0000
0001
0000
0000
0010
0000
0000
0100
0000
0000
1000
0000
0000
0001
0000
0000
0000
0000
0000
0010
0000
0000
0000
0000
0000
0001
0000
0010
0000
0100
0000
1000
0000
0100
0000
0010
0000
,
0001
0000
1000
0000
0100
0000
1000
0000
0001
0010
0001
0000
1000
0000
0100
0010
,
0001
0000
0000
0000
0000
0000
1000
0000
0000
0000
0000
0000
0010
0000
0000
0000
0000
0000
0100
0000
0000
0001
0000
0000
1000
0000
0000
0010
0000
0000
0100
0000
0001
0000
1000
0000
0001
0000
0000
0000
0000
0000
1000
0000
0010
0000
0100
0000
,
0001
0000
1000
0000
0001
0000
0010
0100
1000
0100
0010
0000
0001
0000
1000
0000
,
0010
0000
1000
0000
0010
0000
0100
0000
0000
0001
0000
0000
1000
0000
0100
0000
1000
0000
0001
0000
0000
0100
0000
0000
0010
0000
0000
0000
0000
0000
1000
0000
0000
0001
0000
0000
1000
0000
0000
0000
0000
0000
0001
0000
0010
0000
0001
0000
,
1000
0000
0100
0000
0010
0000
0001
0000
0000
0000
0000
0000
1000
0000
0000
0000
0000
0000
0010
0000
0000
0100
0000
0000
0001
0000
1000
0000
0001
0000
0100
0000
0000
0000
0000
0000
1000
0000
0000
0000
0000
0000
0001
0000
0000
0010
0000
0000
,
0100
0000
0000
1000
0000
0000
0001
0000
0000
1000
0000
0000
0100
0000
0000
0010
0000
0000
0001
0000
0000
1000
0000
0000
0100
0000
0000
1000
0000
0000
0001
0000
0000
0000
0000
0000
1000
0000
0010
0000
1000
0000
0001
0000
0100
0000
0001
0000
,
1000
0100
0010
0001
1000
0100
0010
0001
1000
0100
0010
0001
1000
0010
0100
0001
,
1000
0010
0100
0001
1000
0001
0100
0010
1000
0001
0100
0001
1000
0010
0100
0001
1000
0010
1000
0001
0100
0010
1000
0001
,
0100
0010
0010
0100
0010
0010
0100
0010
,
0010
0000
0000
0010
0000
0000
1000
0000
0000
0100
0000
0000
0010
0000
0000
0100
0000
0000
1000
0000
0000
0001
1000
0001
,
0100
0010
0010
0100
0010
0010
0100
0010
,
0010
0000
0000
0010
0000
0000
1000
0000
0000
0100
0000
0000
0010
0000
0000
0100
1000
0100
0010
0000
0000
0001
0010
0100
,
1000
0001
0001
1000
0001
0001
1000
0001
,
0001
0000
0000
0001
0000
0000
1000
0000
0000
0100
0000
0000
0010
0000
0000
0100
0000
0000
1000
0000
0000
0001
0100
0001
,
1000
0001
0001
1000
0001
0001
1000
0001
,
0001
0000
0000
0001
0000
0000
1000
0000
0000
0100
0000
0000
0010
0000
0000
0100
1000
0100
0010
0000
0000
0001
0010
0100
,
1000
0000
0001
0000
0010
0000
0001
0000
1000
0100
1000
0000
0001
0000
0010
0100
,
1000
0000
0000
0000
0000
0000
0001
0000
0000
0000
0000
0000
0100
0000
0000
0000
0000
0000
0010
0000
0000
1000
0000
0000
0001
0000
0000
0100
0000
0000
0010
0000
1000
0000
0001
0000
1000
0000
0000
0000
0000
0000
0001
0000
0100
0000
0010
0000
,
1000
0000
0001
0000
1000
0000
0100
0010
0001
0010
0100
0000
1000
0000
0001
0000
,
0100
0000
0000
0000
0000
0000
0010
0000
0000
1000
0000
0000
0001
0000
0000
0000
0000
0000
1000
0000
0000
0010
0000
0000
0100
0000
0000
0000
0000
0000
0001
0000
0100
0000
0001
0000
1000
0000
0000
0000
0000
0000
0001
0000
0010
0000
0100
0000
,
1000
0000
0001
0000
0001
0000
0100
0010
1000
0001
0010
0000
0001
0000
1000
0100
,
0010
0000
0000
0000
0000
0000
0001
0000
0000
0000
0000
0000
0100
0000
0000
0000
0000
0000
0010
0000
0000
1000
0000
0000
0001
0000
0000
0100
0000
0000
0001
0000
0000
0000
0000
0000
1000
0000
0010
0000
1000
0000
0001
0000
0100
0000
0001
0000
,
1000
0100
0100
0010
0001
0001
1000
0010
,
1000
0000
0000
0001
0000
0000
0100
0000
0000
0010
0000
0000
1000
0000
0000
0001
0000
0000
1000
0000
0000
0010
0000
0000
0100
0000
0000
0001
0000
0000
1000
0000
0010
0000
1000
0000
0001
0000
0100
0000
0001
0000
1000
0000
0010
0000
0100
0000
,
0001
1000
0010
0100
0001
1000
0001
0100
0010
1000
0001
1000
0010
0100
0001
1000
0001
0100
0010
1000
0001
1000
0010
0100
,
0001
0000
0000
0000
0001
0000
0000
1000
0001
0000
0000
0000
0001
0000
0000
0000
,
1000
0100
0100
1000
0100
0100
1000
0100
,
0100
0000
0000
0100
0000
0000
1000
0000
0000
0100
0000
0000
0010
0000
0000
0001
0000
0000
0010
0000
0000
0001
0010
0100
,
1000
0001
0001
1000
0001
0001
1000
0001
,
0001
0000
0000
0001
0000
0000
1000
0000
0000
0010
0000
0000
0100
0000
0000
0001
1000
0100
0010
0000
0000
0001
1000
0100
,
0010
0001
0001
0010
0001
0001
0010
0001
,
0001
0000
0000
0001
0000
0000
0010
0000
0000
0100
0000
0000
0010
0000
0000
0001
0000
0000
1000
0000
0000
0001
0010
0100
,
1000
0100
0100
1000
0100
0100
1000
0100
,
0100
0000
0000
0100
0000
0000
1000
0000
0000
0100
0000
0000
0010
0000
0000
0001
0010
0100
1000
0000
0000
0001
0010
0100
,
1000
0000
0000
1000
0000
0000
1000
0000
;
