#TITLE:Gang Probed;
#SUBTITLE:;
#ARTIST:Nvoise;
#TITLETRANSLIT:;
#SUBTITLETRANSLIT:;
#ARTISTTRANSLIT:;
#CREDIT:;
#BANNER:gangprobed.png;
#BACKGROUND:gangprobed-bg.png;
#LYRICSPATH:;
#CDTITLE:cdtitle.jpg;
#MUSIC:Gangprobed.mp3;
#OFFSET:-0.126;
#SAMPLESTART:24.020;
#SAMPLELENGTH:12.000;
#SELECTABLE:YES;
#BPMS:0.000=80.000,32.000=160.000,96.000=80.000,128.000=160.000,160.000=80.000;
#STOPS:;
#BGCHANGES:;
// cache tags:
#FIRSTBEAT:0.500;
#LASTBEAT:211.750;
#SONGFILENAME:Songs/Community Keyboard Megapack - Volume 2/(DTM) Gangprobed/nvoise.sm;
#HASMUSIC:1;
#HASBANNER:1;
#MUSICLENGTH:123.872;
// end cache tags

//---------------dance-single - Challenge----------------
#NOTES:
     dance-single:
     Challenge:
     Challenge:
     10:
     0.963,1.000,1.000,0.549,0.997,609.000,158.000,68.000,0.000,1.000:
0000
0000
0010
0000
0001
0000
1000
0000
0100
0010
0100
0000
1000
0100
0010
0001
,
0010
0100
1000
0000
0000
0000
0000
0000
0010
0100
0000
0010
0100
0000
0100
0010
,
0000
0000
0000
0100
0010
0000
0010
0010
0000
0000
0000
0100
0010
0000
0001
0010
,
1100
0010
0110
0001
1100
0010
0110
0020
,
0030
0000
0100
0000
0011
0000
0100
0000
1100
0001
0010
0000
1010
0100
0010
0001
,
1010
0100
1000
0000
0000
0000
0000
0000
0110
0100
0000
0010
0100
0000
0100
0010
,
0000
0000
0000
0000
0000
0000
0000
0000
1100
0010
0000
1000
0110
0000
0010
1000
,
0101
1010
0110
0101
0101
1010
0011
1010
,
2000
0100
0010
0100
3010
0002
0010
0100
,
1003
0000
1000
0000
0010
0000
0010
0000
0100
0010
1001
0000
0010
0000
0100
0000
,
1000
0000
0100
0000
1000
0000
0010
0000
0100
0000
0010
0000
1000
0000
0010
0000
1000
0000
0100
0000
0010
0100
0010
0100
0010
0000
0000
0000
0000
0000
0010
0000
,
1000
0100
1000
0100
1000
0000
0000
0000
0001
0000
0010
0000
0100
0000
0000
0000
1001
0000
0000
0000
0000
0000
0100
0000
1000
0000
0100
0000
0010
0000
0001
0000
,
0110
0000
0000
0000
0010
0000
0000
0000
0101
0000
0000
0000
0000
0000
0000
0000
1010
0000
0000
0000
0100
0000
0000
0000
0110
0000
0000
0000
0000
0000
0000
0000
0000
0100
0000
0000
0010
0000
0000
0001
0000
0000
0020
0000
0000
0000
0000
0000
,
0000
0000
0000
0030
0000
0000
1100
0000
0000
0000
0000
0000
0010
0000
0000
0000
0000
0000
0110
0000
0000
0000
0000
0000
1000
0000
0000
0000
0010
0000
0000
0000
0100
0000
0000
0000
0002
0000
0000
0000
0000
0000
1000
0000
0003
0000
0000
0000
,
1100
0000
0000
0000
0000
0000
0010
0000
0000
0000
0000
0000
0011
0000
0000
0000
0000
0000
0010
0000
0000
0000
0000
0000
0100
0000
0000
0000
0000
0000
1010
0000
0000
0000
0000
0000
0100
0000
0000
0010
0000
0000
0100
0000
0010
0000
0001
0000
,
0010
0000
0000
0000
0000
0000
0000
0000
0000
0000
0000
0000
0000
0000
0000
0000
0010
0000
0000
0000
0000
0000
0000
0000
0000
0000
0000
0000
0000
0000
0000
0000
0010
0000
0000
0000
0000
0000
0000
0000
0000
0000
0000
0000
0000
0000
0000
0000
1100
0000
0000
0000
0000
0000
0000
0000
0000
0000
0000
0000
0000
0000
0000
0000
0000
0000
0000
0000
0000
0000
0000
0000
0010
0000
0000
0000
0000
0000
0000
0000
0000
0000
0000
0000
0000
0000
0000
0000
0001
0000
0000
0000
0000
0000
0000
0000
0000
0000
0000
0000
0000
0000
0000
0000
0000
0000
0000
0000
0000
0000
0000
0000
0000
0000
0000
0000
0000
0000
0000
0000
1010
0000
0000
0000
0000
0000
0000
0000
0000
0000
0000
0000
0000
0000
0000
0000
0000
0000
0000
0000
0000
0000
0000
0000
0100
0000
0000
0000
0000
0000
0000
0000
0000
0000
0000
0000
0010
0000
0000
0000
0000
0000
0000
0000
0000
0000
0000
0000
1000
0000
0000
0000
0000
0000
0100
0000
0000
0000
0000
0000
0010
0000
0000
0000
0000
0000
0001
0000
0000
0000
0000
0000
,
0010
0010
0100
0100
0000
0000
0010
0010
1100
0000
0010
0000
2010
0000
0001
3000
,
0110
0000
0011
0000
1000
1000
0200
0300
0001
0010
0001
0100
0001
1000
0001
0010
,
1000
0000
0110
0100
0110
0000
0011
0010
0011
0000
2000
3000
0100
0010
0001
0010
,
0100
0000
0000
0000
1000
0000
0100
0000
0011
0000
0011
0000
0100
0000
1000
0000
0100
0000
0000
0000
0001
0010
0001
0000
0100
0000
0100
0000
1010
0000
0100
0000
,
0010
0000
0000
0010
0000
0000
1000
0000
0000
1000
0000
0000
0000
0000
0000
0000
0000
0000
0110
0000
0000
0000
0000
0000
1001
0000
0000
0000
0000
0000
1000
0000
0100
0000
0010
0000
0100
0000
0000
0000
0000
0000
0100
0000
0000
0000
0000
0000
,
2200
0000
0000
3300
0022
0033
0220
0330
1100
0000
1100
0000
0022
0033
0100
0000
,
1000
0100
0010
0010
1001
0000
0010
0000
1100
0000
0011
0000
1000
0100
0010
0001
,
0220
0000
0000
0000
0000
0000
0000
0330
0010
1000
0100
1000
0001
0010
0100
1000
,
1200
0000
0010
0000
0300
0021
0000
0030
2100
0000
0000
3020
0100
1000
0100
0000
,
1030
0000
0201
0000
0010
0300
1020
0000
1000
0030
0010
0002
0100
0000
0010
0003
,
2000
0000
0000
0000
0000
0000
0010
0000
0000
0000
0000
0000
3010
0000
0000
0200
0000
0000
0000
0000
0010
0300
0000
0000
0020
0000
0000
0000
0000
0000
1030
0000
0000
0002
0000
0000
0100
0000
0000
0010
0000
0000
0100
0000
0000
0003
0000
0000
,
1100
0000
0011
0000
0011
0000
1000
0000
0110
0000
1100
0000
1100
0000
0020
0030
,
1100
0000
0000
0000
0010
0000
0100
0000
0011
0000
0000
0000
1100
0000
0000
0000
0110
0000
0000
0000
0001
0000
0010
0000
1100
0000
0010
0000
0001
0000
1000
0001
,
0110
0000
0000
0000
0100
0000
0001
0000
0110
0000
0000
0000
0100
0000
0001
0000
0000
0000
0100
0000
0100
0000
0100
0000
0011
0000
0100
0000
0020
0000
0000
0030
,
2000
0000
0100
0010
0100
3000
0120
0000
1000
0000
0100
1000
0100
0001
0100
1030
,
1100
0000
0000
0000
0110
0000
0000
0000
0011
0000
0000
0000
1000
0000
0100
0000
0010
0000
1000
0010
1000
0000
0110
0000
1001
0000
0100
0000
0020
0000
0000
0030
,
1100
0000
0010
0000
0011
0000
1000
0000
0110
0000
0110
0000
2001
0000
0010
3000
,
0220
0000
0000
0000
0000
0330
1001
0000
1000
1000
0110
0000
0110
0000
0011
0000
,
1100
0000
0000
0000
0010
0000
0001
0000
1000
0000
0100
0000
0010
0000
0001
0000
0010
0000
0000
0000
0100
0010
0100
0010
0100
0000
0000
0000
0000
0000
0100
0000
,
1000
0000
0000
0000
0000
0000
0000
0000
0000
0000
0000
0000
1000
0000
0000
0000
0000
0000
0000
0000
0000
0000
0000
0000
0110
0000
0000
0000
0000
0000
0000
0000
0000
0000
0000
0000
0110
0000
0000
0000
0000
0000
0000
0000
0000
0000
0000
0000
0001
0000
0000
0000
0000
0000
0000
0000
0000
0000
0000
0000
0000
0000
0000
0000
0000
0000
0000
0000
0000
0000
0000
0000
0100
0000
0000
0000
0000
0000
0000
0000
0000
0000
0000
0000
0000
0000
0000
0000
0000
0000
0000
0000
0000
0000
0000
0000
1000
0000
0000
0000
0000
0000
0000
0000
0100
0000
0000
0000
0000
0000
0000
0000
0010
0000
0000
0000
0000
0000
0000
0000
0001
0000
0000
0000
0000
0000
0000
0000
1000
0000
0000
0000
0000
0000
0000
0000
0100
0000
0000
0000
0000
0000
0000
0000
0010
0000
0000
0000
0000
0000
0100
0000
0000
0000
0000
0000
0010
0000
0000
0000
0000
0000
0000
0000
0000
0000
0000
0000
0010
0000
0000
0000
0000
0000
0000
0000
0000
0000
0000
0000
0000
0000
0000
0000
0000
0000
0000
0000
0000
0000
0000
0000
,
0101
0000
0000
0000
1000
0010
1000
0010
0100
0000
0000
0000
0110
0000
0000
0000
1000
0000
0100
0000
0010
0000
0100
0000
0010
0000
0010
0000
0100
0000
1000
0000
,
0200
0300
0010
0000
0001
0000
0010
0000
0010
0000
0000
0000
1010
0000
0000
0000
0000
0000
0000
0000
0000
0000
0000
0000
1001
0000
0000
0000
0010
0000
1000
0000
,
0010
0000
0000
0000
0000
0000
1000
0000
0000
0100
0000
0000
0010
0000
0000
0100
0000
0000
0010
0000
0000
0000
0000
0000
0110
0000
0000
0000
0000
0000
0000
0000
0000
1000
0000
0000
0100
0000
0000
0010
0000
0000
0100
0000
0010
0000
0001
0000
,
0010
0000
1000
0000
0100
0000
0011
0000
0000
0100
0000
0022
0000
0000
0000
0000
0033
0000
0000
0000
0000
0000
0000
0000
,
2100
0000
3001
0010
0001
0000
2010
0010
0010
0000
3001
0001
0210
0300
1020
0130
,
0100
0000
0000
0000
0000
0000
0010
0000
0000
0000
0000
0000
1001
0000
0000
0000
0000
0000
1000
0000
0100
0000
1000
0000
0200
0000
0300
0000
0000
0000
0200
0000
0000
0301
0000
0000
1010
0000
0000
0000
0000
0000
0010
0000
0000
0000
0000
0000
,
0002
0000
2000
0000
0000
0000
3003
0000
0100
0000
0020
0000
1030
0100
1000
0100
0000
0000
0020
0030
1000
0000
1000
0000
0110
0000
0000
0000
1000
0000
0000
0000
,
2020
3030
0202
0303
1010
0101
0101
0101
0101
1010
1010
0110
0200
0310
2002
3003
,
1100
0000
0110
0010
1001
0000
1100
0010
0101
0010
0200
0301
1010
0100
0011
0100
,
1010
0100
0022
1033
1200
0300
0020
0030
1100
0110
0000
0011
1100
0000
0110
0011
,
2000
0000
0000
0000
0000
0000
0000
0000
0000
3100
0000
0000
0010
0000
0000
0000
0000
0000
0001
0000
0000
0010
0000
0000
2100
0000
0000
0000
0100
0000
0000
0000
0100
0001
3000
0000
0010
0000
0000
0000
0000
0000
1000
0000
0000
0100
0000
0000
,
1000
0000
0100
0010
0011
0011
0011
0011
1100
1100
1100
1100
0110
0010
0200
0300
,
1000
0000
0000
0000
0100
0000
0000
0000
0010
0000
0000
0000
0000
0000
0000
0000
0000
0000
0000
0000
0000
0000
0000
0000
1000
0000
0000
0000
0000
0000
0100
0000
0000
0000
0000
0000
0010
0000
0000
0000
0000
0000
0001
0000
0000
0000
0000
0000
0010
0000
0000
0000
0000
0000
0100
0000
0000
0000
0000
0000
1000
0000
0000
0000
0000
0000
0100
0000
0000
0000
0000
0000
0020
0000
0000
0000
0000
0000
0000
0000
0000
0000
0000
0000
1030
0000
0000
0000
0000
0000
0000
0000
0000
0000
0000
0000
0100
0000
0000
0000
0000
0000
0000
0000
0000
0000
0000
0000
0010
0000
0000
0000
0000
0000
0000
0000
0000
0000
0000
0000
0001
0000
0000
0000
0000
0000
0000
0000
0000
0000
0000
0000
0010
0000
0000
0000
0000
0000
0010
0000
0000
0000
0000
0000
0100
0000
0000
0000
0000
0000
0000
0000
0000
0000
0000
0000
0000
0000
0000
0000
0010
0000
0000
0000
0000
0000
0000
0000
0000
0000
0000
0000
0000
0000
0000
0000
0100
0000
0000
0000
0000
0000
0000
0000
0000
0000
0000
0000
0000
0000
0000
0000
,
1100
0000
1100
0000
1100
0000
0011
0000
1000
0100
1000
0000
0010
0100
0010
0000
1000
0000
0100
0000
0010
0000
0001
0000
0110
0000
0110
0000
1001
0000
1001
0000
,
0100
0010
0010
0100
0011
0100
1000
0100
1010
0101
0101
0010
1010
0100
0010
0001
,
1000
0100
1000
0100
0010
0100
0010
0100
0010
0001
0010
0001
0010
0001
0010
0100
1000
0010
1000
0010
1000
0100
0010
0001
0010
0100
0010
0100
0010
0100
0010
0001
,
0220
0000
0000
0000
0000
0000
0000
0000
0000
0000
0000
0000
0000
0000
0000
0330
;

//---------------dance-single - Hard----------------
#NOTES:
     dance-single:
     Hard:
     Hard:
     10:
     0.777,0.876,0.654,0.565,0.751,523.000,81.000,70.000,0.000,0.000:
0000
0000
0001
0000
0100
0000
0010
0000
1000
0100
1000
0000
0001
0010
0001
1000
,
0100
0010
0001
0000
0000
0000
0000
0000
1000
0100
0000
0010
0001
0000
0100
0020
,
0000
0030
0000
0001
0100
0000
0010
1000
0000
0000
0000
0010
0100
0000
1000
0001
,
0110
0000
0010
0000
0101
0000
1000
0000
0110
0000
0001
0000
0110
0000
0220
0330
,
0000
0000
1000
0000
0001
0000
0010
0000
1000
0010
0100
0000
0010
0100
0010
0100
,
0010
0001
1000
0000
0000
0000
0000
0000
1000
0010
0000
1000
0001
0000
0100
0020
,
0000
0030
0100
0000
1000
0000
0001
0000
0100
0010
0000
1000
0100
0000
0010
0001
,
1100
0000
0010
0000
0101
0000
0010
0000
1100
0000
0010
0000
0101
0000
0020
0030
,
1000
0010
0100
0010
0001
0010
0100
1000
,
1000
0000
0100
0000
0010
0000
0001
0000
0100
0010
0100
0000
0020
0000
0000
0030
,
2000
0000
0000
3000
0001
0100
0001
0100
0001
0200
0000
0300
1001
0000
0000
0100
,
0010
0001
0010
0000
1000
0100
0000
0000
0010
0000
0100
0010
0001
1000
0200
0300
,
1000
0000
0000
0000
0100
0000
0000
0000
0001
0000
0000
0000
0000
0000
0000
0000
0100
0000
0000
0000
1000
0000
0000
0000
0010
0000
0000
0000
0000
0000
0000
0000
0000
1000
0000
0000
0100
0000
0000
0020
0000
0000
0000
0000
0000
0000
0000
0000
,
0000
0000
0000
0000
0000
0000
0000
0000
0000
0030
0000
0000
0001
0000
0000
0000
0000
0000
0010
0000
0000
0000
0000
0000
1000
0000
0000
0000
0010
0000
0000
0000
0001
0000
0000
0000
0100
0000
0000
0000
0000
0000
0010
0000
0000
0000
0000
0000
,
1000
0000
0100
0000
0011
0000
0010
0000
0100
0000
1010
0000
0100
0010
0001
0000
,
1000
0000
0000
0000
0100
0000
0000
0000
0010
0000
0000
0000
0101
0000
0000
0000
0000
0000
0000
0000
0000
0010
0000
0000
0100
0000
0000
0000
0000
0000
0011
0000
0000
0000
0000
0000
1000
0000
0000
0100
0000
0000
1000
0000
0000
0000
0000
0000
,
0010
0010
1000
1000
0000
0000
0010
0010
0100
0000
0000
0000
0220
0000
0000
0330
,
1000
0000
0010
0000
0100
0100
0020
0000
0030
0100
0010
0001
1000
0100
0010
0001
,
1000
0000
0010
0100
0010
0000
0001
0010
0001
0000
0100
0000
0010
1000
0010
1000
,
0010
0000
0001
1000
0001
0000
0010
0100
0010
0000
1010
0000
0100
0010
0001
1000
,
0100
0100
0010
0001
0010
0000
0100
0000
0002
0000
0000
0003
0200
0000
0000
0300
,
0011
0000
0000
0000
1100
0000
0010
0000
0110
0000
0110
0000
2002
0000
0000
3003
,
0100
0010
0001
0010
0100
0000
0000
1000
0100
0000
0011
0000
0100
1000
0010
0100
,
0022
0000
0000
0000
0000
0000
0000
0033
1000
0100
0010
0100
0010
0001
0010
0100
,
1000
0000
0001
0000
0000
1000
0000
0000
0010
0000
0000
1000
0100
0010
0100
0000
,
1000
0000
0101
0000
1010
0000
0000
0000
0101
0000
1000
0100
0010
0001
0010
0000
,
1100
0000
0100
0000
0010
0100
0000
0100
0001
0000
0000
0000
1000
0100
0010
0000
,
1000
0000
0110
0000
0220
0000
0000
0330
1001
0000
0101
0000
0202
0000
0000
0303
,
1100
0000
1100
0001
0010
0000
0011
0000
0011
0000
0011
1000
0100
0010
0100
1000
,
0100
0000
0000
0001
0010
0000
0100
0000
0010
0010
0010
0000
0010
0100
2000
3000
,
0011
0000
0011
0100
1000
0000
1010
0000
1010
0000
1010
0100
0010
0001
0020
1030
,
0100
0000
0000
0000
0110
0000
1000
0000
0100
0000
0000
0000
0000
0000
0010
0000
0100
0000
0010
0100
0010
0000
0100
0000
1000
0100
0010
0000
2200
0000
0000
3300
,
0011
0000
0100
0000
0010
0000
1000
0000
0101
0000
0101
0000
0020
0000
0000
0030
,
2200
0000
0000
0000
0000
3300
0001
0000
0010
0010
1100
0000
1100
0000
0022
0033
,
0200
0000
0000
0300
1000
0100
0010
0001
0010
0001
0010
0001
0200
0000
0000
0301
,
0010
0100
1000
1000
0020
0000
0000
0000
0000
0000
0000
0030
0100
0100
0020
0030
,
2000
0000
0001
3001
0010
0000
0010
0000
0000
0000
1000
0000
0100
0010
0001
0010
,
1100
0000
0100
0010
0001
0001
0110
0000
0000
0000
0000
0000
0100
0000
0100
0010
,
1000
0000
0000
0000
0000
0000
0001
0000
0000
0010
0000
0000
0001
0000
0000
0010
0000
0000
0200
0000
0000
0300
0000
0000
0010
0000
0000
0000
0000
0000
0000
0000
0000
1000
0000
0000
0100
0000
0000
0010
0000
0000
0001
0000
0010
0000
0001
0000
,
1000
0000
0100
0000
0010
0000
0110
0000
0000
0100
0000
0000
0220
0000
0000
0000
0000
0000
0000
0000
0000
0000
0330
0000
,
1100
0000
0010
0001
0100
0000
0010
0010
0010
0000
1000
0100
0010
0000
0100
0010
,
0100
0000
0000
0000
0000
0000
0010
0000
0000
0000
0000
0000
1010
0000
0000
0000
0000
0000
1000
0000
0100
0000
1000
0000
0200
0000
0000
0000
0300
0000
0200
0000
0300
0010
0000
0000
1000
0000
0000
0000
0000
0000
0110
0000
0000
0000
0000
0000
,
1000
0000
0200
0000
0300
0000
0000
0000
0010
0000
0200
0000
0310
0001
0010
0001
0000
0000
0000
0000
0010
0000
0100
0000
0011
0000
0000
0000
0110
0000
0000
0000
,
2020
3030
0202
0303
0100
0100
0100
0100
0010
0010
0010
0010
2002
0000
0000
3003
,
1100
0000
0011
0010
1100
0000
0101
0000
1010
0100
0100
0000
1100
0001
0010
0001
,
1100
0010
0001
0000
1000
0200
0320
0030
1000
0200
0300
0001
0020
0030
1000
0200
,
0000
0000
0000
0000
0000
0000
0000
0000
0000
0310
0000
0000
0001
0000
0000
0000
0000
0000
1000
0000
0000
0200
0000
0000
0001
0000
0000
0000
0010
0000
0000
0000
0001
0300
0000
0000
0001
0000
0000
0000
0000
0000
1000
0000
0000
0200
0000
0000
,
0000
0300
0010
0001
0010
0010
0010
0010
0010
0010
0010
0010
1100
0010
0200
0300
,
1010
0000
0000
0000
0000
0000
0000
0000
0000
0000
0000
0000
0000
0000
0000
0000
0000
0000
0000
0000
0000
0000
0000
0000
1000
0000
0000
0000
0000
0000
0100
0000
0000
0000
0000
0000
0010
0000
0000
0000
0000
0000
0001
0000
0000
0000
0000
0000
0010
0000
0000
0000
0000
0000
0100
0000
0000
0000
0000
0000
1000
0000
0000
0000
0000
0000
0100
0000
0000
0000
0000
0000
0020
0000
0000
0000
0000
0000
0000
0000
0000
0000
0000
0000
0000
0000
0000
0000
0000
0000
0030
0000
0000
0000
0000
0000
0100
0000
0000
0000
0000
0000
0000
0000
0000
0000
0000
0000
0000
0000
0000
0000
0000
0000
0000
0000
0000
0000
0000
0000
0000
0000
0000
0000
0000
0000
0000
0000
0000
0000
0000
0000
1000
0000
0000
0000
0000
0000
0100
0000
0000
0000
0000
0000
0010
0000
0000
0000
0000
0000
0000
0000
0000
0000
0000
0000
0000
0000
0000
0000
0100
0000
0000
0000
0000
0000
0000
0000
0000
0000
0000
0000
0000
0000
0000
0000
0001
0000
0000
0000
0000
0000
0000
0000
0000
0000
0000
0000
0000
0000
0000
0000
,
1000
0000
0100
0000
0010
0000
0200
0000
0310
0001
0010
0000
1000
0100
1000
0000
2000
0000
0000
3000
0011
0000
0010
0000
0011
0000
0010
0000
0110
0000
0010
0000
,
2000
0100
0010
3001
0020
0100
0100
0030
0200
0010
0001
0310
2000
0100
0010
3000
,
1100
0000
0000
0000
0011
0000
0000
0000
1100
0000
0000
0000
0101
0000
0000
0020
0000
0000
0000
0000
0000
0030
0000
0000
0100
0000
0000
0010
0000
0000
0100
0000
0000
1000
0000
0000
0202
0000
0000
0000
0000
0000
0000
0000
0303
0000
0000
0000
,
0220
0000
0000
0000
0000
0000
0000
0000
0000
0000
0000
0000
0000
0000
0000
0330
;
