#TITLE:SUPER MARIO BROS.;
#SUBTITLE:(D.K. MIX);
#ARTIST:DALTON KUEPKER;
#TITLETRANSLIT:;
#SUBTITLETRANSLIT:;
#ARTISTTRANSLIT:;
#CREDIT:;
#BANNER:supermariobrosdkremix.png;
#BACKGROUND:supermariobrosdkremix-bg.png;
#LYRICSPATH:;
#CDTITLE:;
#MUSIC:supermariobrosdkmix.mp3;
#OFFSET:-4.834;
#SAMPLESTART:36.000;
#SAMPLELENGTH:15.000;
#SELECTABLE:YES;
#BPMS:0.000=100.000,56.000=175.000,142.000=180.000,148.000=182.760,152.000=183.240,160.000=186.000,168.000=190.000,176.000=192.000,180.000=194.600,186.000=197.000,190.000=199.000,196.000=200.000,200.000=100.000,204.500=55.920;
#STOPS:;
#BGCHANGES:;
// cache tags:
#FIRSTBEAT:0.000;
#LASTBEAT:207.000;
#SONGFILENAME:Songs/dragon force/Super Mario Brothers (Dalton Kuepker Mix)/supermariobrosdkremix.sm;
#HASMUSIC:1;
#HASBANNER:1;
#MUSICLENGTH:93.317;
// end cache tags

//---------------dance-single - ----------------
#NOTES:
     dance-single:
     :
     Beginner:
     3:
     0.109,0.139,0.011,0.011,0.000,69.000,1.000,1.000,0.000,0.000:  // measure 1
0100
0000
0000
0000
,  // measure 2
0010
0000
0000
0000
,  // measure 3
0001
0000
0000
0000
,  // measure 4
1000
0000
0000
0010
,  // measure 5
0010
0000
0000
0000
,  // measure 6
0100
0000
0100
0000
,  // measure 7
0100
0000
0000
0000
,  // measure 8
0001
0000
0000
0000
,  // measure 9
1000
0000
0000
0000
,  // measure 10
0100
0000
0000
0000
,  // measure 11
1000
0000
0000
0000
,  // measure 12
0001
0000
0001
0000
,  // measure 13
0001
0000
0000
0010
,  // measure 14
0010
0000
0000
0110
,  // measure 15
0000
0000
0000
0000
,  // measure 16
0000
0000
0000
0000
,  // measure 17
0000
0000
0000
0000
,  // measure 18
0010
0010
0010
0010
,  // measure 19
0010
0000
0000
0000
,  // measure 20
0100
0000
0000
0000
,  // measure 21
0001
0000
0000
0000
,  // measure 22
1000
0000
0000
0000
,  // measure 23
0100
0000
0000
0000
,  // measure 24
0010
0000
0000
0000
,  // measure 25
0001
0000
0000
0000
,  // measure 26
1000
0000
0000
0000
,  // measure 27
0010
0000
0000
0000
,  // measure 28
0100
0000
0000
0000
,  // measure 29
0001
0000
0000
0000
,  // measure 30
1000
1000
1000
0000
,  // measure 31
1000
0000
0000
0000
,  // measure 32
0010
0000
0000
0000
,  // measure 33
0100
0000
0000
0000
,  // measure 34
0001
0001
0001
0000
,  // measure 35
1000
0000
0000
0000
,  // measure 36
0010
0000
0000
0000
,  // measure 37
0100
0000
0000
0000
,  // measure 38
0001
0000
0000
0000
,  // measure 39
1000
0000
0000
0000
,  // measure 40
0010
0000
0000
0000
,  // measure 41
0001
0000
0000
0000
,  // measure 42
0100
0100
0100
0000
,  // measure 43
0100
0000
0000
0000
,  // measure 44
0010
0000
0000
0000
,  // measure 45
1000
0000
0000
0000
,  // measure 46
0001
0001
0001
0000
,  // measure 47
0001
0000
0000
0000
,  // measure 48
0010
0000
0000
0000
,  // measure 49
0100
0000
0000
0000
,  // measure 50
1000
1000
1000
0000
,  // measure 51
1000
0000
1000
0000
,  // measure 52
1000
2000
0000
3000
;

//---------------dance-single - ----------------
#NOTES:
     dance-single:
     :
     Easy:
     6:
     0.384,0.471,0.493,0.289,0.000,178.000,46.000,27.000,0.000,0.000:  // measure 1
0001
0000
0000
1000
,  // measure 2
1000
0000
0010
0100
,  // measure 3
0001
1000
0020
0130
,  // measure 4
0200
0301
0000
0001
,  // measure 5
2000
3100
0200
0310
,  // measure 6
0020
0031
1001
0010
,  // measure 7
0110
0200
0301
1001
,  // measure 8
2000
3001
0020
0000
,  // measure 9
0130
1001
1000
0110
,  // measure 10
2000
0000
3001
0001
,  // measure 11
0020
0130
0200
1300
,  // measure 12
2000
3001
0002
1003
,  // measure 13
0010
0101
0100
1010
,  // measure 14
1001
1001
0010
0200
,  // measure 15
0000
0000
0000
0000
,  // measure 16
0000
0000
0000
0000
,  // measure 17
0010
0000
0010
0000
,  // measure 18
0310
0010
0010
0010
,  // measure 19
0100
0001
1000
0001
,  // measure 20
0010
0100
2000
0000
,  // measure 21
3001
0100
0010
1000
,  // measure 22
0002
0010
0013
0000
,  // measure 23
0010
0100
1000
0001
,  // measure 24
0100
0010
2000
0000
,  // measure 25
3100
0010
0100
1000
,  // measure 26
0020
1000
2000
3030
,  // measure 27
0001
0100
0010
0100
,  // measure 28
0001
1000
2002
3003
,  // measure 29
0100
0010
0100
1000
,  // measure 30
1002
1003
1001
0000
,  // measure 31
1010
0001
0101
0100
,  // measure 32
0110
0110
1001
1001
,  // measure 33
0100
1100
0010
0011
,  // measure 34
0101
1010
2002
3003
,  // measure 35
0100
0110
1000
1001
,  // measure 36
0001
0101
0100
0110
,  // measure 37
0010
1010
1000
1100
,  // measure 38
0010
0001
0100
0000
,  // measure 39
0101
0110
1010
1100
,  // measure 40
1001
0110
0110
1001
,  // measure 41
0100
0010
0001
0100
,  // measure 42
0010
1000
0100
0000
,  // measure 43
1100
0100
0110
0010
,  // measure 44
0011
0001
0100
0010
,  // measure 45
1000
0100
0100
1000
,  // measure 46
0010
0100
0001
0000
,  // measure 47
1100
0100
0110
0010
,  // measure 48
0001
0100
0001
0010
,  // measure 49
0110
1100
1010
0101
,  // measure 50
0001
1000
0200
0000
,  // measure 51
0310
0000
0001
1000
,  // measure 52
0020
0200
0000
0000
0000
0000
0330
0000
;

//---------------dance-single - ----------------
#NOTES:
     dance-single:
     :
     Medium:
     8:
     0.472,0.388,0.011,0.064,0.000,301.000,1.000,6.000,0.000,0.000:  // measure 1
1000
0000
0010
0000
0100
0001
0010
0000
,  // measure 2
0001
0000
0100
0000
0001
1000
0010
0010
,  // measure 3
0100
0000
0001
0000
0010
0001
0100
0010
,  // measure 4
1000
0000
0001
0000
1000
0010
0010
0100
,  // measure 5
0001
0000
0010
0000
0001
0100
0010
1000
,  // measure 6
0100
0000
1000
0000
0002
0000
0013
0100
,  // measure 7
0010
0000
0100
1000
0010
1000
0001
0010
,  // measure 8
0100
0000
0010
0100
0000
1000
0010
0100
,  // measure 9
0001
0000
1000
0001
0010
0100
0010
0100
,  // measure 10
0000
1000
0000
0010
0100
0000
0001
1000
,  // measure 11
0010
0010
0100
0100
0001
1000
0100
0000
,  // measure 12
1000
1000
0001
0010
0100
0000
0010
0000
,  // measure 13
0001
0001
1000
0010
0100
0100
0001
0000
,  // measure 14
1000
0000
0010
0100
0001
0000
2000
0000
,  // measure 15
0001
0100
0010
0100
,  // measure 16
0001
0100
0010
0100
,  // measure 17
0001
0000
0100
0000
0010
0000
0100
3000
,  // measure 18
0001
1000
0001
1000
0001
0000
1000
0000
,  // measure 19
0010
0100
0001
0000
0010
0100
1000
0000
,  // measure 20
0010
0100
0001
0010
0100
0000
0010
0000
,  // measure 21
0100
1000
0001
0000
1000
0010
0100
0000
,  // measure 22
0010
0100
0001
0010
0100
0000
1000
0000
,  // measure 23
0010
1000
0100
0000
0010
0100
1000
0000
,  // measure 24
0001
0100
0010
0100
0001
1000
0100
0000
,  // measure 25
0010
0100
1000
0000
0010
0100
0001
0000
,  // measure 26
0010
0100
0010
0100
1000
0000
0001
0000
,  // measure 27
0100
0010
1000
0000
0010
0100
0001
0000
,  // measure 28
0010
0100
1000
0010
0100
0000
0001
0000
,  // measure 29
0010
0100
0010
0000
0100
1000
0010
0000
,  // measure 30
0100
0010
1000
0100
0010
0000
0001
0000
,  // measure 31
0001
0100
1000
0100
0010
0100
0001
0000
,  // measure 32
0010
0100
0010
0001
0100
0000
0010
0000
,  // measure 33
0100
1000
0100
0000
0010
0100
0001
0000
,  // measure 34
0100
0010
1000
0100
0010
0000
0000
0000
,  // measure 35
0001
0100
0010
0000
0100
1000
0100
0000
,  // measure 36
0010
0100
0001
0010
1000
0010
0100
0000
,  // measure 37
0100
0010
0100
0000
1000
0100
0010
0000
,  // measure 38
0001
0010
0100
0010
1000
0000
0010
0000
,  // measure 39
0001
1000
0010
0000
0100
1000
0100
0000
,  // measure 40
0010
0100
0001
0010
0100
0010
1000
0000
,  // measure 41
0100
0010
0001
0000
1000
0010
0100
0000
,  // measure 42
1000
0100
0010
0100
0001
0000
0010
0000
,  // measure 43
0100
0010
1000
0000
0010
0100
1000
0000
,  // measure 44
0001
0100
0010
1000
0100
0000
0010
0000
,  // measure 45
0001
0100
0010
0000
1000
0100
0010
0000
,  // measure 46
0001
0100
0010
1000
0100
0000
0010
0000
,  // measure 47
0001
0100
1000
0000
0100
0010
1000
0000
,  // measure 48
0001
0010
0100
0010
1000
0010
0100
0000
,  // measure 49
1000
0001
0100
0000
1000
0100
0010
0000
,  // measure 50
1000
0001
0010
0100
1000
0000
0001
0000
,  // measure 51
0200
0000
0320
0000
,  // measure 52
0030
2002
0000
0000
0000
0000
3003
0000
;

//---------------dance-single - ----------------
#NOTES:
     dance-single:
     :
     Hard:
     10:
     0.712,0.721,0.086,0.118,1.000,446.000,8.000,11.000,0.000,0.000:  // measure 1
0001
0000
0000
0010
0000
0000
0100
0000
0000
0000
1000
0100
0000
0010
0001
0000
,  // measure 2
0010
0000
0000
0000
0100
0000
0000
0000
1000
0000
0000
0000
0100
0000
0000
0000
0000
0000
0010
0000
0000
0001
0000
0000
0000
0000
0000
0010
0000
0000
0000
0000
0000
0100
0000
0000
1000
0000
0000
0100
0000
0000
0010
0000
0000
0001
0000
0000
,  // measure 3
1000
0000
0001
0100
0010
0100
0010
1000
0000
0100
1000
0100
0000
0010
0001
0010
,  // measure 4
0000
0000
0100
0010
0100
0010
0100
1000
0000
0001
0000
1000
0001
0000
0110
0000
,  // measure 5
0110
0000
0010
1000
0100
0010
0001
0010
0000
0100
0010
0100
0000
1000
0100
1000
,  // measure 6
0000
0000
1001
0000
0000
0101
0000
0000
0110
0000
0000
0100
0010
0000
0100
0000
,  // measure 7
1000
0000
0010
1000
0010
1000
0010
0100
0000
0001
0010
0100
0000
0010
0100
1000
,  // measure 8
0000
0000
0010
0100
0001
1000
0100
0010
0000
0001
0000
0001
0001
0000
0010
0000
,  // measure 9
0100
0000
1000
0010
1000
0010
0100
0010
0000
0100
0001
0010
0000
0100
0010
1000
,  // measure 10
0000
0000
0010
0000
0000
0110
0000
0000
1001
0000
0000
0001
1000
0000
0010
0000
,  // measure 11
0100
0010
0000
1000
0000
0100
0010
0000
0001
0010
0000
0100
1000
0000
0000
0000
,  // measure 12
0001
1000
0000
0001
0000
1000
0010
0000
0200
0000
0000
0000
0310
0000
0000
0000
,  // measure 13
0100
0001
0000
0010
0000
0100
0010
0000
0100
1000
0000
0001
2000
0000
0000
0000
,  // measure 14
3010
0010
0000
0100
0000
0010
0100
0000
1001
0000
0000
0000
0200
0000
0000
0000
,  // measure 15
0010
0010
0010
0001
,  // measure 16
0010
0010
0010
1000
,  // measure 17
0010
0010
0010
0001
,  // measure 18
0310
0100
0010
0100
0010
0100
0010
0100
0010
0100
0010
0100
0010
0100
0010
0100
,  // measure 19
0010
1000
0000
0001
0000
0000
0100
0000
0001
1000
0000
1000
0001
0000
0000
0000
,  // measure 20
0010
0000
0000
0000
0100
0000
0000
0000
1000
0000
0000
0000
0100
0000
0000
0000
0010
0000
0000
0000
0001
0000
0000
0000
0100
0000
0000
0010
0000
0000
0000
0000
0000
0010
0000
0000
0100
0000
0000
0000
0000
0000
0000
0000
0000
0000
0000
0000
,  // measure 21
1000
0001
0000
1000
0000
0000
0010
0000
0100
0001
0000
0001
1000
0000
0000
0000
,  // measure 22
0100
0001
1000
0010
0100
0001
0200
0000
0000
0010
0000
0000
,  // measure 23
0310
1000
0000
0010
0000
0000
0100
0000
0010
1000
0000
1000
0100
0000
0000
0000
,  // measure 24
0010
0000
0000
0000
0001
0000
0000
0000
1000
0000
0000
0000
0010
0000
0000
0000
0100
0000
0000
0000
0001
0000
0000
0000
1000
0000
0000
0001
0000
0000
0000
0000
0000
1000
0000
0000
0001
0000
0000
0000
0000
0000
0000
0000
0000
0000
0000
0000
,  // measure 25
0100
0010
0000
1000
0000
0000
0010
0000
0001
0010
0000
0010
0100
0000
0000
0000
,  // measure 26
0010
1000
0100
0010
0001
0010
2000
0000
0000
0001
0000
0000
,  // measure 27
3010
0100
0000
0010
0000
0000
0100
0000
1000
0010
0000
0010
0100
0000
0000
0000
,  // measure 28
0001
0000
0000
0000
0010
0000
0000
0000
0100
0000
0000
0000
0010
0000
0000
0000
0100
0000
0000
0000
1000
0000
0000
0000
0100
0000
0000
0010
0000
0000
0000
0000
0000
0010
0000
0000
0100
0000
0000
0000
0000
0000
0000
0000
0000
0000
0000
0000
,  // measure 29
0100
0010
0000
0010
0000
0000
0010
0000
0001
1000
0000
1000
0100
0000
0000
0000
,  // measure 30
0100
0010
0100
1000
0001
1000
0002
0000
0000
1003
0000
0000
,  // measure 31
1000
0100
0000
0100
0000
0000
0100
0000
0010
1000
0000
0001
1000
0000
0000
0000
,  // measure 32
0100
0000
0000
0000
0010
0000
0000
0000
0001
0000
0000
0000
0010
0000
0000
0000
0100
0000
0000
0000
1000
0000
0000
0000
0001
0000
0000
1000
0000
0000
0000
0000
0000
1000
0000
0000
0010
0000
0000
0000
0000
0000
0000
0000
0000
0000
0000
0000
,  // measure 33
0100
0010
0000
0100
0000
0000
0001
0000
1000
0100
0000
0100
0010
0000
0000
0000
,  // measure 34
0001
0010
0100
0010
0001
0010
0200
0000
0000
0000
0000
0000
,  // measure 35
0310
0100
0000
0100
0000
0000
1000
0000
0100
1000
0000
0001
1000
0000
0000
0000
,  // measure 36
0010
0000
0000
0000
0100
0000
0000
0000
1000
0000
0000
0000
0001
0000
0000
0000
0010
0000
0000
0000
0100
0000
0000
0000
1000
0000
0000
0010
0000
0000
0000
0000
0000
0100
0000
0000
0001
0000
0000
0000
0000
0000
0000
0000
0000
0000
0000
0000
,  // measure 37
1000
0100
0000
0001
0000
0000
0010
0000
0100
0010
0000
0010
0100
0000
0000
0000
,  // measure 38
0001
0010
0001
0010
0100
1000
0200
0000
0000
0310
0000
0000
,  // measure 39
0001
1000
0000
0100
0000
0000
0010
0000
0001
0010
0000
0010
0100
0000
0000
0000
,  // measure 40
1000
0000
0000
0000
0100
0000
0000
0000
0010
0000
0000
0000
0001
0000
0000
0000
1000
0000
0000
0000
0100
0000
0000
0000
0010
0000
0000
0001
0000
0000
0000
0000
0000
0001
0000
0000
1000
0000
0000
0000
0000
0000
0000
0000
0000
0000
0000
0000
,  // measure 41
0100
0010
0000
0100
0000
0000
0001
0000
1000
0100
0000
0010
0001
0000
0000
0000
,  // measure 42
1000
0100
1000
0100
1000
0100
1000
0000
0000
0001
0000
0000
,  // measure 43
1000
0100
0000
0010
0000
0000
0001
0000
0010
0100
0000
0100
1000
0000
0000
0000
,  // measure 44
1000
0000
0000
0000
0100
0000
0000
0000
0010
0000
0000
0000
0100
0000
0000
0000
0010
0000
0000
0000
0001
0000
0000
0000
1000
0000
0000
0010
0000
0000
0000
0000
0000
0010
0000
0000
0100
0000
0000
0000
0000
0000
0000
0000
0000
0000
0000
0000
,  // measure 45
0001
0010
0000
0100
0000
0000
1000
0000
0100
0010
0000
0010
0100
0000
0000
0000
,  // measure 46
1000
0100
0010
0001
0010
0001
2000
0000
0000
3001
0000
0000
,  // measure 47
0100
0010
0000
1000
0000
0000
0001
0000
0100
0010
0000
0010
0100
0000
0000
0000
,  // measure 48
0100
0000
0000
0000
0010
0000
0000
0000
1000
0000
0000
0000
0001
0000
0000
0000
0100
0000
0000
0000
0010
0000
0000
0000
0100
0000
0000
0001
0000
0000
0000
0000
0000
0001
0000
0000
1000
0000
0000
0000
0000
0000
0000
0000
0000
0000
0000
0000
,  // measure 49
0100
0010
0000
0100
0000
0000
0001
0000
0100
0001
0000
0001
1000
0000
0000
0000
,  // measure 50
1000
0100
1000
0001
1000
0010
0200
0000
0000
0010
0000
0000
,  // measure 51
0310
0000
0000
0000
0000
0000
0000
0000
0000
0000
0000
0000
0000
0000
0000
0000
0000
0000
0000
0000
0000
0000
0000
0000
0000
0000
0000
0000
0000
0000
0000
0000
0000
0000
0000
0000
1000
0000
0000
0000
0000
0000
0000
0000
0000
0000
0000
0000
0000
0000
0000
0000
0000
0000
0000
0000
0000
0000
0000
0000
0000
0000
0000
0000
0000
0000
0000
0000
0000
0000
0000
0000
0001
0000
0000
0000
0000
0000
0000
0000
0000
0000
0000
0000
0000
0000
0000
0000
0000
0000
0000
0000
0000
0000
0000
0000
0100
0000
0000
0000
0000
0000
0000
0000
0000
0000
0000
0000
0000
0000
0000
0000
0010
0000
0000
0000
0000
0000
0000
0000
0000
0000
0000
0000
0000
0000
0000
0000
0000
0000
0000
0000
0001
0000
0000
0000
0000
0000
0000
0000
0000
0000
0000
0000
1000
0000
0000
0000
0000
0000
0000
0000
0000
0000
0000
0000
0000
0000
0000
0000
0000
0000
0100
0000
0000
0000
0000
0000
0000
0000
0000
0000
0000
0000
0000
0000
0000
0000
0000
0000
0000
0000
0000
0000
0000
0000
0000
0000
0010
0000
0000
0000
,  // measure 52
0000
0000
0001
1000
0002
0000
0000
0000
0000
0000
0000
0000
0003
0000
0000
0000
;
