#TITLE:Steel Organ;
#SUBTITLE:;
#ARTIST:Kirby's Air Ride;
#TITLETRANSLIT:;
#SUBTITLETRANSLIT:;
#ARTISTTRANSLIT:;
#CREDIT:;
#BANNER:banner.png;
#BACKGROUND:background.png;
#LYRICSPATH:;
#CDTITLE:!kilgacdtitle.png;
#MUSIC:Kirby's Air Ride - Steel Organ.mp3;
#OFFSET:-4.770;
#SAMPLESTART:70.447;
#SAMPLELENGTH:12.260;
#SELECTABLE:YES;
#BPMS:0.000=161.160;
#STOPS:;
#BGCHANGES:;
// cache tags:
#FIRSTBEAT:0.000;
#LASTBEAT:288.000;
#SONGFILENAME:Songs/Community Keyboard Megapack - Volume 1/(Kilgamayan) Steel Organ/Steel Organ.sm;
#HASMUSIC:1;
#HASBANNER:1;
#MUSICLENGTH:121.051;
// end cache tags

//---------------dance-single - Heavy----------------
#NOTES:
     dance-single:
     Heavy:
     Hard:
     10:
     1.000,1.000,1.000,0.116,1.000,935.000,134.000,14.000,0.000,0.000:
1000
0001
1000
0010
1000
0011
0000
0001
1010
0000
0001
1100
0000
0001
0110
0000
,
0010
0001
0010
0100
0010
1100
0000
0100
0011
0000
0100
1010
0000
0100
1001
0000
,
0010
0100
1000
0010
0100
1001
0000
0010
0101
0000
0010
1001
0000
0010
1100
0000
,
0100
1000
0100
0010
0001
0110
0000
1000
0101
0000
1000
0110
0000
1000
0011
0000
,
1000
0100
1000
0100
1000
0100
0000
0010
0101
0000
0010
0101
0000
0010
1100
0000
,
0001
0100
0001
0100
0001
0100
0000
1000
0011
0000
1000
0011
0000
1000
0110
0000
,
1000
0001
1000
0001
1000
0001
0000
0100
1010
0000
0010
0101
0000
0110
1001
0000
,
0010
0100
0010
0100
0010
0100
0000
0001
1100
0000
1000
0011
0000
1001
0110
0000
,
0001
0010
0100
1000
0010
0100
0000
0001
1000
0000
0001
1000
0000
0001
1000
0000
,
0100
0001
1000
0100
0001
0010
0000
1000
0100
0000
0001
0010
0000
1000
0100
0000
,
0001
1000
0010
0100
0001
1000
0000
0010
0100
0000
0100
0010
0000
1000
0001
0000
,
1000
0100
0001
0100
1000
0100
0000
0010
0010
0000
0001
1000
0001
1000
0001
1000
,
0110
0000
0001
0010
0001
0000
1000
0100
1000
0000
0001
0010
0100
1000
0100
0010
,
1001
0010
0100
0010
0001
0000
0010
1000
0010
0000
0100
1000
0100
1000
0100
0001
,
1010
0100
1000
0001
1000
0000
0010
0100
0010
0000
0100
0010
0001
0010
0100
1000
,
0101
0010
0100
0010
1000
0000
0001
0010
0001
0010
0100
0010
0001
1000
0100
0010
,
1100
0001
0010
0100
1000
0000
0010
1000
0010
0100
1000
0001
0100
0001
0010
0100
,
1001
0100
1000
0100
1000
0000
0001
0100
0001
0000
0010
0001
0010
0001
0010
0100
,
1010
0100
0001
0100
0001
0000
1000
0100
0010
0001
0010
0100
1000
0100
0010
0001
,
1010
0001
0010
0001
0100
0000
0001
0010
0100
0010
0001
1000
0100
0010
0100
1000
,
0011
1000
0100
0010
0100
1000
0010
0001
0110
0001
0100
0001
1000
0010
1000
0001
,
1100
0010
0100
0010
0100
1000
0100
0001
0110
0001
1000
0001
1000
0001
0010
0100
,
1001
0010
0001
0100
0001
1000
0001
0100
0010
0001
0100
0001
1010
0100
1000
0100
,
0010
0001
1000
0100
1001
0010
0100
1000
0100
0010
1001
0100
1000
0001
0110
0000
,
1100
0001
0010
0100
1000
0010
0100
0010
1001
0100
1000
0001
1000
0100
0010
1000
,
0011
0100
0010
0001
1000
0100
0010
0100
1001
0010
0001
0100
0010
1000
0100
0010
,
0101
1000
0001
1000
0100
0010
0001
0100
1010
0001
0100
1000
0001
0010
0100
0001
,
0110
0001
0100
0010
0100
1000
0010
0100
1001
0100
0010
0001
0010
0100
1000
0100
,
0001
1000
0001
1000
0001
1000
0000
0010
0010
0000
0100
0100
0000
0010
0010
0000
,
1000
0100
1000
0100
1000
0100
0000
0001
0001
0000
0010
0010
0000
0001
0001
0000
,
0100
0010
0100
0010
0100
0010
0000
1000
1000
0000
0001
0001
0000
1000
1000
0000
,
0001
0100
0001
0010
0001
0100
0000
0010
0010
0000
1000
1000
0000
0100
0100
0000
,
0001
1000
0100
0010
0001
1000
0000
0001
0100
0000
0010
1000
0000
0001
1100
0000
,
0010
0100
0001
1000
0010
0100
0000
0010
0001
0000
0100
1000
0000
0010
0101
0000
,
1000
0001
1000
0010
1000
0100
0000
0001
0001
0000
0010
0010
0000
0100
1100
0000
,
0001
1000
0001
0100
0001
0010
0000
1000
1000
0000
0100
0100
0000
0010
1001
0000
,
2000
0000
0000
3000
0002
0000
0000
0003
0100
0000
0002
0000
0000
0003
0200
0000
,
0000
0300
0010
0000
2000
0000
0000
3000
0010
0000
0010
0000
0000
0000
0100
0000
,
0200
0000
0000
0300
0020
0000
0000
0030
0001
0000
0020
0000
0030
0000
0002
0000
,
0000
0003
0100
0000
0002
0000
0000
0003
1100
0010
0101
1000
0010
0100
1001
0100
,
0002
0000
0000
0000
,
2003
0000
0000
0000
,
3020
0000
0000
0000
,
0230
0000
0000
0300
,
1010
0001
0010
0100
1001
0100
0010
0001
0010
0001
1100
0001
0010
0100
0011
0000
,
0101
1000
0100
0010
0001
0100
1010
0000
1010
0001
1000
0001
0010
0100
1000
0010
,
0101
0010
0100
0010
1001
0010
1000
0100
0010
0001
0100
0010
1000
0100
0011
0100
,
0010
0001
0010
0100
1001
0000
0110
0000
1001
0000
0110
0001
0010
0001
1000
0100
,
0011
0100
0010
0001
1100
0001
1000
0010
0100
1000
0101
0010
1000
0100
0010
0001
,
0010
0100
1000
0001
1010
0000
1100
0011
1100
0000
0110
0001
0100
0010
1001
0010
,
0100
0010
0001
0010
1100
0001
0100
0010
1000
0100
0011
1000
0010
0100
0001
0100
,
0010
1000
0010
0100
1001
0100
0010
0001
0100
1000
0001
1000
0010
1000
0100
1000
,
0001
0010
0100
0001
0110
1000
0100
1000
0010
0001
1100
0001
0100
0001
0100
0010
,
1000
0100
0011
0000
1010
0100
0010
0001
1100
0000
0110
0001
0010
0100
1000
0010
,
0100
0001
0100
1000
0101
0010
1000
0010
0100
0001
0100
0010
1000
0100
1001
0010
,
0100
0010
1100
0000
0101
0010
0001
1000
0010
0100
1010
0001
0010
0001
0010
0100
,
1000
0100
1000
0001
0110
0001
1000
0010
1000
0100
0011
0100
0001
0100
0010
0100
,
0001
0010
0100
1000
0110
0000
0000
1010
0000
0000
1001
0010
0100
0010
0101
1000
,
0100
0010
0001
0010
1100
0001
1000
0100
0010
0001
1010
0001
0100
0010
1000
0010
,
0100
0001
0110
0000
1001
0010
0100
0010
1000
0100
1000
0010
1000
0001
1000
0010
,
1100
0001
0010
0001
0010
0100
0001
0100
1010
0001
1000
0001
1000
0010
0100
0010
,
1001
0100
0010
0001
0100
0010
1000
0001
0110
0001
0010
0001
0100
0001
0010
1000
,
0011
0100
1000
0100
0001
0010
0001
1000
0101
0010
1000
0100
0010
0001
0100
0010
,
1001
0000
0010
0000
0100
0000
0001
0000
0010
0000
1000
0000
0100
0000
0001
0000
0110
0000
0001
0000
0100
0000
0010
0000
1000
0000
0100
0000
0001
0010
0100
1000
,
0101
0010
0100
0010
0001
0100
0010
0001
1010
0100
0010
0001
0100
0010
0001
0010
,
1100
0000
0001
0000
1000
0000
0100
0000
1000
0000
0010
0000
1000
0000
0100
0000
0011
0000
1000
0000
0100
0000
1000
0000
0100
0000
0010
0000
0001
0010
0100
1000
,
0101
0010
1000
0100
0010
1000
0001
0100
1001
0100
0001
0100
0001
0100
1000
0001
,
1010
0100
1000
0100
0010
1000
0010
0001
0110
0001
0100
0010
1000
0001
0010
0100
,
1000
0100
0010
0100
1000
0100
0000
0001
0001
0000
0010
0010
0000
0001
0001
0000
,
0010
0100
0010
1000
0001
1000
0000
0100
0100
0000
0001
0001
0000
1000
1000
0000
,
0010
0100
0010
0100
0010
0100
0000
0001
0001
0000
1000
1000
0000
0110
0110
0000
,
1000
0001
1000
0001
1000
0001
0000
1100
1100
0000
0011
0011
0000
0110
0110
0000
,
1001
0000
0000
0000
;
