#TITLE:VerTex²;
#SUBTITLE:;
#ARTIST:ZiGZaG;
#TITLETRANSLIT:;
#SUBTITLETRANSLIT:;
#ARTISTTRANSLIT:;
#CREDIT:;
#BANNER:banner.png;
#BACKGROUND:bg.png;
#LYRICSPATH:;
#CDTITLE:;
#MUSIC:Vertex2.mp3;
#OFFSET:-0.040;
#SAMPLESTART:50.553;
#SAMPLELENGTH:12.800;
#SELECTABLE:YES;
#BPMS:0.000=280.000,156.000=196.000,157.000=140.000,161.500=140.020,189.000=296.000,222.000=316.000,254.000=335.500,286.000=350.080,318.000=87.721,330.000=97.601,331.000=138.001,332.000=175.461,343.000=350.920,406.000=555.017;
#STOPS:156.000=0.540
,189.000=2.380
,343.000=1.180
,404.000=0.300
,443.500=0.420
,445.500=0.440
;
#BGCHANGES:;
// cache tags:
#FIRSTBEAT:16.000;
#LASTBEAT:509.000;
#SONGFILENAME:Songs/Essential Sim Collection/(ITG) Vertex^2/Vertex2.sm;
#HASMUSIC:1;
#HASBANNER:1;
#MUSICLENGTH:113.456;
// end cache tags

//---------------dance-single - ----------------
#NOTES:
     dance-single:
     :
     Challenge:
     13:
     0.958,1.000,0.529,0.502,0.754,644.000,60.000,57.000,220.000,11.000:
0000
0000
0000
0000
,
0000
0000
0000
0000
,
0000
0000
0000
0000
,
0000
0000
0000
0000
,
1000
0000
0000
0100
0000
1000
0010
0000
,
0100
0000
0001
0010
0100
0000
0010
0001
,
0100
0000
0010
1000
0000
0100
0010
0000
,
0001
0000
0000
0000
,
1MMM
0000
0000
0M1M
0000
M10M
0001
0000
,
0001
0M00
M010
0100
10MM
0000
01M0
1000
,
0M00
0001
01M0
M000
0100
00M0
001M
1000
,
0000
1000
010M
0000
M01M
0000
0000
0000
,
M010
0001
1M00
0000
0010
0000
010M
0000
0000
0000
M10M
0000
0001
0000
0000
0000
,
0010
MM00
0001
0100
0010
M00M
0010
100M
,
0000
0100
0010
M00M
0010
M000
0001
M100
,
M0M1
0000
0000
1MM0
000M
0000
0000
0000
,
0010
1000
0001
0000
0200
0000
0000
0000
0010
0000
0000
0000
1000
0000
0300
0000
,
0100
0000
0010
1000
0002
0000
0010
1000
,
0003
0001
1000
0000
0020
0000
1000
0100
,
0000
0130
0010
0000
0200
0000
0000
0000
,
0310
1000
0001
0000
0020
0000
0000
0000
0001
0000
0000
0000
0001
0000
0100
0000
,
0030
0010
0001
0100
0010
0000
1000
0000
,
2M2M
0000
0000
3030
0000
0000
M11M
0000
,
M2M2
0000
0000
0303
0000
0000
1MM1
0000
,
2M2M
3030
1MM1
1M1M
,
M22M
0000
0000
0330
0000
0000
0000
0000
,
1M0M
0000
0020
0000
0100
0000
M001
0M00
,
0030
0010
0000
1000
000M
0200
0001
00M0
,
1000
030M
0100
10MM
0000
0200
0000
0010
,
100M
0300
0100
0000
002M
0000
0000
100M
,
0000
0000
0M01
0030
0000
0000
M200
0000
0000
0000
0001
0000
0000
0000
00M0
0000
,
1000
030M
0100
0000
0001
M020
0000
1000
,
000M
0001
M100
0030
0010
0000
0001
0100
,
00M0
0020
0000
M001
0M00
0030
0010
0000
,
M100
0000
M01M
0000
1000
0000
0000
02MM
,
0000
0001
M000
0010
100M
0300
01M0
0000
,
1000
002M
0000
0M01
0000
1030
0M20
0000
,
1000
0000
0001
M030
0000
M010
0000
0020
,
M20M
0000
0000
0000
,
100M
0330
M000
0000
M11M
0000
1M1M
0000
M1M1
0000
11MM
0000
1000
010M
0010
0001
,
0010
0100
1000
0002
0000
0003
M110
0000
0000
0000
M1M1
0000
0001
0100
0010
1000
,
0001
0010
0100
2000
0000
3000
01M1
0000
0000
0000
1MM1
0000
1000
00M1
0100
0010
,
1000
0010
0100
0001
0000
0000
1M1M
0000
0000
0000
M11M
0000
0001
0100
M010
0100
,
0001
1000
0010
2000
0000
3000
01M1
0000
0000
0000
MM11
0000
1000
0100
001M
0100
,
1000
0001
0100
0020
0000
0030
110M
0000
0000
0000
M1M1
0000
0010
1000
0100
0010
,
M001
0100
0010
2000
0000
3000
01M1
0000
0000
0000
1M1M
0000
0100
0001
0010
0100
,
100M
0010
0100
0200
0000
0300
M11M
0000
0000
0000
1MM1
0000
0010
1000
010M
1000
,
0010
0000
0000
0000
1000
0000
0000
0000
010M
0000
0000
0000
0200
0000
0000
0000
M0MM
0300
0000
0000
0000
0000
0000
0000
0000
0000
0000
0000
0000
0000
0000
0000
1200
0000
0000
0000
0000
0000
0000
0000
0000
0000
0000
0000
0000
0000
0000
0000
0010
0000
0000
0000
0000
0000
0000
0000
0000
0000
0000
0000
0000
0000
0000
0000
,
0310
0100
0020
0000
0001
0000
0000
1000
,
0000
0000
1000
0030
0010
0000
0000
0000
0012
0000
0000
0000
1000
0000
0100
0000
,
0000
0100
0000
1003
0001
0000
0020
0000
,
0001
0000
0030
0001
0011
0001
0020
0000
,
0001
0000
0000
0000
0100
0030
0010
0000
0000
0000
0001
0000
0100
0000
0000
0000
,
1000
0100
0010
0000
1020
1000
0000
1000
,
0100
0030
0010
0000
1001
2000
0000
0001
,
0100
0000
3100
0000
1200
0000
0000
0010
,
0000
1000
1300
0000
0000
0000
0000
0000
,
0000
1000
0000
0010
1020
0000
1000
0100
,
0030
0010
0100
0000
0002
0000
0000
0000
,
1000
0003
0000
0001
0101
0200
0001
0000
,
0010
0000
0301
0100
0000
0100
0020
0000
,
0130
0010
1000
0000
1001
0002
0000
1000
,
0100
0000
1000
0003
2002
0000
3003
0000
,
1002
0000
1003
0000
1100
1000
0001
0100
,
0000
0010
1000
0000
0100
0000
0100
1000
,
0010
0100
0001
0000
1001
1000
0010
1000
,
0000
1000
0100
0000
0010
0000
0001
1000
,
1000
0000
1000
0000
1001
0001
0010
0001
,
0100
0000
0010
1000
0100
0010
0001
0000
,
0001
0100
0010
0000
1010
1000
0100
0010
,
0001
0100
0001
0000
0101
0001
0100
0010
,
1000
0000
0000
0000
1000
0100
0010
0001
,
0010
0100
1000
0000
0001
0100
0010
1000
,
0001
0010
0100
0000
1000
0100
0010
0100
,
1000
0001
0100
0000
0010
1000
0001
0010
,
0001
1000
0010
0000
0100
0010
1000
0001
,
0100
0010
0100
0000
0001
0100
0010
1000
,
0001
0010
0100
0000
1000
0100
0010
0100
,
0010
0001
0010
0100
1000
0001
0100
0010
,
0100
0001
1000
0100
2200
0000
0000
0000
,
0001
0010
0001
0000
0000
0000
0000
0000
3300
0000
0000
0000
0000
0000
0000
0000
0000
0000
0202
0000
0000
0000
0000
0000
0000
0000
0000
0000
0000
0000
0000
0000
,
0000
0000
0000
0000
1000
0010
1000
0000
0000
0000
0000
0000
0000
0000
0000
0000
0303
0000
0000
0000
0000
2200
0000
0000
0000
0000
0000
0000
0000
0000
0000
0000
,
0000
0000
0000
0000
0000
0000
0000
0000
0010
0001
0010
0000
0000
0000
0000
0000
0000
0000
0000
0000
0000
0000
0000
0000
0000
0000
0000
0000
0000
0000
0000
0000
,
3300
0000
0000
0000
0000
0000
0000
0000
0000
0000
0000
0000
0000
0000
0000
0000
0000
0000
1000
0001
0000
0100
0001
0100
,
0001
0000
0000
1000
0000
0000
0010
0000
0000
0100
0000
0000
0001
0000
0000
0100
0000
0000
0001
0000
0000
1000
0000
0000
0100
0000
1000
0000
0100
0000
0000
0000
0000
1000
0000
0000
0001
0000
1000
0000
0001
0000
0000
0000
0100
0000
0000
0000
,
0001
0100
0001
0000
0100
0001
0100
0001
0100
0001
0000
1000
0001
1000
0001
0000
1000
0100
1000
0000
M000
0000
0000
0000
,
1000
000M
0100
0000
0010
0001
1M00
0000
,
1000
0000
0000
0010
0M0M
0010
1000
0000
,
0100
0000
0000
0000
0010
M000
0001
0000
1000
0000
01M0
0000
1000
0000
0001
0000
,
0100
M000
0100
0000
0010
100M
0100
0010
,
0001
1000
00M0
0001
0010
0100
100M
0100
,
0010
M000
0010
0001
1000
0010
010M
0000
,
0100
0010
1000
000M
1000
0001
0100
M010
,
0100
0001
00M0
0001
0000
1000
0100
001M
,
M100
0000
0000
0000
0100
0000
1000
00MM
0100
0000
0010
0000
M000
0000
0010
0000
,
0001
0000
1000
0000
0100
0000
1000
00M0
0100
000M
0010
M000
0001
0000
1000
0M00
,
0010
000M
0100
M000
0001
00M0
1000
0000
0100
000M
1000
00M0
0001
00M0
0100
M000
,
0010
0000
1000
0M00
0010
000M
0100
M000
0001
00M0
1000
0M00
0001
0000
0010
M000
,
0100
000M
0010
0000
0001
0M00
1000
00M0
0100
0000
0010
M000
0100
0000
0010
M000
,
0001
0M00
1000
00M0
0001
0000
0010
M000
0001
0000
1000
0000
0010
000M
1000
0000
,
0010
0000
0100
M000
0010
0000
1000
0000
0001
00M0
0100
0000
0002
0000
10M0
0000
,
MMM0
0003
0000
0000
0000
0000
0000
0000
0000
0000
0000
0000
0000
0000
0000
0000
0000
0000
0000
0000
0000
0000
0000
0000
0000
0000
0000
0000
0000
0000
0000
0000
1001
0000
0000
0000
0000
0000
0000
0000
0000
0000
0000
0000
0000
1000
0000
0000
0000
0000
0000
0000
0000
0000
0000
0000
0000
0100
0000
0000
0000
0000
0000
0000
,
0000
0000
0000
0000
0000
0010
0000
0000
0000
0000
0000
0000
0000
0000
0000
0000
0000
0001
0000
0000
0000
0000
0000
0000
0000
0000
0000
1000
0000
0000
0000
0000
0000
0000
0000
0000
0000
0000
0000
0010
0000
0000
0000
0000
0000
0000
0000
0000
0000
0000
0000
0000
0000
0000
0000
0000
0000
0000
0000
0000
0000
0000
0000
0000
,
0000
0000
MMMM
0000
,
0000
0000
0000
0000
0000
0000
0000
0000
0000
0000
0000
0000
0000
0000
0000
0000
0000
0000
0000
0000
0000
0000
0000
0000
0000
0000
0000
0000
0000
0000
0000
0000
1001
0000
0000
0000
0000
0000
0000
0000
0000
0000
0000
0000
0000
0001
0000
0000
0000
0000
0000
0000
0000
0000
0000
0000
0000
0010
0000
0000
0000
0000
0000
0000
,
0000
0000
0000
0000
0000
0001
0000
0000
0000
0000
0000
0000
0000
0000
0000
1000
0000
0000
0000
0000
0000
0000
0000
0000
0000
0000
0000
0010
0000
0000
0000
0000
0000
0000
0000
0000
0000
0000
0000
0100
0000
0000
0000
0000
0000
0000
0000
0000
0000
0000
0000
0000
0000
0000
0000
0000
0000
0000
0000
0000
0000
0000
0000
0000
,
0000
0000
MMMM
0000
,
0000
0000
0000
0000
0000
0000
0000
0000
0000
0000
0000
0000
0000
0000
0000
0000
0000
0000
0000
0000
0000
0000
0000
0000
0000
0000
0000
0000
0000
0000
0000
0000
1010
0000
0000
0000
0000
0000
0000
0000
0000
0000
0000
0000
0000
0100
0000
0000
0000
0000
0000
0000
0000
0000
0000
0000
0000
1000
0000
0000
0000
0000
0000
0000
,
0000
0000
0000
0000
0000
0100
0000
0000
0000
0000
0000
0000
0000
0000
0000
0000
0000
0010
0000
0000
0000
0000
0000
0000
0000
0000
0000
1000
0000
0000
0000
0000
0000
0000
0000
0000
0000
0000
0000
0001
0000
0000
0000
0000
0000
0000
0000
0000
0000
0000
0000
0000
0000
0000
0000
0000
0000
0000
0000
0000
0000
0000
0000
0000
,
0000
0000
MMMM
0000
,
0000
0000
0000
0000
0000
0000
0000
0000
0000
0000
0000
0000
0000
0000
0000
0000
0000
0000
0000
0000
0000
0000
0000
0000
0000
0000
0000
0000
0000
0000
0000
0000
1010
0000
0000
0000
0000
0000
0000
0000
0000
0000
0000
0000
0000
0010
0000
0000
000M
0000
0000
0000
0000
0000
0000
0000
1000
0000
0MM0
0000
0000
0000
0000
0000
,
0001
0000
0000
0000
0000
0000
0000
0000
0000
0000
0000
0100
0000
0000
0000
0000
0000
0000
0000
0000
0000
0000
0000
0000
M001
0000
0000
0M00
0000
0000
0000
0000
1001
0000
0000
0000
0000
00M0
0000
0000
0000
0000
0000
0000
0000
1000
0000
0000
0000
0000
0000
0000
0000
0000
0000
0000
0000
0010
0000
0000
0000
0000
0000
0000
,
0000
0000
0000
0000
0000
0100
0000
0000
0000
0000
0000
0000
0000
0000
0000
0000
0000
0010
0000
0000
0000
0000
0000
0000
0000
0000
0000
1000
0000
0000
0000
0000
0000
0000
0000
0000
0000
0000
0000
0100
0000
0000
0000
0000
0000
0000
0000
0000
0000
0000
0000
0000
0000
0000
0000
0000
0000
0000
0000
0000
0000
0000
0000
0000
,
1100
0000
0000
0000
0000
0000
0000
0000
0000
0000
0000
0000
0000
0100
0000
0000
0000
0000
0000
0000
0000
0000
0000
0000
0000
0010
0000
0000
0000
0000
0000
0000
0000
0000
0000
0000
0000
0001
0000
0000
0000
0000
0000
0000
0000
0000
0000
0000
0000
1000
0000
0000
0000
0000
0000
0000
0000
0000
0000
0100
0000
0000
0000
0000
,
0000
0000
0000
0000
0000
0000
0000
0010
0000
0000
0000
0000
0000
0000
0000
0000
0000
0000
0000
0000
0000
0000
0000
0000
0000
0000
0000
0000
0000
0000
0000
0000
0011
0000
0000
0000
0000
0000
0000
0000
0000
0000
0000
0000
0000
0010
0000
0000
0000
0000
0000
0000
0000
0000
0000
0000
0000
0100
0000
0000
0000
0000
0000
0000
,
0000
0000
0000
0000
0000
0010
0000
0000
0000
0000
0000
0000
0000
0000
0000
0000
0000
1000
0000
0000
0000
0000
0000
0000
0000
0000
0000
0010
0000
0000
0000
0000
0000
0000
0000
0000
0000
0000
0000
1000
0000
0000
0000
0000
0000
0000
0000
0000
0000
0000
0000
0000
0000
0000
0000
0000
0000
0000
0000
0000
0000
0000
0000
0000
,
0110
0000
0000
0000
0000
0000
0000
0000
0000
0000
0000
0000
0000
0100
0000
0000
0000
0000
0000
0000
0000
0000
0000
0000
0000
0001
0000
0000
0000
0000
0000
0000
0000
0000
0000
0000
0000
0100
0000
0000
0000
0000
0000
0000
0000
0000
0000
0000
0000
0010
0000
0000
0000
0000
0000
0000
0000
0000
0000
1000
0000
0000
0000
0000
,
0000
0000
0000
0000
0000
0000
0000
0010
0000
0000
0000
0000
0000
0000
0000
0000
0000
0000
0000
0000
0000
0000
0000
0000
0000
0000
0000
0000
0000
0000
0000
0000
1010
0000
0000
0000
0000
0000
0000
0000
0000
0000
0000
0000
0000
1000
0000
0000
0000
0000
0000
0000
0000
0000
0000
0000
0000
0001
0000
0000
0000
0000
0000
0000
,
0000
0000
0000
0000
0000
0100
0000
0000
0000
0000
0000
0000
0000
0000
0000
0000
0000
0010
0000
0000
0000
0000
0000
0000
0000
0000
0000
1000
0000
0000
0000
0000
0000
0000
0000
0000
0000
0000
0000
0001
0000
0000
0000
0000
0000
0000
0000
0000
0000
0000
0000
0000
0000
0000
0000
0000
0000
0000
0000
0000
0000
0000
0000
0000
,
1001
0000
0000
0000
0000
0000
0000
0000
0000
0000
0000
0000
0000
0010
0000
0000
0000
0000
0000
0000
0000
0000
0000
0000
0000
0001
0000
0000
0000
0000
0000
0000
0000
0000
0000
0000
0000
1000
0000
0000
0000
0000
0000
0000
0000
0000
0000
0000
0000
0010
0000
0000
0000
0000
0000
0000
0000
0000
0000
1000
0000
0000
0000
0000
,
0000
0000
0000
0000
0000
0000
0000
0001
0000
0000
0000
0000
0000
0000
0000
0000
0000
0000
0000
0000
0000
0000
0000
0000
0000
0000
0000
0000
0000
0000
0000
0000
0011
0000
0000
0000
0000
0000
0000
0000
0000
0000
0000
0000
0000
0001
0000
0000
0000
0000
0000
0000
0000
0000
0000
1000
0000
0000
0000
0000
0000
0000
0000
0000
,
0000
0000
0000
0001
0000
0000
0000
0000
0000
0000
0000
0000
0000
0000
0000
0000
1001
0000
0000
0000
0000
0000
0000
0000
0000
0000
0000
0000
0000
1000
0000
0000
0000
0000
0000
0000
0000
0000
0000
0010
0000
0000
0000
0000
0000
0000
0000
0000
0000
0000
0000
1000
0000
0000
0000
0000
0000
0000
0000
0000
0000
0000
0000
0000
,
1010
0000
0000
0000
0000
0000
0000
0000
0000
0000
0000
0000
0000
0010
0000
0000
0000
0000
0000
0000
0000
0000
0000
1000
0000
0000
0000
0000
0000
0000
0000
0000
0000
0000
0000
0001
0000
0000
0000
0000
0000
0000
0000
0000
0000
0000
0000
0000
1001
0000
0000
0000
0000
0000
0000
0000
0000
0000
0000
0000
0000
1000
0000
0000
,
0000
0000
0000
0000
0000
0000
0000
0001
0000
0000
0000
0000
0000
0000
0000
0000
0000
0000
0000
1000
0000
0000
0000
0000
0000
0000
0000
0000
0000
0000
0000
0000
2MM2
0000
0000
0000
0000
0000
0000
0000
0000
0000
0000
0000
0000
0000
0000
0000
0000
0000
0000
0000
0000
0000
0000
0000
0000
0000
0000
0000
0000
0000
0000
0000
,
0000
0MM0
0000
0000
0000
0000
0000
0000
0000
0000
0000
0MM0
0000
0000
0000
0000
,
0000
0M10
0000
0000
,
0000
0000
0000
0000
,
3MM3
MMMM
0000
0000
;
