#TITLE:Call me it.;
#SUBTITLE:(500 Tortures);
#ARTIST:t+pazolite;
#TITLETRANSLIT:;
#SUBTITLETRANSLIT:;
#ARTISTTRANSLIT:;
#CREDIT:;
#BANNER:call me it bn.png;
#BACKGROUND:call me it bg.png;
#LYRICSPATH:;
#CDTITLE:;
#MUSIC:Call me it (500 Tortures).ogg;
#OFFSET:-0.042;
#SAMPLESTART:93.900;
#SAMPLELENGTH:15.593;
#SELECTABLE:YES;
#DISPLAYBPM:250.000;
#BPMS:0.000=125.000,64.000=62.430,65.000=250.000;
#STOPS:;
#BGCHANGES:;
// cache tags:
#FIRSTBEAT:32.000;
#LASTBEAT:457.000;
#SONGFILENAME:Songs/SPEEEDCOOOORE 3/Call Me It - [Tyler]/call me it.sm;
#HASMUSIC:1;
#HASBANNER:1;
#MUSICLENGTH:128.504;
// end cache tags

//---------------dance-single - T. Moore----------------
#NOTES:
     dance-single:
     T. Moore:
     Challenge:
     13:
     1.000,1.000,0.350,0.490,0.588,867.000,45.000,63.000,6.000,0.000:
0000
0000
0000
0000
,
0000
0000
0000
0000
,
0000
0000
0000
0000
,
0000
0000
0000
0000
,
0000
0000
0000
0000
,
0000
0000
0000
0000
,
0000
0000
0000
0000
,
0000
0000
0000
0000
,
1001
0000
0000
0000
0001
0100
0000
0000
1010
0000
0000
0000
1000
0001
0000
0000
,
0010
0100
1000
0100
0010
0001
0000
0001
0000
1000
0001
1000
0010
0100
0001
1000
,
0100
0010
0001
1000
0000
0001
0100
0010
1000
0000
1000
0000
1000
0001
0000
0010
,
0100
1000
0100
1000
0000
0001
0000
0001
0000
0100
0001
0000
1000
0100
0010
0001
,
1000
0000
0000
0000
0001
0100
0000
0000
1010
0000
0000
0000
1000
0001
0000
0000
,
0010
0100
1000
0100
0010
0001
0000
0001
0000
1000
0001
1000
0010
0100
0001
1000
,
0100
0010
0100
1000
0000
0001
1000
0001
0100
0000
0100
0000
0010
0100
0000
0010
,
1000
0001
1000
0001
0000
1000
0000
1000
0000
0100
1000
0000
0001
0100
0010
1000
,
0001
0000
0000
0000
,
0000
0000
1001
0001
0010
0100
1000
0001
,
0100
0000
0010
0000
1000
0010
1000
0000
0001
0000
0010
0000
0100
0000
1000
0000
,
0001
0100
0001
0100
0010
0000
1000
0000
0001
0000
0010
0000
0100
0000
1000
0000
,
0001
0000
0100
0000
0010
1000
0001
0000
0010
0000
0100
0000
1000
0000
0001
0000
,
1000
0010
1000
0010
0100
0000
0001
0000
1000
0000
0001
0000
0010
0000
0100
0000
,
1000
0000
0001
0000
0100
0001
0100
0000
0010
0000
1000
0000
0100
0000
0010
0000
,
0001
1000
0001
1000
0010
0000
0100
0000
0001
0000
1000
0000
0100
0000
0010
0000
,
0001
0100
0110
0000
1010
0000
1100
0000
,
0011
0000
1001
1000
0100
0010
0001
1000
,
0010
0000
0100
0000
0001
0100
0001
0000
1000
0000
0100
0000
0010
0000
0001
0000
,
1000
0010
1000
0010
0100
0000
0001
0000
1000
0000
0100
0000
0010
0000
0001
0000
,
1000
0000
0010
0000
0100
0001
1000
0000
0100
0000
0010
0000
0001
0000
1000
0000
,
0001
0100
0001
0100
0010
0000
1000
0000
0001
0000
1000
0000
0100
0000
0010
0000
,
0001
0000
1000
0000
0010
1000
0010
0000
0100
0000
0001
0000
0010
0000
0100
0000
,
1000
0001
1000
0001
0100
0000
0000
0010
0000
0000
1000
0000
0000
0100
0000
0000
,
0010
0000
0001
0000
1000
0010
1000
0010
0100
0000
0001
0000
1000
0100
1000
0100
,
0040
0000
0032
0000
1003
0001
0100
0001
,
0100
0020
0000
1030
0010
0200
0000
0310
,
0100
0001
0010
0100
0010
0001
0100
0010
,
1000
0001
0010
0100
1000
0001
0100
0010
,
0100
0010
2000
0000
3010
1000
0001
1000
,
0001
0020
0000
0031
0010
0200
0000
0310
,
0100
1000
0010
0100
0001
1000
0001
0010
,
0100
1000
0001
0100
0010
1000
0001
0010
,
0001
0100
0020
0000
0130
0010
1000
0001
,
1000
0200
0000
0310
0001
2000
0000
3001
,
1000
0001
0100
0010
0100
0001
0010
0100
,
1000
0001
0100
0001
1000
0001
0100
0010
,
0100
0010
2000
0000
3010
1000
0001
1000
,
0001
0020
0000
0031
0010
0200
0000
0310
,
0100
0010
0001
0100
0010
1000
0100
1000
,
0001
0100
0010
1000
0100
1000
0001
1000
,
0001
1000
1002
0000
1003
0001
0100
0001
,
0100
0020
0000
1030
0010
0200
0000
0310
,
0100
0001
0010
0100
0010
0001
0100
0010
,
1000
0001
0010
0100
1000
0001
0100
0010
,
0100
0010
2000
0000
3010
1000
0001
1000
,
0001
0020
0000
0031
0010
0200
0000
0310
,
0100
1000
0010
0100
0001
1000
0001
0010
,
0100
1000
0001
0100
0010
1000
0001
0010
,
0001
0100
0210
0000
0310
0100
0001
1000
,
0001
0020
0000
0130
1000
0001
1001
0000
,
1001
0000
0101
0100
0010
1000
0100
0010
,
0001
1000
0010
1000
0001
1000
1010
0000
,
1010
0101
0000
1001
,
0000
1100
0000
0110
,
0110
0011
1001
1010
,
0110
0000
0000
0000
0101
0000
0001
0000
1000
0000
0000
0000
0001
1000
0001
1000
,
0100
0000
0000
0000
0011
0000
0001
1000
0001
0000
0100
0000
0020
0000
0000
0000
,
0130
0000
0002
0000
0000
0000
1003
0001
1000
0000
0100
0000
0010
0000
0100
0010
,
0002
0000
0000
0000
1003
0000
0001
1000
0001
0000
0100
0000
0020
0000
0000
0000
,
0130
0000
0002
0000
0000
0000
1003
0000
0100
0000
0010
0000
0001
0000
1000
0001
,
1000
0000
0001
0000
0100
0000
0010
1000
0010
0000
0100
0000
0002
0000
0000
0000
,
1003
0000
0200
0000
0000
0000
0310
0001
0010
0000
0100
0000
1000
0000
0100
1000
,
0002
0000
0000
0000
0103
0000
0010
1000
0010
0000
0100
0000
0002
0000
0000
0000
,
0013
0000
0200
0000
0000
0000
1300
0000
0001
0000
1000
0000
0010
0000
0100
0001
,
0100
0010
1001
0000
0000
1100
0000
0100
,
0010
0000
0011
0000
0000
1001
0000
0001
,
0100
0010
1001
0000
0000
1100
0000
0100
,
0010
0001
1001
0000
1001
0000
1010
0000
,
1010
0000
0101
0001
1000
0001
0011
0010
,
0100
1000
1001
0001
0100
0010
1010
1000
,
1001
0000
0001
0000
1000
0100
1000
0001
0010
0001
1000
0100
0010
0001
1000
0001
,
0010
0100
1000
0001
0100
0010
1000
0001
0010
0100
1000
0001
0100
0000
0000
0000
,
0MM0
0000
0000
0000
1001
0000
0001
0010
0100
0000
1000
0000
0001
0000
0100
0010
,
1000
0000
0001
0000
0010
0000
0100
1000
0001
0000
0100
0000
0010
0000
1000
0100
,
0010
0001
0010
0001
1000
0000
0010
0100
0001
0000
1000
0000
0100
0000
0010
0001
,
1000
0001
1000
0001
0200
0000
0310
0000
2000
0000
3010
0000
0200
0000
0301
0000
,
0020
0000
0130
0000
1000
0000
0001
1000
0010
0000
0100
0000
0010
0000
1000
0001
,
0010
0000
0100
0000
1000
0000
0001
0100
0010
0000
1000
0000
0100
0000
0010
0001
,
1000
0001
1000
0001
0100
0000
0010
1000
0001
0000
0010
0000
0100
0000
1000
0001
,
0100
0010
2000
0000
0000
0000
3001
0000
1000
0000
0010
0000
0100
0000
0001
1000
,
0100
0000
0010
0000
0001
0000
0100
0010
1000
0000
0001
0000
0010
0000
0100
1000
,
0010
0000
0100
0000
0001
0000
0010
0100
1000
0000
0001
0000
0100
0000
0010
1000
,
0001
0010
0001
0010
0100
0000
1000
0001
0100
0000
0010
0000
1000
0000
0100
0010
,
0001
1000
0001
1000
0020
0000
0130
0000
0002
0000
0103
0000
0020
0000
1030
0000
,
0200
0000
0310
0000
0001
0000
1000
0001
0100
0000
0010
0000
1000
0000
0100
0010
,
0001
0000
0100
0000
0001
0000
1000
0100
0010
0000
0001
0000
0100
0000
0010
1000
,
0001
1000
0001
0010
0100
0000
1000
0010
0100
0000
0001
0000
0010
0000
0100
1000
,
0001
0100
0020
0000
0000
0000
0130
0000
0010
0000
1000
0000
00M1
0000
0000
0000
,
1M00
0000
0000
0000
1001
0000
0001
0010
0100
0000
1000
0000
0002
0000
0000
0000
,
0103
0000
0002
0000
0000
0000
1003
0001
0010
0000
0100
0000
1000
0000
0001
0100
,
0020
0000
0000
0000
1030
0000
0010
0100
0001
0000
1000
0000
0100
0000
0100
0000
,
0010
0010
0002
0103
0020
1030
0200
1300
,
0020
0000
0130
0000
0001
0000
1000
0001
0010
0000
0100
0000
2000
0000
0000
0000
,
3001
0000
0200
0000
0000
0000
0310
1000
0001
0000
0010
0000
0100
0000
0010
0001
,
2000
0000
0000
0000
3001
0000
0100
0010
1000
0000
0001
0000
0010
0000
0010
0000
,
0100
0000
2000
0000
0000
0000
3100
0000
0010
0000
0001
0000
10M0
0000
0001
1000
,
0M10
0000
0100
0000
0001
0000
1000
0001
1000
0000
0100
0000
0020
0000
0000
0000
,
0031
0000
0200
0000
0000
0000
0301
0100
0010
0000
1000
0000
0100
0000
1000
0010
,
0200
0000
0000
0000
0301
0000
1000
0100
0010
0000
0001
0000
0100
0000
0100
0000
,
0001
0001
0020
0130
2000
3100
0020
0031
,
0200
0000
0301
0000
1000
0000
0100
0010
0001
0000
0100
0000
0002
0000
0000
0000
,
1003
0000
0200
0000
0000
0000
0310
0001
1000
0000
0010
0000
0100
0000
0001
1000
,
0200
0000
0000
0000
0310
0000
0100
1000
0001
0000
0100
0000
0010
0000
0010
0000
,
1000
0000
0200
0000
0000
0000
1300
0000
0010
0000
0100
0000
0001
0000
0010
0100
,
1000
0010
0200
0000
0000
0000
0000
0000
,
0000
0300
0000
0000
;
