#TITLE:Becoming Insane;
#SUBTITLE:;
#ARTIST:Infected Mushroom;
#TITLETRANSLIT:;
#SUBTITLETRANSLIT:;
#ARTISTTRANSLIT:;
#CREDIT:Mad Matt;
#BANNER:../Tachyon Gamma-bn.png;
#BACKGROUND:../Tachyon Gamma-bg.png;
#LYRICSPATH:;
#CDTITLE:;
#MUSIC:Becoming Insane.ogg;
#OFFSET:-1.664;
#SAMPLESTART:96.400;
#SAMPLELENGTH:18.000;
#SELECTABLE:YES;
#DISPLAYBPM:152.000;
#BPMS:0.000=152.000;
#STOPS:;
#BGCHANGES:;
// cache tags:
#FIRSTBEAT:8.000;
#LASTBEAT:388.000;
#SONGFILENAME:Songs/Tachyon Gamma/Becoming Insane - [Mad Matt]/Becoming insane.sm;
#HASMUSIC:1;
#HASBANNER:1;
#MUSICLENGTH:158.321;
// end cache tags

//---------------dance-single - Mad Matt----------------
#NOTES:
     dance-single:
     Mad Matt:
     Challenge:
     13:
     0.973,1.000,0.303,0.240,1.000,991.000,48.000,38.000,0.000,0.000:

0000
0000
0000
0000
,
0000
0000
0000
0000
,
1000
0000
0000
0001
0100
0001
0100
0000
0000
0010
0000
0000
0000
0000
0000
0010
0000
0000
0000
0000
0000
0101
0000
0000
,
0000
1010
0000
0001
0010
0000
0000
0000
,
0100
0000
0000
1000
0001
1000
0001
0000
0000
0010
0000
0000
0000
0000
0000
0010
0000
0000
0000
0000
0000
1100
0000
0000
,
0000
1100
0000
0001
1000
0000
0000
0000
,
0001
0000
0000
0100
0010
0100
0010
0000
0000
1000
0000
0000
0000
0000
0000
1000
0000
0000
0000
0000
0000
0100
0000
0000
,
0000
0000
0100
0000
0000
0000
1000
0000
0010
0100
0001
0000
1000
0000
0000
0000
,
0101
0000
0000
0001
0100
0000
0010
0000
1000
0000
0100
0000
1000
0000
0010
0000
,
0100
0001
0000
0100
0001
0000
0010
0000
0100
0000
0000
0000
1100
0000
0000
0000
,
1010
0000
0000
0010
0100
0000
0001
0000
0010
0000
0001
0000
0100
0000
0010
0000
,
1000
0100
0000
1000
0100
0000
0010
0000
0001
0000
0000
0000
0101
0000
0000
0000
,
0110
0000
0000
0010
1000
0000
0001
0000
0010
0000
0001
0000
1000
0000
0010
0000
,
0100
0001
0000
0100
0001
0000
1000
0000
0100
0000
0000
0000
0110
0000
0000
0000
,
1100
0000
0000
1000
0010
0000
0100
0000
0001
0000
0010
0000
0100
0000
1000
0000
,
1010
0000
0000
0000
0000
0000
0000
0000
0000
0010
0000
0000
0000
0000
0000
0000
0000
0000
0100
0000
0000
0000
0000
0000
0100
0000
0000
0000
0000
0000
0000
0000
0000
0000
0000
0000
0001
0000
0100
0000
0001
0000
0100
0000
0001
0000
0100
0000
,
0001
0000
0000
1000
0000
0000
0100
0000
0000
1000
0000
0000
0001
0000
0000
0100
0000
0000
0001
0000
0000
1000
0000
0000
0100
0000
0000
1000
0000
0000
0001
0000
0000
0010
0000
0000
0100
0000
0000
1000
0000
0000
0010
0000
0100
0000
0010
0000
,
0100
0000
0000
0001
0000
0000
0010
0000
0000
0001
0000
0000
1000
0000
0000
0100
0000
0000
1000
0000
0000
0001
0000
0000
0100
0000
0000
0001
0000
0000
0010
0000
0000
0100
0000
0000
1000
0000
0001
0000
1000
0000
0001
0000
0000
0010
0000
0000
,
0100
0000
0000
1000
0000
0000
0010
0000
0000
1000
0000
0000
0001
0000
0000
0100
0000
0000
0001
0000
0000
1000
0000
0000
0100
0000
0010
0000
0100
0000
0010
0000
0000
0001
0000
0000
0100
0000
0000
0001
0000
0000
1000
0000
0000
0100
0000
0000
,
0010
0000
0000
0001
0000
0000
0100
0000
0100
0000
0000
0000
0000
0000
0000
0000
,
0001
0000
0010
0000
0001
0000
0010
0000
0000
0100
0000
0000
1000
0000
0000
0001
0000
0000
0100
0000
0000
0001
0000
0000
1000
0000
0000
0100
0000
0000
1000
0000
0000
0001
0000
0000
0010
0000
0000
0001
0000
0000
1000
0000
0000
0010
0000
0000
,
1000
0001
0010
0100
1000
0001
1000
0100
0010
0001
1000
0010
1000
0001
0100
0001
,
1000
0000
0000
0100
0000
0000
0010
0000
0000
0001
0000
0000
0010
0000
0000
0100
0000
0000
1000
0000
0001
0000
1000
0000
0001
0000
0000
0100
0000
0000
0010
0000
0000
0100
0000
0000
0001
0000
0000
1000
0000
0000
0010
0000
0000
1000
0000
0000
,
0001
0000
0000
0000
0000
0000
0000
0000
0000
0010
0000
0000
0000
0000
0000
0000
0000
0000
0100
0000
0000
0000
0000
0000
0100
0000
0000
0000
0000
0000
0000
0000
0000
0000
0000
0000
1000
0000
0100
0000
1000
0000
0100
0000
1000
0000
0100
0000
,
1000
0000
0000
0001
0000
0000
0100
0000
0000
0010
0000
0000
1000
0000
0000
0001
0000
0000
0010
0000
0000
0001
0000
0000
0100
0000
0000
0010
0000
0000
1000
0000
0000
0001
0000
0000
1000
0000
0100
0000
0010
0000
0001
0000
0010
0000
0001
0000
,
1000
0000
0000
0010
0000
0000
1000
0000
0000
0001
0000
0000
0100
0000
0000
0010
0000
0000
1000
0000
0000
0001
0000
0000
0010
0000
0000
0100
0000
0000
1000
0000
0000
0001
0000
0000
0100
0000
0000
0010
0000
0000
1000
0000
0001
0000
1000
0000
,
0001
0000
0000
0010
0000
0000
0100
0000
0000
1000
0000
0000
0001
0000
0000
1000
0000
0000
0010
0000
0000
1000
0000
0000
0001
0000
0010
0000
0001
0000
0010
0000
0000
0100
0000
0000
1000
0000
0000
0100
0000
0000
0010
0000
0000
0001
0000
0000
,
0100
0000
0000
0000
0000
0000
0000
0000
0000
0010
0000
0000
0000
0000
0000
0000
0000
0000
1000
0000
0000
0000
0000
0000
1000
0000
0000
0000
0000
0000
0000
0000
0000
0000
0000
0000
0001
0000
0100
0000
0001
0000
0100
0000
0001
0000
0100
0000
,
0001
1000
0010
1000
0001
0010
0100
1000
0010
1000
0100
0010
0001
0100
0001
1000
,
0010
0100
0001
0010
0001
0100
0010
1000
0001
0010
0001
1000
0010
1000
0100
0010
,
0001
0000
0000
0100
0000
0000
0001
0000
0000
0010
0000
0000
0100
0000
0000
1000
0000
0000
0001
0000
0100
0000
0001
0000
0100
0000
0000
0010
0000
0000
1000
0000
0000
0001
0000
0000
1000
0000
0000
0100
0000
0000
1000
0000
0000
0010
0000
0000
,
0100
0000
0000
0001
0000
0000
1000
0000
1000
0000
0000
0000
0000
0000
0001
0000
,
1000
0000
0000
0010
0100
0010
0100
0000
0000
0001
0000
0000
0000
0000
0000
1000
0000
0000
0100
0000
0000
0020
0000
0000
,
0004
0000
0000
0000
0000
0000
0030
0000
0000
0000
0000
0000
2000
0000
0000
0003
0000
0000
0020
0000
0000
3000
0000
0000
0000
0000
0000
0000
0000
0000
0200
0000
0030
0000
0000
0000
0302
0000
0000
0000
0000
0000
1003
0000
0100
0000
1000
0000
,
0100
0000
0000
0010
0000
0000
0001
0000
1000
0000
0010
0000
0100
0000
0001
0000
,
1000
0000
0000
0100
0000
0000
0010
0000
0010
0000
0000
0000
0000
0000
0001
0000
,
1000
0000
0000
0010
0100
0010
0100
0000
0000
0001
0000
0000
0000
0000
0000
0100
0000
0000
0010
0000
0000
1000
0000
0000
,
0001
0000
0000
0010
0100
0010
0100
0000
0000
1000
0000
0000
0000
0000
0000
0100
0000
0000
0010
0000
0000
0001
0100
0001
,
0100
0000
0000
0010
0000
0000
1000
0000
0001
0000
0010
0000
0100
0000
1000
0000
,
0001
0000
0000
0100
0000
0000
0010
0000
0010
0000
0000
0000
0000
0000
0000
0000
,
0102
0000
0010
0000
0000
1000
0000
0100
,
0000
0010
0000
0003
0011
0000
0110
0000
,
2100
0000
0010
0000
0000
0001
0000
0100
,
0000
0010
0000
3000
1010
0000
0110
0000
,
0102
0000
0010
0000
0000
1000
0000
0100
,
0000
0010
0000
0003
0011
0000
0110
0000
,
2100
0000
0010
0000
0000
0001
0000
0100
,
0000
0010
0000
3000
1010
0000
0110
0000
,
0100
0001
1000
0001
0100
0001
0010
0100
1000
0001
1000
0100
1000
0001
0100
0010
,
1000
0100
1000
0001
0100
0010
1000
0001
0010
0001
1000
0010
1000
0001
0010
0100
,
1000
0100
0010
0001
1000
0010
1000
0001
0010
0001
1000
0010
0100
0001
1000
0100
,
1000
0001
0100
0010
1000
0001
0100
0001
1000
0001
0010
0100
1000
0001
1000
0100
,
1000
0010
1000
0001
0010
0100
1000
0001
1000
0100
1000
0001
0010
0100
1000
0001
,
0100
0001
1000
0010
0100
0001
1000
0100
1000
0010
0100
0001
0010
0001
0100
0001
,
1000
0100
0010
0001
1000
0010
1000
0001
0100
0001
1000
0100
0010
0001
1000
0010
1000
0001
0010
0001
1000
0100
1000
0001
,
0100
0000
0000
1001
0000
1000
0100
0010
,
0011
0001
0101
0100
0101
0001
1000
0100
,
1100
0000
1000
0000
1100
0000
0100
0000
1000
0000
0010
0000
0100
0000
0001
0010
,
0001
1000
1010
0010
1010
1000
0001
0010
,
0011
0001
0011
0010
0100
1000
0010
1000
,
0001
0100
0010
0100
0001
1000
0100
1000
0001
0010
0001
0100
0010
1000
0100
1000
,
0010
0100
0001
0010
0001
1000
0100
0010
0001
0100
0001
0010
0100
1000
0001
0100
,
0010
1000
0100
0010
0001
0100
0010
1000
0100
1000
0010
0100
0001
0010
0100
1000
,
0001
0100
0010
1000
0001
0010
0001
1000
0100
1000
0001
0100
0010
1000
0001
0010
0001
1000
0100
1000
0001
0100
0010
1000
,
0001
0010
0001
1000
0010
1000
0001
0010
0100
1000
0010
1000
0100
0010
0001
0100
,
0001
1000
0100
1000
0001
0010
0100
1000
0001
0100
0001
1000
0010
1000
0100
1000
,
0001
0100
0001
0010
0001
1000
0100
0010
0001
1000
0010
1000
0100
1000
0001
0010
,
0100
1000
0010
1000
0100
1000
0010
0100
0001
0010
0001
0100
0010
1000
0100
1000
,
0010
1000
0001
0010
0100
1000
0001
0100
0001
1000
0010
1000
0100
1000
0010
0100
,
0001
1000
0100
1000
0001
0100
0010
1000
0100
1000
0010
0100
0001
1000
0100
0010
,
0001
1000
0001
0010
0001
0100
0010
1000
0100
1000
0001
0100
0010
1000
0100
1000
,
0001
0010
0100
1000
0010
0100
0004
0010
0000
1000
0000
0100
0000
1000
0000
0013
,
0100
1000
0100
0010
0001
1000
0010
1000
0100
1000
0001
0100
0010
1000
0001
0010
,
0100
0010
0001
1000
0010
1000
0001
0100
0010
1000
0100
1000
0001
0010
0100
1000
,
0010
0100
0010
1000
0001
0010
0100
1000
0010
1000
0100
0010
0001
1000
0001
0010
,
0100
1000
0010
0100
0001
0010
0001
0100
0010
1000
0100
1000
0010
1000
0001
0010
,
0100
1000
1001
0001
0011
0010
0011
0001
,
1001
1000
1010
0010
0110
0100
0101
0001
,
0100
0001
1000
0100
1000
0001
0010
0100
1000
0010
1000
0001
0010
0100
1000
0001
,
1000
0010
0100
0001
0100
0010
1000
0010
0100
0001
0100
0010
1000
0100
0010
0001
0010
0100
1000
0100
0010
0001
0010
0100
,
1000
0000
0000
0001
0100
0001
0100
0000
0000
0010
0000
0000
0000
0000
0000
0010
0000
0000
0000
0000
0000
1000
0000
0000
,
0000
1000
0000
0001
0010
0000
0000
0000
,
0100
0000
0000
1000
0001
1000
0001
0000
0000
0100
0000
0000
0000
0000
0000
0100
0000
0000
0000
0000
0000
1010
0000
0000
,
0000
0101
0000
1000
0100
0000
0000
0000
,
1000
0000
0000
0100
0010
0100
0010
0000
0000
0001
0000
0000
0000
0000
0000
0001
0000
0000
0000
0000
0000
1100
0000
0000
,
0000
1100
0000
0001
0100
0000
0000
0000
,
0010
0000
0000
1000
0001
1000
0001
0000
0000
0010
0000
0000
0000
0000
0000
0010
0000
0000
0000
0000
0000
0100
0000
0000
,
0000
0000
0000
0000
0000
0000
0100
0000
0000
0000
0000
0000
0000
0000
0000
0000
0000
0000
1000
0000
0000
0000
0000
0000
0010
0000
0000
0100
0000
0000
0001
0000
0000
0000
0000
0000
1000
0000
0000
0000
0000
0000
0001
0000
1000
0000
0001
0000
,
1000
0000
0000
0001
0010
0100
1000
0000
0000
0002
0003
0000
0000
0000
0000
0002
0003
0000
0000
0000
0000
0200
0300
0000
,
0000
0000
0000
0200
0300
0000
0000
0000
0000
0002
0003
0000
2000
3000
0000
0000
0000
0000
0000
0000
0000
0000
0000
0000
,
0002
0000
0000
0003
0000
0000
1000
0000
0010
0000
0100
0000
0001
0000
0000
0000
0000
0000
2000
0000
3000
0000
0000
0000
0000
0000
0000
0000
0000
0000
2000
0000
3000
0000
0000
0000
0000
0000
0000
0000
0000
0000
0022
0000
0033
0000
0000
0000
,
0000
0000
0000
2200
3300
0000
0000
0000
0000
0002
0003
0000
0200
0300
0000
0000
0000
0000
0000
0000
0000
0000
0000
0000
,
0002
0003
0000
1000
0100
0010
0001
0000
0000
2000
3000
0000
0000
0000
0000
2000
3000
0000
0000
0000
0000
0020
0030
0000
,
0000
0000
0000
0020
0030
0000
0000
0000
0000
2000
3000
0000
0002
0003
0000
0000
0000
0000
0000
0000
0000
0000
0000
0000
,
2000
3000
0000
0001
0100
0010
1000
0000
0000
0002
0003
0000
0000
0000
0000
0002
0003
0000
0000
0000
0000
0020
0030
0000
,
0000
0000
0000
0000
0000
0000
0020
0000
0030
0000
0000
0000
0000
0000
0000
0000
0000
0000
0200
0000
0300
0000
0000
0000
1000
0000
0000
0001
0000
0000
0100
0000
0000
0000
0000
0000
0010
0000
0000
0000
0000
0000
1000
0000
0001
0000
1000
0000
,
0200
0000
0000
0000
,
0300
0000
0000
0000
;
