#TITLE:Christmas Time;
#SUBTITLE:(Don't Let the Bells End);
#ARTIST:The Darkness;
#TITLETRANSLIT:;
#SUBTITLETRANSLIT:;
#ARTISTTRANSLIT:;
#CREDIT:;
#BANNER:Christmas Time (Don't Let The Bells End).png;
#BACKGROUND:Christmas Time (Don't Let The Bells End) bg.png;
#LYRICSPATH:;
#CDTITLE:GoGoNaoki-CD.png;
#MUSIC:Christmas Time (Don't Let The Bells End).mp3;
#OFFSET:-0.055;
#SAMPLESTART:42.550;
#SAMPLELENGTH:13.000;
#SELECTABLE:YES;
#DISPLAYBPM:165.000:166.000;
#BPMS:0.000=165.520,40.000=165.620,72.000=165.520,148.000=166.520,152.000=165.560,183.667=165.520,184.000=165.420,216.000=165.320,262.000=165.520,279.667=165.520,295.667=165.420,303.667=165.520,304.000=165.620,310.000=165.920,311.667=165.420,312.000=165.620,319.667=165.620,320.000=165.720,327.667=165.420,328.000=165.620,343.667=165.320,344.000=165.420,367.667=165.520,368.000=165.420;
#STOPS:;
#BGCHANGES:;
// cache tags:
#FIRSTBEAT:8.000;
#LASTBEAT:412.167;
#SONGFILENAME:Songs/DDRExtreme.co.uk presents ChristmasMix/Christmas Time (Don't Let The Bells End)/Christmas Time (Don't Let the Bells End).sm;
#HASMUSIC:1;
#HASBANNER:1;
#MUSICLENGTH:150.021;
// end cache tags

//---------------dance-single - ----------------
#NOTES:
     dance-single:
     :
     Hard:
     8:
     0.457,0.549,0.087,0.367,0.913,412.000,13.000,55.000,0.000,0.000:  // measure 1
0000
0000
0000
0000
,  // measure 2
0000
0000
0000
0000
,  // measure 3
1020
0000
0100
0000
,  // measure 4
2030
0000
3001
0000
,  // measure 5
1000
0000
0100
0000
0010
0000
0002
0000
0000
0000
0000
0000
,  // measure 6
0203
0000
0000
0000
0000
0000
0300
0000
0010
0000
1000
0000
,  // measure 7
0002
0000
0000
0000
0000
0000
1003
0000
1000
0000
1000
0000
,  // measure 8
2000
0000
3000
0000
,  // measure 9
0010
0000
1000
0000
0100
0000
0020
0000
0000
0000
0000
0000
,  // measure 10
0032
0000
0000
0000
0000
0000
1003
0000
1000
0000
1000
0000
,  // measure 11
1000
0000
0000
0000
0001
0000
0100
0000
0000
0000
0010
0000
,  // measure 12
1000
0000
0000
0000
0100
0000
0010
0000
0000
0000
0001
0000
,  // measure 13
0100
0000
0000
0000
0010
0000
1000
0000
0000
0000
0100
0000
,  // measure 14
0010
0000
0000
0000
0010
0000
0001
0000
0000
0000
0001
0000
,  // measure 15
0100
0000
0100
0000
0100
0000
0100
0000
0100
0000
0100
0000
,  // measure 16
0010
0000
0010
0000
0010
0000
0010
0000
0010
0000
0010
0000
,  // measure 17
1000
0000
0000
0000
0100
0000
0010
0000
0000
0000
0010
0000
,  // measure 18
0001
0000
0000
0000
0001
0000
0100
0000
0010
0000
1000
0000
,  // measure 19
0100
0000
0000
0000
0010
0000
0001
0000
0000
0000
0001
0000
,  // measure 20
0100
0000
0000
0000
0100
0000
0001
0000
0000
0000
0001
0000
,  // measure 21
0010
0000
0000
0000
0010
0000
1000
0000
0000
0000
1000
0000
,  // measure 22
0010
0000
0000
0000
0010
0000
0001
0000
0000
0000
0001
0000
,  // measure 23
0100
0000
0010
0000
1000
0000
0010
0000
0100
0000
0001
0000
,  // measure 24
1000
0000
0100
0000
0010
0000
0001
0000
1000
0000
0100
0000
,  // measure 25
0100
0000
0000
0000
0010
0000
0001
0000
0000
0000
0001
0000
,  // measure 26
0100
0000
0000
0000
0100
0000
0010
0000
1000
0000
0100
0000
,  // measure 27
0020
0000
0000
0000
0000
0000
0000
0030
0000
0000
0000
0000
,  // measure 28
0001
0000
0000
0000
0001
0000
1000
0000
0000
0000
1000
0000
,  // measure 29
0100
0000
0000
0000
0100
0000
0010
0000
0000
0000
0010
0000
,  // measure 30
0001
0000
0000
0000
0000
0000
0001
0000
0100
0000
0010
0000
,  // measure 31
2001
0000
0100
0000
,  // measure 32
0001
0000
0010
3000
,  // measure 33
0010
0000
0100
0000
0001
0000
0200
0000
0000
0000
0000
0000
,  // measure 34
0310
0000
0000
0000
0000
0000
1000
0000
0100
0000
0010
0000
,  // measure 35
0002
0000
0000
0000
0000
0000
2000
0003
0000
0000
0000
0000
,  // measure 36
3200
0000
0310
0000
,  // measure 37
0001
0000
0100
0000
0010
0000
1000
0000
0000
0000
0100
0000
,  // measure 38
0020
0000
0000
0000
0000
0000
0000
0000
0000
0000
0030
0000
,  // measure 39
0010
0000
1000
0000
0100
0000
0010
0000
0001
0100
0000
0010
,  // measure 40
0000
1000
0000
0100
0000
0010
0000
0001
0000
0100
0000
0010
,  // measure 41
0000
1000
0000
0100
0000
0010
0000
0001
0000
0100
0000
0010
,  // measure 42
0000
1000
0000
0100
0000
0010
0000
0001
0000
0100
0000
0010
,  // measure 43
0000
1000
0000
0100
0000
0010
0000
0001
0000
0100
0000
1000
,  // measure 44
0000
0100
0000
0001
0000
0010
0000
0100
0000
1000
0000
0010
,  // measure 45
0000
0100
0000
0001
0000
1000
0000
0100
0000
0010
0000
0001
,  // measure 46
0000
0100
0000
0010
0000
1000
0000
0100
0000
0010
0000
0200
,  // measure 47
0000
0000
0000
0000
0000
0000
0000
0000
0000
1000
0000
2300
,  // measure 48
0000
0000
0000
0000
0000
0000
0000
0000
0000
0001
0000
3002
,  // measure 49
0000
0000
0000
0000
0000
0000
0000
0000
0000
0100
0000
0203
,  // measure 50
0000
0000
0000
0000
0000
0000
0000
0000
0000
0000
0000
0310
,  // measure 51
0000
0000
0000
1000
0000
0100
0000
0000
0000
0010
0000
0001
,  // measure 52
0000
0000
0000
0001
0000
0100
0000
0000
0000
0100
0000
0010
,  // measure 53
0000
1000
0000
0100
0000
0010
0000
0001
0000
1000
0000
0100
,  // measure 54
0000
0100
0000
0100
0000
0100
0000
0100
0000
0100
0000
2001
,  // measure 55
0000
0000
0000
0000
0000
0100
0000
0000
0000
0000
0000
0010
,  // measure 56
0000
0000
0000
0000
0000
0001
0000
0000
0000
0000
0000
3200
,  // measure 57
0000
0000
0000
0000
0000
1000
0000
0000
0000
0000
0000
0010
,  // measure 58
0000
0000
0000
0000
0000
0001
0000
0000
0000
0000
0000
0320
,  // measure 59
0000
0000
0000
0000
0000
0001
0000
0000
0000
0000
0000
1000
,  // measure 60
0000
0000
0000
0000
0000
0100
0000
0000
0000
0000
0000
0032
,  // measure 61
0000
0000
0000
0000
0000
0010
0000
0000
0000
0000
0000
1000
,  // measure 62
0000
0000
0000
0000
0000
0100
0000
0000
0000
0000
0000
0013
,  // measure 63
0000
0000
0000
0100
0000
0010
0000
0000
0000
0100
0000
0010
0000
0000
0000
0100
0000
0000
0000
1000
0000
0000
0000
0001
,  // measure 64
0000
0000
0000
0100
0000
0000
0000
0010
0000
0000
2000
0000
0000
0000
0000
0000
0000
0000
0000
0000
0000
0000
3002
0000
,  // measure 65
0000
0000
0000
0000
0000
0203
0000
0000
0000
0000
0000
0320
,  // measure 66
0000
0000
0000
0000
0000
0030
0000
1000
0000
1000
0000
2000
,  // measure 67
0000
0000
0000
0000
0000
3001
0000
0001
0000
0001
0000
0100
,  // measure 68
0000
0100
0000
0100
0000
0010
0000
0010
0000
0010
0000
1000
,  // measure 69
0000
1000
0000
1000
0000
0001
0000
0001
0000
0001
0000
0100
,  // measure 70
0000
0100
0000
0100
0000
0100
0000
0100
0000
0100
0000
2001
,  // measure 71
0000
0000
0000
0000
0000
0100
0000
0000
0000
0000
0000
0010
,  // measure 72
0000
0000
0000
0000
0000
0001
0000
0000
3000
0000
0000
0001
,  // measure 73
0000
1000
0000
0100
0000
0010
0000
0001
0100
0001
0000
0010
,  // measure 74
0000
0100
0000
1000
0000
0001
0000
0100
0000
0010
0000
2001
,  // measure 75
0000
0000
0000
0000
0000
0100
0000
0000
0000
0000
0000
0010
,  // measure 76
0000
0000
0000
0000
0000
0001
0000
0000
3000
0000
0000
0001
,  // measure 77
0000
0000
0000
0000
0000
0000
0010
0000
0000
0000
0100
0000
0000
0000
0000
0000
0000
0000
0000
0100
0000
0000
0000
1000
,  // measure 78
0000
0000
0000
0000
0000
0000
0000
0000
0000
0000
0000
0000
0000
0000
0000
0010
0000
0000
0000
0000
0000
0000
0000
0100
0000
0000
0000
0000
0000
0000
0000
0000
0000
0000
0000
0000
0000
0000
0000
0000
0000
0000
0000
0000
0000
0000
0220
0000
,  // measure 79
0000
0000
0000
0000
0000
0000
0000
0330
0000
0000
0000
2002
0000
0000
0000
0000
0000
0000
0000
3003
0000
0000
0000
0202
,  // measure 80
0000
0000
0000
0000
0000
0000
0000
0303
0000
0000
0000
2020
0000
0000
0000
0000
0000
0000
0000
3030
0000
0000
0000
0010
,  // measure 81
0000
0000
0000
1000
0000
0000
0000
0001
0000
0000
0000
0100
0000
0000
0000
0010
0000
0000
0000
1000
0000
0000
0000
0100
,  // measure 82
0000
0000
0000
0010
0000
0000
0000
0001
0000
0000
0000
0100
0000
0000
0000
0001
0000
0000
0000
0001
0000
0000
0000
0220
,  // measure 83
0000
0000
0000
0000
0000
0000
0000
0330
0000
0000
0000
2020
0000
0000
0000
0000
0000
0000
0000
3030
0000
0000
0000
0202
,  // measure 84
0000
0000
0000
0000
0000
0000
0000
0000
0000
0000
0000
0000
0000
0000
0000
0000
0000
0000
0000
0000
0000
0000
0000
0000
0000
0000
0000
0000
0000
0000
0000
0000
0000
0000
0000
0000
0000
0000
0000
0000
0000
0000
0000
0000
0000
0000
0000
0000
0000
0000
0000
0000
0000
0000
0000
0000
0303
0000
0000
0000
0000
0000
0000
0000
0000
0000
0000
0000
0000
0000
0000
0000
0000
0000
0000
0000
0000
0000
0000
0000
0000
0000
0000
0000
0000
0000
0000
0000
0220
0000
0000
0000
0000
0000
0000
0000
0000
0000
0000
0000
0000
0000
0000
0000
0000
0000
0000
0000
0000
0000
0000
0000
0000
0000
0000
0000
0000
0000
0000
0000
0000
0000
0000
0000
0000
0000
0000
0000
0000
0000
0000
0000
0000
0000
0000
0000
0000
0330
0000
0000
0000
0000
0000
0000
0000
0000
0000
0000
0000
0000
0000
0000
0000
0000
0000
0000
0000
0000
0000
0000
0000
0000
0000
0000
0000
0000
0000
0000
0000
0000
0000
0000
0000
0000
0000
0000
0000
0000
0000
0000
0000
0000
0000
0000
0100
0000
0000
0000
0000
0000
0000
0000
,  // measure 85
0000
0000
0000
0010
0000
0000
0000
0100
0000
0000
0000
0002
0000
0000
0000
0000
0000
0000
0000
1003
0000
0000
0000
0200
,  // measure 86
0000
0000
0000
0000
0000
0000
0000
0000
0300
0000
0000
0001
,  // measure 87
0000
0100
0010
0100
0000
0010
0000
1000
0100
1000
0000
0100
,  // measure 88
0000
0010
0001
0010
0000
0001
0000
0100
0010
0100
0000
0010
,  // measure 89
0000
1000
0100
1000
0000
0001
0000
0010
0001
0010
0000
0100
,  // measure 90
0000
1000
0100
1000
0000
0001
0000
0100
0001
0100
0000
0010
,  // measure 91
0000
0100
0010
0100
0000
0010
0000
1000
0100
1000
0000
0100
,  // measure 92
0000
0010
0001
0010
0000
0001
0000
0100
0010
0100
0000
0010
,  // measure 93
0000
0000
1000
0000
0000
0000
0100
0000
0000
0000
0000
0020
0000
0000
0000
0000
0000
0000
0000
0000
0000
0000
0000
0030
,  // measure 94
0002
0000
0000
0000
,  // measure 95
2003
0000
0000
0000
0000
0000
0100
0000
0100
0000
0100
0000
,  // measure 96
3200
0000
0000
0000
0000
0000
0010
0000
0010
0000
0010
0000
,  // measure 97
0020
0300
0000
0000
0000
0000
0000
0000
0000
0000
0000
0000
,  // measure 98
0002
0030
0000
0000
0000
0000
0000
0000
0000
0000
0000
0000
,  // measure 99
0003
1000
0000
0000
0100
0000
0000
0010
0000
0000
0001
0000
0000
0100
0000
0000
0010
0000
0000
1000
0000
0000
0100
0000
,  // measure 100
0000
0010
0000
0000
0001
0000
0000
0100
0000
0000
0010
0000
0000
1000
0000
0000
0100
0000
0000
0010
0000
0000
0001
0000
,  // measure 101
0000
0100
0000
0000
0010
0000
0000
1000
0000
0000
0100
0000
0000
0010
0000
0000
0001
0000
0000
0100
0000
0000
0010
0000
,  // measure 102
0000
1000
0000
0000
0100
0000
0000
0010
0000
0000
0001
0000
0000
0100
0000
0000
0010
0000
0000
1000
0000
0000
0100
0000
,  // measure 103
0000
0020
0000
0000
0000
0000
0000
0000
0000
0000
0000
0000
0000
0000
0000
0000
0000
0000
0000
0000
0000
0000
0000
0000
,  // measure 104
0000
0030
0000
0000
0000
0000
0000
0000
0000
0000
0000
0000
0000
0000
0000
0000
0000
0000
0000
0000
0000
0000
0000
0000
;

//---------------dance-single - ----------------
#NOTES:
     dance-single:
     :
     Medium:
     6:
     0.269,0.412,0.240,0.353,0.343,194.000,36.000,53.000,0.000,0.000:  // measure 1
0000
0000
0000
0000
,  // measure 2
0000
0000
0000
0000
,  // measure 3
2000
0000
0000
0000
,  // measure 4
3002
0000
0000
0000
,  // measure 5
0203
0000
0000
0000
,  // measure 6
0320
0000
0000
0000
,  // measure 7
2030
0000
0000
0000
,  // measure 8
3200
0000
0000
0000
,  // measure 9
0320
0000
0000
0000
,  // measure 10
0032
0000
0000
0000
,  // measure 11
1003
0000
0100
0000
,  // measure 12
0010
0000
0001
0000
,  // measure 13
0100
0000
0010
0000
,  // measure 14
1000
0000
0100
0000
,  // measure 15
0010
0000
0001
0000
,  // measure 16
0100
0000
0010
0000
,  // measure 17
1000
0000
0100
0000
,  // measure 18
0010
0000
0000
0000
0000
0000
0001
0000
0010
0000
0001
0000
,  // measure 19
0010
0000
0100
0000
,  // measure 20
1000
0000
0010
0000
,  // measure 21
0100
0000
0001
0000
,  // measure 22
0010
0000
0100
0000
,  // measure 23
1000
0000
0010
0000
,  // measure 24
0100
0000
0001
0000
,  // measure 25
0010
0000
0100
0000
,  // measure 26
1000
0000
0000
0000
0000
0000
0010
0000
1000
0000
0010
0000
,  // measure 27
2000
0000
0100
0000
,  // measure 28
0100
0000
0100
0000
,  // measure 29
3200
0000
0010
0000
,  // measure 30
0010
0000
0010
0000
,  // measure 31
0310
0000
0011
0000
,  // measure 32
1001
0000
0101
0000
,  // measure 33
1100
0000
1001
0000
,  // measure 34
0101
0000
0110
0000
,  // measure 35
1100
0000
0110
0000
,  // measure 36
1001
0000
0110
0000
,  // measure 37
1100
0000
0101
0000
,  // measure 38
2002
0000
0000
0000
0000
0000
0000
0000
3003
0000
0000
0000
,  // measure 39
1000
0000
0000
0000
0000
1000
0000
0000
0000
0000
0000
1000
,  // measure 40
0000
0000
0000
0000
0000
1000
0000
0000
0000
0000
0000
0001
,  // measure 41
0000
0000
0000
0000
0000
0001
0000
0000
0000
0000
0000
0001
,  // measure 42
0000
0000
0000
0000
0000
0001
0000
0000
0000
0000
0000
0100
,  // measure 43
0000
0000
0000
0000
0000
0100
0000
0000
0000
0000
0000
0100
,  // measure 44
0000
0000
0000
0000
0000
0100
0000
0000
0000
0000
0000
0010
,  // measure 45
0000
0000
0000
0000
0000
0010
0000
0000
0000
0000
0000
0010
,  // measure 46
0000
0000
0000
0000
0000
0010
0000
0000
0000
0000
0000
2000
,  // measure 47
0000
0000
0000
0000
0000
0000
0000
0000
0000
0000
0000
3002
,  // measure 48
0000
0000
0000
0000
0000
0000
0000
0000
0000
0000
0000
0203
,  // measure 49
0000
0000
0000
0000
0000
0000
0000
0000
0000
0000
0000
0320
,  // measure 50
0000
0000
0000
0000
0000
0000
0000
0000
0000
0000
0000
1030
,  // measure 51
0000
0000
0000
0100
0000
0020
0000
0000
0000
0000
0000
0031
,  // measure 52
0000
0000
0000
0001
0000
0200
0000
0000
0000
0000
0000
0310
,  // measure 53
0000
0000
0000
0010
0000
2000
0000
0000
0000
0000
0000
3100
,  // measure 54
0000
0000
0000
0100
0000
0020
0000
0000
0000
0030
0000
0002
,  // measure 55
0000
0000
0000
0000
0000
0100
0000
0000
0000
0000
0000
0100
,  // measure 56
0000
0000
0000
0000
0000
0100
0000
0000
0000
0000
0000
0203
,  // measure 57
0000
0000
0000
0000
0010
0000
0000
0000
0000
0000
0010
0000
,  // measure 58
0000
0000
0000
0000
0000
0010
0000
0000
0000
0000
0000
0320
,  // measure 59
0000
0000
0000
0000
0000
1000
0000
0000
0000
0000
0000
1000
,  // measure 60
0000
0000
0000
0000
0000
1000
0000
0000
0000
0000
0000
2030
,  // measure 61
0000
0000
0000
0000
0100
0000
0000
0000
0000
0000
0000
0100
,  // measure 62
0000
0000
0000
0000
0000
0000
0000
0000
0000
0000
0000
0000
0000
0000
0000
0000
0000
0000
0000
0000
0000
0000
0000
0000
0000
0000
0000
0000
0000
0000
0000
0000
0000
0000
0000
0000
0000
0000
0000
0000
0000
0000
0000
0000
0000
0000
0000
0000
0000
0000
0000
0000
0000
0000
0000
0000
0000
0000
0000
0000
0000
0000
0000
0000
0000
0000
0000
0000
0000
0000
0000
0000
0000
0000
0000
0000
0000
0000
0000
0000
0100
0000
0000
0000
0000
0000
0000
0000
0000
0000
0000
0000
0000
0000
0000
0000
0000
0000
0000
0000
0000
0000
0000
0000
0000
0000
0000
0000
0000
0000
0000
0000
0000
0000
0000
0000
0000
0000
0000
0000
0000
0000
0000
0000
0000
0000
0000
0000
0000
0000
0000
0000
0000
0000
0000
0000
0000
0000
0000
0000
0000
0000
0000
0000
3000
0000
0000
0000
0000
0000
0000
0000
0000
0000
0000
0000
0000
0000
0000
0000
0000
0000
0000
0000
0000
0000
0000
0000
0000
0000
0000
0000
0000
0000
0000
0000
0012
0003
0000
0000
0000
0000
0000
0000
0000
0000
0000
0000
0000
0000
0000
0000
,  // measure 63
0000
0000
0000
0000
0000
0101
0000
0000
0000
0000
0000
1010
,  // measure 64
0000
1010
0000
1010
0000
1010
0000
0000
0000
0000
0000
1100
,  // measure 65
0000
0000
0000
0000
0000
0011
0000
0000
0000
0000
0000
0101
,  // measure 66
0000
0101
0000
0101
0000
0101
0000
0000
0000
0000
1100
0000
,  // measure 67
0000
0000
0000
0000
0000
0110
0000
0000
0000
0000
0000
1001
,  // measure 68
0000
1001
0000
1001
0000
1001
0000
0000
0000
0000
0000
1100
,  // measure 69
0000
0000
0000
0000
0000
0110
0000
0000
0000
0000
0000
0101
,  // measure 70
0000
0000
0000
0000
0000
1100
0000
0000
0000
0000
0000
0020
,  // measure 71
0000
0000
0000
0000
,  // measure 72
0000
0000
0000
0000
0000
0000
0000
0000
0000
0000
0000
2030
,  // measure 73
0000
0000
0000
0000
,  // measure 74
0000
0000
0000
0000
0000
0000
0000
0000
0000
0000
0000
3002
,  // measure 75
0000
0000
0000
0000
,  // measure 76
0000
0000
0000
0000
0000
0000
0000
0000
0000
0000
0000
0203
,  // measure 77
0000
0000
0000
0000
0000
0010
0000
0000
0000
0000
0000
0010
,  // measure 78
0000
0000
0000
0000
0000
0010
0000
0000
0000
0000
0000
0320
,  // measure 79
0000
0000
0000
0000
0000
1000
0000
0000
0000
0000
0000
1000
,  // measure 80
0000
0000
0000
0000
0000
1030
0000
0000
0000
0000
0000
2000
,  // measure 81
0000
0000
0000
0000
0000
0100
0000
0000
0000
0000
0000
0100
,  // measure 82
0000
0000
0000
0000
0000
3100
0000
0000
0000
0000
0000
0200
,  // measure 83
0000
0000
0000
0000
0000
0001
0000
0000
0000
0000
0000
0001
,  // measure 84
0000
0000
0000
0000
0000
0301
0000
0000
0000
0000
0000
0002
,  // measure 85
0000
0000
0000
0000
0000
0010
0000
0000
0000
0000
0000
0010
,  // measure 86
0000
0000
0000
0000
0000
0013
0000
0000
0000
0000
0000
0200
,  // measure 87
0000
0000
0000
0000
0000
2300
0000
0000
0000
0000
0000
3020
,  // measure 88
0000
0000
0000
0000
0000
0130
0000
0000
0000
0000
0000
0001
,  // measure 89
0000
0100
0000
0001
0000
0200
0000
0000
0000
0000
0300
0020
,  // measure 90
0000
0000
0000
0000
0030
0000
2000
0000
0000
0000
0000
0000
,  // measure 91
3200
0000
0320
0000
,  // measure 92
0032
0000
0203
0000
,  // measure 93
0310
1000
0000
0100
0000
0020
0000
0000
0000
0000
0000
0030
,  // measure 94
0002
0000
0000
0000
,  // measure 95
2003
0000
0000
3000
0000
0000
0100
0000
0100
0000
0100
0000
,  // measure 96
0100
0000
0000
0000
0000
0000
0010
0000
0010
0000
0010
0000
,  // measure 97
0020
0000
0000
0000
,  // measure 98
0032
0000
0000
0000
,  // measure 99
2003
0000
0000
0000
,  // measure 100
3002
0000
0000
0000
,  // measure 101
2003
0000
0000
0000
,  // measure 102
3002
0000
0000
0000
,  // measure 103
2003
0000
0000
0000
,  // measure 104
3000
0000
0000
0000
;

//---------------dance-double - ----------------
#NOTES:
     dance-double:
     :
     Hard:
     8:
     0.353,0.545,0.220,0.347,0.600,286.000,33.000,52.000,0.000,0.000:  // measure 1
00000000
00000000
00000000
00000000
,  // measure 2
00000000
00000000
00000000
00000000
,  // measure 3
01002000
00000000
00100000
00000000
,  // measure 4
00003020
00000000
00000001
00000000
,  // measure 5
00000130
00000000
00000010
00000000
00001000
00000000
00000200
00000000
00000000
00000000
00000000
00000000
,  // measure 6
00020300
00000000
00000000
00000000
00000000
00000000
00030000
00000000
00001000
00000000
00001000
00000000
,  // measure 7
00002000
00000000
00000000
00000000
00000000
00000000
00103000
00000000
01000000
00000000
00100000
00000000
,  // measure 8
02000000
00000000
03000000
00000000
,  // measure 9
10000000
00000000
00010000
00000000
00100000
00000000
00002000
00000000
00000000
00000000
00000000
00000000
,  // measure 10
02003000
00000000
00000000
00000000
00000000
00000000
03100000
00000000
00100000
00000000
00100000
00000000
,  // measure 11
00100000
00000000
00000000
00000000
00000000
00000000
01000000
00000000
00000000
00000000
00001000
00000000
,  // measure 12
00010000
00000000
00000100
00000000
,  // measure 13
11000000
00000000
00000000
00000000
00000000
00000000
00011000
00000000
00000000
00000000
00000001
00000000
,  // measure 14
00000100
00000000
00100000
00000000
,  // measure 15
00010200
00000000
00001000
00000000
,  // measure 16
00000010
00000000
00000001
00000000
,  // measure 17
00001300
00000000
00000000
00000000
00000000
00000000
00000010
00000000
00000000
00000000
00001000
00000000
,  // measure 18
00000100
00000000
00000000
00000000
00000000
00000000
00001000
00000000
00000000
00000000
00000010
00000000
,  // measure 19
00010000
00000000
00000000
00000000
00000000
00000000
00100000
00000000
00000000
00000000
10000000
00000000
,  // measure 20
01000000
00000000
00200000
00000000
,  // measure 21
00301000
00000000
00000000
00000000
00000000
00000000
01000000
00000000
00000000
00000000
00100000
00000000
,  // measure 22
10000000
00000000
00000000
00000000
00000000
00000000
01100000
00000000
00000000
00000000
00010000
00000000
,  // measure 23
01000000
00000000
00000000
00000000
01000000
00000000
10000000
00000000
00000000
00000000
10000000
00000000
,  // measure 24
00100000
00000000
00000000
00000000
00100000
00000000
00010000
00000000
00000000
00000000
00010000
00000000
,  // measure 25
00001000
00000000
00000000
00000000
00001000
00000000
00000100
00000000
00000000
00000000
00000100
00000000
,  // measure 26
00000001
00000000
00000000
00000000
00000001
00000000
00000010
00000000
00000000
00000000
00000010
00000000
,  // measure 27
00002000
00000000
00000000
00000000
,  // measure 28
00003100
00000000
00000000
00000000
00010000
00000000
10000000
00000000
00000000
00000000
10000000
00000000
,  // measure 29
01000000
00000000
00000000
00000000
01000000
00000000
00100000
00000000
00000000
00000000
00100000
00000000
,  // measure 30
00010000
00000000
00000000
00000000
00000000
00000000
10000000
00000000
01000000
00000000
00100000
00000000
,  // measure 31
00020000
00000000
00001000
00000000
,  // measure 32
01000000
00000000
00130000
00000000
,  // measure 33
01000000
00000000
10000000
00000000
01000000
00000000
00200000
00000000
00000000
00000000
00000000
00000000
,  // measure 34
00320000
00000000
00030000
00000000
,  // measure 35
00000011
00000000
00001100
00000000
,  // measure 36
01010000
00000000
10100000
00000000
,  // measure 37
01000000
00000000
00100000
00000000
00001000
00000000
00020000
00000000
00000000
00000000
00000000
00000000
,  // measure 38
00030200
00000000
00000300
00000000
,  // measure 39
00000011
00000000
00000000
00000000
00000000
00001001
00000000
00000000
00000000
00000000
00000000
00001100
,  // measure 40
00000000
00000000
00000000
00000000
00000000
00001010
00000000
00000000
00000000
00000000
00000000
00001001
,  // measure 41
00000000
00000000
00000000
00000000
00000000
00000110
00000000
00000000
00000000
00000000
00000000
00011000
,  // measure 42
00000000
00000000
00000000
00000000
00000000
01100000
00000000
00000000
00000000
00000000
00000000
10010000
,  // measure 43
00000000
00000000
00000000
00000000
00000000
11000000
00000000
00000000
00000000
00000000
00000000
10100000
,  // measure 44
00000000
00000000
00000000
00000000
00000000
01010000
00000000
00000000
00000000
00000000
00000000
00110000
,  // measure 45
00000000
00000000
00000000
00000000
00000000
10010000
00000000
00000000
00000000
00000000
00000000
11000000
,  // measure 46
00000000
00000000
00000000
00000000
00000000
01100000
00000000
00000000
00000000
00000000
00000000
20000000
,  // measure 47
00000000
00000000
00000000
00000000
00000000
00000000
00000000
00000000
00000000
00000000
00000000
30020000
,  // measure 48
00000000
00000000
00000000
00000000
00000000
00000000
00000000
00000000
00000000
00000000
00000000
00032000
,  // measure 49
00000000
00000000
00000000
00000000
00000000
00000000
00000000
00000000
00000000
00000000
00000000
00003002
,  // measure 50
00000000
00000000
00000000
00000000
00000000
00000000
00000000
00000000
00000000
00000000
00000000
00000203
,  // measure 51
00000000
00000000
00000000
00000000
00000000
00000000
00000000
00000000
00000000
00000000
00000000
00000320
,  // measure 52
00000000
00000000
00000000
00000000
00000000
00000000
00000000
00000000
00000000
00000000
00000000
02000030
,  // measure 53
00000000
00000000
00000000
00000000
00000000
00000000
00000000
00000000
00000000
00000000
00000000
03200000
,  // measure 54
00000000
00000000
00000000
00000000
00000000
00300000
00000000
00000000
00000000
00000000
00000000
20010000
,  // measure 55
00000000
00000000
00000000
00000000
00000000
01000000
00000000
00000000
00000000
00000000
00000000
30200000
,  // measure 56
00000000
00000000
00000000
00000000
00000000
01000000
00000000
00000000
00000000
00000000
00000000
00320000
,  // measure 57
00000000
00000000
00000000
00000000
00000000
01000000
00000000
00000000
00000000
00000000
00000000
00032000
,  // measure 58
00000000
00000000
00000000
00000000
00000000
00000100
00000000
00000000
00000000
00000000
00000000
00003020
,  // measure 59
00000000
00000000
00000000
00000000
00000000
00000100
00000000
00000000
00000000
00000000
00000000
00000032
,  // measure 60
00000000
00000000
00000000
00000000
00000000
00000010
00000000
00000000
00000000
00000000
00000000
00000203
,  // measure 61
00000000
00000000
00000000
00000000
00000000
00001000
00000000
00000000
00000000
00000000
00000000
00020300
,  // measure 62
00000000
00000000
00000000
00000000
00000000
00000000
00000000
00000000
00000000
00000000
00000000
00000000
00000000
00000000
00000000
00000000
00000000
00000000
00000000
00000000
00000000
00000000
00030000
10000000
,  // measure 63
00000000
00000000
00000000
01000000
00000000
10000000
00000000
00000000
00000000
01000000
00000000
00100000
00000000
00000000
00000000
01000000
00000000
00000000
00000000
10000000
00000000
00000000
00000000
00100000
,  // measure 64
00000000
00000000
00000000
01000000
00000000
00000000
00010000
00000000
00000000
00000000
00000000
20000000
00000000
00000000
00000000
00000000
00000000
00000000
00000000
00000000
00000000
00000000
00000000
30000000
,  // measure 65
02000000
00000000
00000000
00000000
00000000
03000000
00200000
00000000
00000000
00000000
00000000
00300000
,  // measure 66
00020000
00000000
00000000
00000000
00000000
00030000
00000000
01000000
00000000
01000000
00000000
01000000
,  // measure 67
00000000
00000000
00000000
00000000
00000000
00100000
00000000
00100000
00000000
00100000
00000000
10000000
,  // measure 68
00000000
10000000
00000000
10000000
00000000
01000000
00000000
01000000
00000000
01000000
00000000
00100000
,  // measure 69
00000000
00001000
00000000
00010000
00000000
00000100
00000000
00000010
00000000
00000001
00000000
00000100
,  // measure 70
00000000
00000010
00000000
00001000
00000000
00000100
00000000
00010000
00000000
00001000
00000000
01020000
,  // measure 71
00000000
00000000
00000000
00000000
00000000
10000000
00000000
00000000
00000000
00000000
00000000
00130000
,  // measure 72
00000000
00000000
00000000
00000000
00000000
00001000
00000000
00000000
00000000
00000000
00000000
00000012
,  // measure 73
00000000
00000000
00000000
00000000
00000000
00001000
00000000
00000000
00000000
00000000
00000000
00000103
,  // measure 74
00000000
00000000
00000000
00000000
00000000
00000010
00000000
00000000
00000000
00000000
00000000
00021000
,  // measure 75
00000000
00000000
00000000
00000000
00000000
00000010
00000000
00000000
00000000
00000000
00000000
00030001
,  // measure 76
00000000
00000000
00000000
00000000
00000000
00000000
00000000
00000000
00000000
00000000
00000100
00000000
00000000
00000000
00000000
00000000
00000000
00000000
00000000
00000000
00000000
00000000
00000000
00000010
,  // measure 77
00000000
00000000
00000000
00000000
00000000
00000000
00000000
00010000
00000000
00000000
00000000
00001000
00000000
00000000
00000000
00000000
00000000
00000000
00000000
00100000
00000000
00000000
00000000
01000000
,  // measure 78
00000000
00000000
00000000
00000000
00000000
00000000
00000000
01000000
00000000
00000000
00000000
10000000
00000000
00000000
00000000
00000000
00000000
00000000
00000000
00000000
00000000
00000000
20100000
00000000
,  // measure 79
00000000
00000000
00000000
00000000
00000000
01000000
00000000
00000000
00000000
00000000
00000000
00100000
,  // measure 80
00000000
00000000
00000000
00000000
01000000
00000000
31000000
00000000
00000000
00000000
00000000
00120000
,  // measure 81
00000000
00000000
00000000
00000000
00000000
00100000
00000000
00000000
00000000
00000000
00000000
01000000
,  // measure 82
00000000
00000000
00000000
10000000
00000000
10000000
00030000
00000000
00000000
00000000
00000000
00100000
,  // measure 83
00000000
00010000
01000000
00010000
00000000
00100000
00000000
00000000
00000000
00001000
00000000
01000000
,  // measure 84
00000000
00000000
00000000
00001000
00000000
00010000
00000000
00000000
00000000
00000000
00000000
00000100
,  // measure 85
00000000
00001000
00000001
00000100
00000000
00000010
00000000
00000000
00000000
00001000
00000000
00000100
,  // measure 86
00000000
00000000
00000000
00000000
00000010
00000000
00000001
00000000
00000000
00000000
00000000
00000201
,  // measure 87
00000000
00000000
00000000
00000000
00000000
00001000
00000000
00000000
00000000
00000000
00000000
00000001
,  // measure 88
00000000
00000000
00000000
00000010
00000000
00000310
00000000
00000000
00000000
00000000
00000000
00002100
,  // measure 89
00000000
00000000
00000000
00000000
00000000
00000010
00000000
00000000
00000000
00000000
00000000
00000001
,  // measure 90
00000000
00000000
00000000
00000010
00000000
00003010
00000000
00000000
00000000
00000000
00000000
00000000
,  // measure 91
00000200
00000000
00002300
00000000
,  // measure 92
00023000
00000000
00000000
00030000
,  // measure 93
01000000
00000000
10000000
00000000
00100000
00000000
01000000
00000000
00000000
00000000
00000000
00000000
,  // measure 94
00020000
00000000
00030000
00000000
,  // measure 95
00000020
00000000
00000000
00000000
00000000
00000000
00000001
00000000
00000001
00000000
00000001
00000000
,  // measure 96
00000032
00000000
00000203
00000000
,  // measure 97
00000320
00000000
00000000
00000000
,  // measure 98
00020030
00000000
00000000
00000000
,  // measure 99
00030000
00000100
00000000
00000000
00000010
00000000
00000000
00000001
00000000
00000000
00000100
00000000
00000000
00001000
00000000
00000000
00010000
00000000
00000000
01000000
00000000
00000000
00010000
00000000
,  // measure 100
00000000
00001000
00000000
00000000
00000100
00000000
00000000
00001000
00000000
00000000
00010000
00000000
00000000
01000000
00000000
00000000
00010000
00000000
00000000
00001000
00000000
00000000
00000100
00000000
,  // measure 101
00000000
00001000
00000000
00000000
00010000
00000000
00000000
01000000
00000000
00000000
10000000
00000000
00000000
00100000
00000000
00000000
01000000
00000000
00000000
00010000
00000000
00000000
00100000
00000000
,  // measure 102
00000000
00001000
00000000
00000000
01000000
00000000
00000000
00010000
00000000
00000000
00100000
00000000
00000000
01000000
00000000
00000000
00010000
00000000
00000000
00001000
00000000
00000000
00000100
00000000
,  // measure 103
00000000
00000001
00000000
00000000
00000010
00000000
00000000
00000000
00000000
00000000
00000000
00000000
00000000
00000000
00000000
00000000
00000000
00000000
00000000
00000000
00000000
00000000
00000000
00000000
;

//---------------dance-single - ----------------
#NOTES:
     dance-single:
     :
     Easy:
     3:
     0.226,0.303,0.380,0.253,0.250,142.000,57.000,38.000,0.000,0.000:  // measure 1
0000
0000
0000
0000
,  // measure 2
0000
0000
0000
0000
,  // measure 3
1001
0000
0000
0000
,  // measure 4
0110
0000
0000
0000
,  // measure 5
1001
0000
0000
0000
,  // measure 6
0110
0000
0000
0000
,  // measure 7
1001
0000
0000
0000
,  // measure 8
1001
0000
0000
0000
,  // measure 9
0110
0000
0000
0000
,  // measure 10
1001
0000
0000
0000
,  // measure 11
0110
0000
0100
0000
,  // measure 12
0100
0000
0100
0000
,  // measure 13
1001
0000
0001
0000
,  // measure 14
0001
0000
0001
0000
,  // measure 15
1001
0000
1000
0000
,  // measure 16
1000
0000
1000
0000
,  // measure 17
0110
0000
0010
0000
,  // measure 18
0010
0000
0010
0000
,  // measure 19
0001
0000
1000
0000
,  // measure 20
0100
0000
0001
0000
,  // measure 21
0010
0000
0100
0000
,  // measure 22
0001
0000
1000
0000
,  // measure 23
0100
0000
0001
0000
,  // measure 24
0010
0000
1000
0000
,  // measure 25
0100
0000
0001
0000
,  // measure 26
1000
0000
2002
0000
,  // measure 27
0000
3003
0100
0000
,  // measure 28
0100
0000
0100
0000
,  // measure 29
0220
0000
0000
0000
,  // measure 30
0000
0000
0330
0000
,  // measure 31
2002
0000
0000
0000
,  // measure 32
0000
0000
0000
3003
,  // measure 33
0220
0000
0330
0000
,  // measure 34
2002
0000
0000
3003
,  // measure 35
1000
0000
1000
0000
,  // measure 36
2000
0000
0000
3000
,  // measure 37
0001
0000
0001
0000
,  // measure 38
0002
0000
0000
0000
,  // measure 39
1003
0000
0000
0000
0000
0000
0000
0000
0000
0000
0000
0100
,  // measure 40
0000
0000
0000
0000
0000
0000
0000
0000
0000
0000
0000
0010
,  // measure 41
0000
0000
0000
0000
0000
0000
0000
0000
0000
0000
0000
0001
,  // measure 42
0000
0000
0000
0000
0000
0000
0000
0000
0000
0000
0000
0100
,  // measure 43
0000
0000
0000
0000
0000
0000
0000
0000
0000
0000
0000
1000
,  // measure 44
0000
0000
0000
0000
0000
0000
0000
0000
0000
0000
0000
0001
,  // measure 45
0000
0000
0000
0000
0000
0000
0000
0000
0000
0000
0000
0100
,  // measure 46
0000
0000
0000
0000
0000
0000
0000
0000
0000
0000
0000
1001
,  // measure 47
0000
0000
0000
0000
0000
0100
0000
0000
0000
0000
0000
0110
,  // measure 48
0000
0000
0000
0000
0000
0001
0000
0000
0000
0000
0000
1001
,  // measure 49
0000
0000
0000
0000
0000
0100
0000
0000
0000
0000
0000
0110
,  // measure 50
0000
0000
0000
0000
0000
1000
0000
0000
0000
0000
0000
1001
,  // measure 51
0000
0000
0000
0000
0000
0100
0000
0000
0000
0000
0000
0110
,  // measure 52
0000
0000
0000
0000
0000
1001
0000
0000
0000
0000
0000
0110
,  // measure 53
0000
0000
0000
0000
0000
1001
0000
0000
0000
0000
0000
1100
,  // measure 54
0000
0000
0000
0000
0000
0011
0000
0000
0000
0000
0000
0220
,  // measure 55
0000
0000
0000
0000
,  // measure 56
0000
0330
0000
0000
0000
1001
0000
0000
0000
0000
0000
0220
,  // measure 57
0000
0000
0000
0000
,  // measure 58
0000
0330
0000
0000
0000
1001
0000
0000
0000
0000
0000
0220
,  // measure 59
0000
0000
0000
0000
,  // measure 60
0000
0330
0000
0000
0000
1001
0000
0000
0000
0000
0000
0110
,  // measure 61
0000
0000
0000
0000
0000
1001
0000
0000
0000
0000
0000
1001
,  // measure 62
0000
0000
0000
0000
0000
0110
0000
0000
0000
0000
0000
2000
,  // measure 63
0000
0000
0000
3000
0000
0002
0000
0000
0000
0003
0000
0200
,  // measure 64
0000
0000
0000
0300
0000
0020
0000
0000
0000
0030
0000
2000
,  // measure 65
0000
0000
0000
3000
0000
0200
0000
0000
0000
0000
0000
0000
,  // measure 66
0000
0000
0000
0000
0000
0000
0000
0300
0000
0000
0000
1001
,  // measure 67
0000
0000
0000
0000
0000
0100
0000
0000
0000
0000
0000
0100
,  // measure 68
0000
0000
0000
0000
0000
0100
0000
0000
0000
0000
0000
0110
,  // measure 69
0000
0000
0000
0000
0000
0101
0000
0000
0000
0000
0000
1100
,  // measure 70
0000
0000
0000
0000
0000
1010
0000
0000
0000
0000
0000
0022
,  // measure 71
0000
0000
0000
0000
0000
0000
0000
0000
0000
0000
0000
0033
,  // measure 72
0000
0000
0000
0000
0000
0000
0000
0000
0000
0000
0000
2200
,  // measure 73
0000
0000
0000
0000
0000
0000
0000
0000
0000
0000
0000
3300
,  // measure 74
0000
0000
0000
0000
0000
0000
0000
0000
0000
0000
0000
2002
,  // measure 75
0000
0000
0000
0000
0000
0000
0000
0000
0000
0000
0000
3003
,  // measure 76
0000
0000
0000
0000
0000
0000
0000
0000
0000
0000
0000
0110
,  // measure 77
0000
0000
0000
0000
0000
0110
0000
0000
0000
0000
0000
0110
,  // measure 78
0000
0000
0000
0000
0000
0110
0000
0000
0000
0000
0000
1001
,  // measure 79
0000
0000
0000
0000
0000
1000
0000
0000
0000
0000
0000
2000
,  // measure 80
0000
0000
0000
0000
0000
3000
0000
0000
0000
0000
0000
0110
,  // measure 81
0000
0000
0000
0000
0000
0010
0000
0000
0000
0000
0000
0020
,  // measure 82
0000
0000
0000
0000
0000
0030
0000
0000
0000
0000
0000
1001
,  // measure 83
0000
0000
0000
0000
0000
1000
0000
0000
0000
0000
0000
2000
,  // measure 84
0000
0000
0000
0000
0000
3000
0000
0000
0000
0000
0000
0110
,  // measure 85
0000
0000
0000
0000
0000
0100
0000
0000
0000
0000
0000
0200
,  // measure 86
0000
0000
0000
0000
0000
0300
0000
0000
0000
0000
0000
0011
,  // measure 87
0000
0000
0000
0000
0000
0001
0000
0000
0000
0000
0000
0002
,  // measure 88
0000
0000
0000
0000
0000
0003
0000
0000
0000
0000
0000
1001
,  // measure 89
0000
0000
0000
0000
0000
1000
0000
0000
0000
0000
0000
2000
,  // measure 90
0000
0000
0000
0000
0000
3000
0000
0000
0000
0000
0000
0101
,  // measure 91
0000
0000
0000
0000
0000
0100
0000
0000
0000
0000
0000
0200
,  // measure 92
0000
0000
0000
0000
0000
0300
0000
0000
0000
0000
0000
0000
,  // measure 93
0100
0000
0010
0000
,  // measure 94
0200
0000
0300
0000
,  // measure 95
0010
0000
0100
0000
,  // measure 96
0100
0000
0100
0000
,  // measure 97
0100
0000
0000
0000
,  // measure 98
0100
0000
0000
0000
,  // measure 99
0100
0000
0000
0000
,  // measure 100
0001
0000
0000
0000
,  // measure 101
1000
0000
0000
0000
,  // measure 102
0100
0000
0000
0000
;

//---------------dance-double - ----------------
#NOTES:
     dance-double:
     :
     Easy:
     4:
     0.210,0.337,0.227,0.313,0.173,140.000,34.000,47.000,0.000,0.000:  // measure 1
00000000
00000000
00000000
00000000
,  // measure 2
00000000
00000000
00000000
00000000
,  // measure 3
10010000
00000000
00000000
00000000
,  // measure 4
01010000
00000000
00000000
00000000
,  // measure 5
00011000
00000000
00000000
00000000
,  // measure 6
00001010
00000000
00000000
00000000
,  // measure 7
00000110
00000000
00000000
00000000
,  // measure 8
00001001
00000000
00000000
00000000
,  // measure 9
00001100
00000000
00000000
00000000
,  // measure 10
00011000
00000000
00000000
00000000
,  // measure 11
00100000
00000000
00000000
00000000
,  // measure 12
00010000
00000000
01000000
00000000
,  // measure 13
00100000
00000000
00000000
00000000
,  // measure 14
10000000
00000000
01000000
00000000
,  // measure 15
00100000
00000000
00010000
00000000
,  // measure 16
00010000
00000000
00010000
00000000
,  // measure 17
00100000
00000000
00000000
00000000
,  // measure 18
00000000
00000000
10010000
00000000
,  // measure 19
01000000
00000000
01000000
00000000
,  // measure 20
00100000
00000000
00100000
00000000
,  // measure 21
10000000
00000000
10000000
00000000
,  // measure 22
00010000
00000000
00010000
00000000
,  // measure 23
00011000
00000000
00001000
00000000
,  // measure 24
00001000
00000000
00001000
00000000
,  // measure 25
00001000
00000000
00000000
00000000
,  // measure 26
00000000
00000000
00000020
00000000
,  // measure 27
00000000
00000030
00000000
00000000
,  // measure 28
00001000
00000000
00000100
00000000
,  // measure 29
00000001
00000000
00000010
00000000
,  // measure 30
00000100
00000000
00001000
00000000
,  // measure 31
00012000
00000000
00023000
00000000
,  // measure 32
00032000
00000000
00023000
00000000
,  // measure 33
00032000
00000000
00000000
00000000
,  // measure 34
00013000
00000000
00000000
00000000
,  // measure 35
00012000
00000000
00023000
00000000
,  // measure 36
00032000
00000000
00023000
00000000
,  // measure 37
00032000
00000000
00000000
00000000
,  // measure 38
00023000
00000000
00000000
00000000
,  // measure 39
00031000
00000000
00000000
00000000
00000000
00001000
00000000
00000000
00000000
00000000
00000000
00001000
,  // measure 40
00000000
00000000
00000000
00000000
00000000
00000000
00000000
00000000
00000000
00000000
00000000
00010000
,  // measure 41
00000000
00000000
00000000
00000000
00000000
00010000
00000000
00000000
00000000
00000000
00000000
00010000
,  // measure 42
00000000
00000000
00000000
00000000
00000000
00000000
00000000
00000000
00000000
00000000
00000000
00100000
,  // measure 43
00000000
00000000
00000000
00000000
00000000
00100000
00000000
00000000
00000000
00000000
00000000
00100000
,  // measure 44
00000000
00000000
00000000
00000000
00000000
00000000
00000000
00000000
00000000
00000000
00000000
01000000
,  // measure 45
00000000
00000000
00000000
00000000
00000000
01000000
00000000
00000000
00000000
00000000
00000000
01000000
,  // measure 46
00000000
00000000
00000000
00000000
00000000
00010000
00000000
00000000
00000000
00000000
00000000
10010000
,  // measure 47
00000000
00000000
00000000
00000000
00000000
00000000
00000000
00000000
00000000
00000000
00000000
11000000
,  // measure 48
00000000
00000000
00000000
00000000
00000000
10000000
00000000
00000000
00000000
00000000
00000000
01000000
,  // measure 49
00000000
00000000
00000000
00000000
00000000
00000000
00000000
00000000
00000000
00000000
00000000
00110000
,  // measure 50
00000000
00000000
00000000
00000000
00000000
00100000
00000000
00000000
00000000
00000000
00000000
00010000
,  // measure 51
00000000
00000000
00000000
00000000
00000000
00000000
00000000
00000000
00000000
00000000
00000000
00011000
,  // measure 52
00000000
00000000
00000000
00000000
00000000
00010000
00000000
00000000
00000000
00000000
00000000
00001000
,  // measure 53
00000000
00000000
00000000
00000000
00000000
00001000
00000000
00000000
00000000
00000000
00000000
00001000
,  // measure 54
00000000
00000000
00000000
00000000
00000000
00001000
00000000
00000000
00000000
00000000
00000000
00022000
,  // measure 55
00000000
00000000
00000000
00000000
00000000
00000000
00000000
00000000
00000000
00000000
00000000
00033000
,  // measure 56
00000000
00000000
00000000
00000000
00000000
00000000
00000000
00000000
00000000
00000000
00000000
00000220
,  // measure 57
00000000
00000000
00000000
00000000
00000000
00000000
00000000
00000000
00000000
00000000
00000000
00000330
,  // measure 58
00000000
00000000
00000000
00000000
00000000
00000000
00000000
00000000
00000000
00000000
00000000
00002002
,  // measure 59
00000000
00000000
00000000
00000000
00000000
00000000
00000000
00000000
00000000
00000000
00000000
00003003
,  // measure 60
00000000
00000000
00000000
00000000
00000000
00000000
00000000
00000000
00000000
00000000
00000000
00002200
,  // measure 61
00000000
00000000
00000000
00000000
00000000
00000000
00000000
00000000
00000000
00000000
00000000
00003300
,  // measure 62
00000000
00000000
00000000
00000000
00000000
00000000
00000000
00000000
00000000
00000000
00000000
00000001
,  // measure 63
00000000
00000000
00000000
00000000
00000000
00000100
00000000
00000000
00000000
00000000
00000000
00000010
,  // measure 64
00000000
00000000
00000000
00000000
00000000
00000000
00000000
00000000
00000000
00000000
00000000
00000010
,  // measure 65
00000000
00000000
00000000
00000000
00000000
00001000
00000000
00000000
00000000
00000000
00000000
00000100
,  // measure 66
00000000
00000000
00000000
00000000
00000000
00000000
00000000
00000000
00000000
00000000
00000000
00000100
,  // measure 67
00000000
00000000
00000000
00000000
00000000
00010000
00000000
00000000
00000000
00000000
00000000
00001000
,  // measure 68
00000000
00000000
00000000
00000000
00000000
00000000
00000000
00000000
00000000
00000000
00000000
00001000
,  // measure 69
00000000
00000000
00000000
00000000
00000000
00100000
00000000
00000000
00000000
00000000
00000000
00010000
,  // measure 70
00000000
00000000
00000000
00000000
00000000
00000000
00000000
00000000
00000000
00000000
00000000
00021000
,  // measure 71
00000000
00000000
00000000
00000000
00000000
00032000
00000000
00000000
00000000
00000000
00000000
00023000
,  // measure 72
00000000
00000000
00000000
00000000
00000000
00030000
00000000
00000000
00000000
00000000
00000000
00012000
,  // measure 73
00000000
00000000
00000000
00000000
00000000
00023000
00000000
00000000
00000000
00000000
00000000
00032000
,  // measure 74
00000000
00000000
00000000
00000000
00000000
00003000
00000000
00000000
00000000
00000000
00000000
00021000
,  // measure 75
00000000
00000000
00000000
00000000
00000000
00032000
00000000
00000000
00000000
00000000
00000000
00023000
,  // measure 76
00000000
00000000
00000000
00000000
00000000
00030000
00000000
00000000
00000000
00000000
00000000
00011000
,  // measure 77
00000000
00000000
00000000
00000000
00000000
00000000
00000000
00000000
00000000
00000000
00000000
00011000
00000000
00000000
00000000
00000000
00000000
00000000
00000000
00000000
00000000
00000000
00000000
00000000
,  // measure 78
00011000
00000000
00011000
00000000
,  // measure 79
00021000
00000000
00032000
00000000
,  // measure 80
00023000
00000000
00030000
00000000
,  // measure 81
00000010
00000000
00000100
00000000
,  // measure 82
00000010
00000000
00000000
00000000
,  // measure 83
00012000
00000000
00023000
00000000
,  // measure 84
00032000
00000000
00003000
00000000
,  // measure 85
01000000
00000000
00100000
00000000
,  // measure 86
01000000
00000000
00000000
00000000
,  // measure 87
12000000
00000000
23000000
00000000
,  // measure 88
32000000
00000000
03000000
00000000
,  // measure 89
00120000
00000000
00230000
00000000
,  // measure 90
00320000
00000000
00030000
00000000
,  // measure 91
00012000
00000000
00023000
00000000
,  // measure 92
00032000
00000000
00003000
00000000
,  // measure 93
00001020
00000000
00002030
00000000
,  // measure 94
00003020
00000000
00000030
00000000
,  // measure 95
00000101
00000000
00000100
00000000
,  // measure 96
00000010
00000000
00000000
00000000
,  // measure 97
00001000
00000000
00000000
00000000
,  // measure 98
00000100
00000000
00000000
00000000
,  // measure 99
00010000
00000000
00000000
00000000
,  // measure 100
00001000
00000000
00000000
00000000
,  // measure 101
00010000
00000000
00000000
00000000
,  // measure 102
00001000
00000000
00000000
00000000
;

//---------------dance-double - ----------------
#NOTES:
     dance-double:
     :
     Medium:
     6:
     0.290,0.407,0.193,0.373,0.373,220.000,29.000,56.000,0.000,0.000:  // measure 1
00000000
00000000
00000000
00000000
,  // measure 2
00000000
00000000
00000000
00000000
,  // measure 3
00000110
00000000
00000000
00000000
00000000
00000000
00000100
00000000
00000100
00000000
00000100
00000000
,  // measure 4
00000100
00000000
00001001
00000000
,  // measure 5
00001000
00000000
00000100
00000000
,  // measure 6
00010000
00000000
00001000
00000000
,  // measure 7
00011000
00000000
00000000
00000000
00000000
00000000
00010000
00000000
00010000
00000000
00010000
00000000
,  // measure 8
00010000
00000000
00110000
00000000
,  // measure 9
01000000
00000000
10000000
00000000
,  // measure 10
00100000
00000000
00000000
00000000
00000000
00000000
10000000
00000000
00010000
00000000
10000000
00000000
,  // measure 11
00010000
00000000
01000000
00000000
,  // measure 12
00001000
00000000
00100000
00000000
,  // measure 13
00010000
00000000
01000000
00000000
,  // measure 14
00100000
00000000
10000000
00000000
,  // measure 15
01000000
00000000
00100000
00000000
00010000
00000000
01000000
00000000
00100000
00000000
10000000
00000000
,  // measure 16
01000000
00000000
01000000
00000000
,  // measure 17
01000000
00000000
10010000
00000000
,  // measure 18
00000000
00000000
00011000
00000000
,  // measure 19
00000000
00000000
00000110
00000000
,  // measure 20
00000100
00000000
00000001
00000000
,  // measure 21
00001000
00000000
00000010
00000000
,  // measure 22
00001000
00000000
00000100
00000000
,  // measure 23
00000010
00000000
00000001
00000000
00001000
00000000
00000100
00000000
00000010
00000000
00000001
00000000
,  // measure 24
00000100
00000000
00000010
00000000
00001000
00000000
00000100
00000000
00000000
00000000
00000000
00000000
,  // measure 25
00000100
00000000
00001010
00000000
,  // measure 26
00000000
00000000
00011000
00000000
,  // measure 27
01020000
00000000
00000000
00000000
,  // measure 28
10030000
00000000
01000000
00000000
,  // measure 29
00200000
00000000
00320000
00000000
,  // measure 30
20030000
00000000
32000000
00000000
,  // measure 31
03200000
00000000
00010000
00000000
,  // measure 32
00000000
00000000
00001000
00000000
,  // measure 33
00310000
00000000
01000000
00000000
,  // measure 34
00100000
00000000
00001000
00000000
,  // measure 35
00020000
00000000
00032000
00000000
,  // measure 36
00023000
00000000
00030200
00000000
,  // measure 37
00002300
00000000
00003002
00000000
,  // measure 38
00000023
00000000
00000000
00000000
,  // measure 39
00000130
00000000
00000000
00000000
00000000
00001000
00000000
00000000
00000000
00000010
00000000
00000100
,  // measure 40
00000000
00000000
00000000
00000000
00000001
00000000
00000000
00000000
00000000
00000000
00000000
00001000
,  // measure 41
00000000
00000000
00000000
00000000
00000000
00000100
00000000
00000000
00000000
00010000
00000000
00001000
,  // measure 42
00000000
00000000
00000000
00000000
00000000
01000000
00000000
00000000
00000000
00000000
00000000
00100000
,  // measure 43
00000000
00000000
00000000
00000000
00000000
10000000
00000000
00000000
00000000
01000000
00000000
00100000
,  // measure 44
00000000
00000000
00000000
00000000
00000000
00001000
00000000
00000000
00000000
00000000
00000000
01000000
,  // measure 45
00000000
00000000
00000000
00000000
00000000
00010000
00000000
00000000
00000000
10000000
00000000
00100000
,  // measure 46
00000000
00000000
00000000
00000000
00000000
01000000
00000000
00000000
00000000
00000000
00000000
00020000
,  // measure 47
00000000
00000000
00000000
00000000
00000000
00000000
00000000
00000000
00000000
00000000
00000000
20030000
,  // measure 48
00000000
00000000
00000000
00000000
00000000
00000000
00000000
00000000
00000000
00000000
00000000
32000000
,  // measure 49
00000000
00000000
00000000
00000000
00000000
00000000
00000000
00000000
00000000
00000000
00000000
03200000
,  // measure 50
00000000
00000000
00000000
00000000
00000000
00000000
00000000
00000000
00000000
00000000
00000000
00302000
,  // measure 51
00000000
00000000
00000000
00000000
00000000
00000000
00000000
00000000
00000000
00000000
00000000
00023000
,  // measure 52
00000000
00000000
00000000
00000000
00000000
00000000
00000000
00000000
00000000
00000000
00000000
00030200
,  // measure 53
00000000
00000000
00000000
00000000
00000000
00000320
00000000
00000000
00000000
00000000
00000000
00000032
,  // measure 54
00000000
00000000
00000000
00000000
00000000
00000203
00000000
00000000
00000000
00000000
00000000
00000320
,  // measure 55
00000000
00000000
00000000
00000000
,  // measure 56
00000000
00000000
00000000
00000030
00000000
00001001
00000000
00000000
00000000
00000000
00000000
00002000
,  // measure 57
00000000
00000000
00000000
00000000
,  // measure 58
00000000
00000000
00000000
00003000
00000000
00000000
00000000
00000010
00000000
00000100
00000000
00002002
,  // measure 59
00000000
00000000
00000000
00000000
,  // measure 60
00000000
00000000
00000000
00003003
00000000
00000000
00000110
00000000
00000000
00000000
00000000
00001000
,  // measure 61
00000000
00000100
00000000
00000010
00000000
00000002
00000000
00000000
00000000
00000000
00000000
00000203
,  // measure 62
00000000
00000000
00000000
00000000
00000000
00000310
00000000
00000010
00000000
00000010
00000000
00002000
,  // measure 63
00000000
00000000
00000000
00000000
00000000
00003002
00000000
00000000
00000000
00000000
00000000
00001003
,  // measure 64
00000000
00000100
00000000
00001000
00000000
00000200
00000000
00000000
00000000
00000000
00000000
00000310
,  // measure 65
00000000
00000000
00000000
00000000
00000000
00000002
00000000
00000000
00000000
00000000
00000000
00000203
,  // measure 66
00000000
00000000
00000000
00000000
00000000
00000300
00000000
00000010
00000000
00000010
00000000
00000020
,  // measure 67
00000000
00000000
00000000
00000000
00000000
00000000
00000000
00000000
00000000
00000000
00000000
00010030
,  // measure 68
00000000
00000000
00000000
00000000
00000000
00001000
00000000
00000000
00000000
00000000
00000000
01000000
,  // measure 69
00000000
00000000
00000000
00000000
00000000
00100000
00000000
00000000
00000000
00000000
00000000
20000000
,  // measure 70
00000000
00000000
00000000
00000000
00000000
00000000
00000000
00000000
00000000
00000000
00000000
31000000
,  // measure 71
00000000
00000000
00000000
00000000
00000000
01000000
00000000
00000000
00000000
00000000
00000000
01000000
,  // measure 72
00000000
00000000
00000000
00000000
00000000
00000000
00000000
00000000
00000000
00000000
00000000
00100000
,  // measure 73
00000000
00010000
00000000
00100000
00000000
00020000
00000000
00000000
00000000
00000000
00030000
02000000
,  // measure 74
00000000
00000000
00000000
00000000
00000000
03000000
00000000
00000000
00000000
00000000
00000000
00100000
,  // measure 75
00000000
00000000
00000000
00000000
00000000
00100000
00000000
00000000
00000000
00000000
00000000
00100000
,  // measure 76
00000000
00000000
00000000
00000000
00000000
00000000
00000000
00000000
00000000
00000000
00000000
10000000
,  // measure 77
00000000
00010000
00000000
01000000
00000000
00200000
00000000
00000000
00000000
00000000
00000000
00300000
,  // measure 78
20000000
00000000
30000000
00000000
,  // measure 79
10010000
00000000
10010000
00000000
,  // measure 80
10010000
00000000
00000000
00000000
,  // measure 81
01000000
00000000
00100000
00000000
01000000
00000000
00200000
00000000
00000000
00000000
00000000
00000000
,  // measure 82
02300000
00000000
03000000
00000000
,  // measure 83
00011000
00000000
00011000
00000000
,  // measure 84
00011000
00000000
00000000
00000000
,  // measure 85
00010000
00000000
00001000
00000000
00010000
00000000
00002000
00000000
00000000
00000000
00000000
00000000
,  // measure 86
00023000
00000000
00030000
00000000
,  // measure 87
00000110
00000000
00000110
00000000
,  // measure 88
00000110
00000000
00000000
00000000
,  // measure 89
00001000
00000000
00000001
00000000
00001000
00000000
00000002
00000000
00000000
00000000
00000000
00000000
,  // measure 90
00002003
00000000
00003000
00000000
,  // measure 91
00001100
00000000
00011000
00000000
,  // measure 92
01010000
00000000
00000000
00000000
,  // measure 93
10000000
00000000
00100000
00000000
10000000
00000000
00200000
00000000
00000000
00000000
00000000
00000000
,  // measure 94
20300000
00000000
30000000
00000000
,  // measure 95
20200000
00000000
00000000
30300000
,  // measure 96
02020000
00000000
00000000
03030000
,  // measure 97
00220000
00000000
00000000
00330000
,  // measure 98
00022000
00000000
00000000
00033000
,  // measure 99
00000000
00010000
00000000
00000000
00001000
00000000
00000000
00010000
00000000
00000000
00001000
00000000
00000000
00010000
00000000
00000000
00000000
00000000
00000000
00001000
00000000
00000000
00000000
00000000
,  // measure 100
00000000
00010000
00000000
00000000
00001000
00000000
00000000
00010000
00000000
00000000
00001000
00000000
00000000
00010000
00000000
00000000
00000000
00000000
00000000
00001000
00000000
00000000
00000000
00000000
,  // measure 101
00000000
00010000
00000000
00000000
00001000
00000000
00000000
00010000
00000000
00000000
00001000
00000000
00000000
00010000
00000000
00000000
00000000
00000000
00000000
00001000
00000000
00000000
00000000
00000000
,  // measure 102
00000000
00010000
00000000
00000000
00001000
00000000
00000000
00010000
00000000
00000000
00001000
00000000
00000000
00010000
00000000
00000000
00000000
00000000
00000000
00001000
00000000
00000000
00000000
00000000
;
