#TITLE:Star Child;
#SUBTITLE:;
#ARTIST:Dune;
#TITLETRANSLIT:;
#SUBTITLETRANSLIT:;
#ARTISTTRANSLIT:;
#CREDIT:;
#BANNER:star child-bn.png;
#BACKGROUND:star child-bg.jpg;
#LYRICSPATH:;
#CDTITLE:!djcsta-cdtitle.png;
#MUSIC:Star Child.mp3;
#OFFSET:-5.680;
#SAMPLESTART:76.230;
#SAMPLELENGTH:12.000;
#SELECTABLE:YES;
#BPMS:0.000=172.000;
#STOPS:;
#BGCHANGES:;
// cache tags:
#FIRSTBEAT:0.000;
#LASTBEAT:662.000;
#SONGFILENAME:Songs/Community Keyboard Megapack - Volume 2/(CStarFlare)Star Child/starchild.sm;
#HASMUSIC:1;
#HASBANNER:1;
#MUSICLENGTH:237.670;
// end cache tags

//---------------dance-single - ----------------
#NOTES:
     dance-single:
     :
     Hard:
     10:
     1.000,1.000,1.000,0.454,0.816,1554.000,320.000,108.000,0.000,0.000:  // measure 1
0100
0000
1000
0100
0010
0001
0010
0100
0010
0001
1000
0100
1000
0000
0001
0000
,  // measure 2
1000
0100
0010
0100
0010
0001
0100
0000
0010
0100
1000
0100
0010
0001
1000
0001
,  // measure 3
0010
0100
1000
0001
1000
0100
0010
0001
0010
0100
0010
0100
0001
1000
0100
0000
,  // measure 4
0010
0000
0100
1000
0100
0010
0100
0001
0100
0010
1000
0001
0100
0000
1000
0000
,  // measure 5
0010
0000
0100
0001
1000
0000
0010
0000
0000
0000
0001
0000
0100
0000
0000
0000
,  // measure 6
1000
0000
0100
0010
0001
0000
0100
0000
0000
0000
1000
0000
0100
0000
0000
0000
,  // measure 7
0010
0000
0100
1000
0001
0000
0010
0000
0000
0000
0100
0000
1000
0000
0000
0000
,  // measure 8
0001
0000
0010
0100
1000
0000
0010
0000
0000
0000
0100
0000
0001
0000
0000
0000
,  // measure 9
1000
0000
0010
0001
0100
0000
0010
0000
0000
0000
0001
0000
1000
0000
0000
0000
,  // measure 10
0001
0000
0010
0100
0001
0000
1000
0000
0000
0000
0100
0000
0001
0000
0000
0000
,  // measure 11
1000
0000
0100
0010
0100
0000
0001
0000
0000
0000
1000
0000
1000
0000
0000
0000
,  // measure 12
1000
0000
0010
0100
0001
0000
0010
0000
0000
0000
1000
0000
0100
0000
0000
0000
,  // measure 13
0010
0000
0001
0100
1000
0000
0001
0000
0000
0000
0100
0000
1000
0000
0100
0000
,  // measure 14
0010
0000
0001
0010
0100
0000
1000
0000
0000
0000
0010
0000
0002
0000
0003
0000
,  // measure 15
0010
0000
0100
0001
1000
0000
0200
0000
0300
0000
0010
0000
0001
0000
1000
0000
,  // measure 16
0100
0000
0010
0100
1000
0000
0002
0000
0000
0000
0013
0000
0200
0000
0000
0000
,  // measure 17
1300
0000
0010
1000
0100
0000
0020
0000
0030
0000
1000
0000
0100
0000
0002
0000
,  // measure 18
1003
0000
0100
0010
0100
0000
1000
0000
0200
0000
1300
0000
0020
0000
0000
0000
,  // measure 19
1030
0001
1000
0001
1000
0001
1000
0001
0100
0010
0100
0010
0100
0010
0100
0010
,  // measure 20
1000
0010
1000
0010
1000
0010
1000
0010
0100
0001
0100
0001
0100
0001
0100
0001
,  // measure 21
0110
0101
1010
1001
,  // measure 22
0010
1000
0100
0001
0010
1000
0100
0001
,  // measure 23
0010
0100
0010
1000
0010
0100
0010
0001
,  // measure 24
0010
1000
0100
0001
0010
1000
0100
0001
,  // measure 25
0010
1000
0010
0100
0010
0001
0010
1100
,  // measure 26
1010
0100
1000
0000
0100
0010
0100
0000
0010
0001
0010
0000
0100
0010
0100
0000
,  // measure 27
0001
1000
0001
0000
0010
0001
0010
0000
0100
1000
0100
0000
0010
0100
0010
0000
,  // measure 28
1000
0001
1000
0000
0001
0100
0001
0000
1000
0010
1000
0000
0100
0010
0100
0000
,  // measure 29
0010
0001
0010
0000
0100
1000
0100
0000
0001
1000
0001
0000
0100
0010
0100
0000
,  // measure 30
2001
3000
0100
0010
0002
0003
0010
0100
,  // measure 31
2000
3000
0100
0010
0002
0003
0100
1000
,  // measure 32
0020
0030
0100
0001
0020
0030
1000
0100
,  // measure 33
0002
0003
0010
0100
2000
3000
0002
0013
,  // measure 34
1010
0100
1000
0000
0010
0001
0010
0000
0100
0010
0100
0000
0010
1000
0010
0000
,  // measure 35
0100
1000
0100
0000
0010
0001
0010
0000
0001
0100
0001
0000
0001
1000
0001
0000
,  // measure 36
0001
1000
0001
1000
0001
1000
0001
1000
0010
0100
0010
0100
0010
0100
0010
0100
,  // measure 37
0010
1000
0010
1000
0010
1000
0010
1000
0100
0010
0100
0000
0100
0000
0100
0000
,  // measure 38
1100
0000
1100
0010
1002
0003
1010
0100
,  // measure 39
2001
3000
0101
0010
1002
0003
0101
1000
,  // measure 40
1020
0030
1100
0001
1020
0030
1001
0100
,  // measure 41
1002
0003
0011
0100
2010
3000
0012
0003
,  // measure 42
1010
0000
1100
0010
1002
0003
1010
0100
,  // measure 43
0021
0030
0101
0010
0102
0003
1001
0010
,  // measure 44
0201
0300
0011
0100
2001
3000
0101
0010
,  // measure 45
0102
0000
0003
0000
0101
0000
1000
0000
0210
0010
0310
0000
1020
0000
1030
0000
,  // measure 46
1010
0010
1100
0110
1002
0103
0011
1100
,  // measure 47
2010
3001
0110
1010
0102
0013
0101
1100
,  // measure 48
0021
1030
0110
1001
0120
0031
1100
0110
,  // measure 49
1002
0103
0011
0110
2100
3010
0102
1003
,  // measure 50
1010
0001
1100
0110
0012
0103
1010
0101
,  // measure 51
1020
0031
1100
0110
0012
1003
0011
1010
,  // measure 52
0201
0310
1010
0101
2010
3001
0110
1010
,  // measure 53
0102
0013
1001
1100
0021
0130
1200
0310
,  // measure 54
1001
0010
1001
0010
1001
0010
0000
0010
,  // measure 55
1000
0011
0001
0110
1000
1010
0001
0110
,  // measure 56
1000
0101
0100
0011
0010
1001
0100
0011
,  // measure 57
0010
1100
0001
0101
0010
0110
0001
1100
,  // measure 58
0010
1010
0100
1100
0001
1001
0100
1010
,  // measure 59
0001
0110
0100
1001
0010
0011
0100
1100
,  // measure 60
0001
0110
1000
1010
0001
0011
0100
0110
,  // measure 61
1000
0000
1001
0000
0010
0000
0101
0000
1000
0100
1000
0000
1000
0000
1000
0000
,  // measure 62
1002
0103
1002
0103
1002
0103
1000
0100
,  // measure 63
0001
0110
0100
1010
0100
0011
0100
0110
,  // measure 64
1000
1100
0010
1001
0100
1010
0100
0011
,  // measure 65
0010
1100
0010
0110
0001
1100
0100
0110
,  // measure 66
0010
1001
0010
1100
0010
0101
0010
1010
,  // measure 67
0100
0110
0010
0011
1000
0110
0001
0011
,  // measure 68
0100
1100
0010
1010
0100
0101
0010
0110
,  // measure 69
1000
0000
1001
0000
0100
0000
0100
0000
0100
0001
0100
0000
0100
0000
0100
0000
,  // measure 70
0100
0010
0100
0010
1000
0100
0010
0001
1000
0100
1000
0000
0000
0000
0000
0000
,  // measure 71
0000
1000
0010
1000
0000
0100
0010
0100
,  // measure 72
0002
0000
0003
0000
0200
0000
0300
0000
0000
0000
0000
0000
0010
0001
0010
0000
,  // measure 73
1000
0100
1000
0000
0010
0100
0010
0000
0001
0100
0001
0000
1000
0010
1000
0000
,  // measure 74
0010
0100
0010
0000
0100
0010
0100
0000
1000
0010
1000
0000
0001
0100
0001
0000
,  // measure 75
1000
0010
0100
0000
1000
0010
0100
0000
0100
0001
0010
0000
0100
0001
0010
0000
,  // measure 76
0100
0010
0001
0000
1000
0100
0010
0000
0100
0010
0001
0000
0100
0010
1000
0000
,  // measure 77
0010
0100
0001
0000
1000
0100
0010
0000
1000
0100
1000
0000
1000
0000
1000
0000
,  // measure 78
1001
0100
0010
0000
0110
0001
1000
0000
1000
0100
0010
0000
0100
0010
0001
0000
,  // measure 79
0001
0100
0010
0000
0100
0010
1000
0000
0001
1000
0100
0000
1000
0001
0010
0000
,  // measure 80
0100
0010
0001
0000
0010
0100
1000
0000
0100
0010
1000
0000
0100
0001
0010
0000
,  // measure 81
1000
0100
0001
0000
1000
0010
0001
0000
0001
0010
1000
0000
0001
0100
1000
0000
,  // measure 82
0110
0010
0001
0000
1100
0100
0010
0000
0100
0100
1000
0000
0010
0010
0100
0000
,  // measure 83
1000
1000
0001
0000
0100
0100
0010
0000
0010
0010
1000
0000
1000
1000
0001
0000
,  // measure 84
0100
0100
0010
0000
0001
0001
0010
0000
0001
0001
0100
0000
0001
0001
1000
0000
,  // measure 85
0100
0100
0010
0000
1000
0100
0010
0000
1000
0001
1000
0000
1000
0000
1000
0000
,  // measure 86
2001
3000
0100
0010
0002
0003
0010
0100
,  // measure 87
2000
3000
0100
0010
0002
0003
0100
1000
,  // measure 88
0020
0030
0100
0001
0020
0030
1000
0100
,  // measure 89
0002
0003
0010
0100
2000
3000
0002
0013
,  // measure 90
1010
0100
0010
0000
1000
0100
1000
0000
0010
0001
0010
0000
0100
0001
0100
0000
,  // measure 91
1000
0010
1000
0000
0100
0010
0100
0000
0001
1000
0001
0000
0010
1000
0010
0000
,  // measure 92
0001
0010
0001
0000
0010
1000
0010
0000
0100
0010
0100
0000
0010
0001
0010
0000
,  // measure 93
0100
1000
0100
0000
1000
0010
1000
0000
0001
0010
0001
0000
1000
0001
1000
0000
,  // measure 94
2000
3000
0100
0010
0002
0003
0010
0100
,  // measure 95
2000
3000
0100
0010
0002
0003
0100
1000
,  // measure 96
0020
0030
0100
0001
0020
0030
1000
0100
,  // measure 97
0002
0003
0010
0100
2000
3000
0002
0013
,  // measure 98
1010
0100
1000
0000
0001
0010
0001
0000
0100
0010
0100
0000
1000
0100
1000
0000
,  // measure 99
0010
0001
0010
0000
0100
0010
0100
0000
0010
1000
0010
0000
0100
0001
0100
0000
,  // measure 100
0100
0010
0100
0010
0100
0010
0100
0010
1000
0001
1000
0001
1000
0001
1000
0001
,  // measure 101
1000
0100
0010
0001
1000
0100
0010
0001
1000
0001
0010
0100
1000
0001
0010
0100
,  // measure 102
0210
0300
1010
0001
0210
0300
0011
1000
,  // measure 103
0120
0030
1100
0001
0210
0300
1100
0010
,  // measure 104
0012
0003
1010
0100
0012
0003
0110
1000
,  // measure 105
0210
0300
0101
1000
0021
0030
0201
0300
,  // measure 106
0011
0000
1010
0001
0210
0300
0011
1000
,  // measure 107
0102
0003
1100
0001
1200
0300
0110
0001
,  // measure 108
2100
3000
0101
1000
0120
0030
1100
0001
,  // measure 109
1200
0000
0300
0000
1100
0000
0010
0000
2001
0001
3001
0000
0012
0000
0013
0000
,  // measure 110
0011
0001
1010
1001
0210
1300
0101
1010
,  // measure 111
0021
0130
1001
0011
1200
0301
1100
1010
,  // measure 112
0102
0013
1001
0110
1002
0103
1010
1001
,  // measure 113
0210
1300
0101
1001
1020
0031
1200
0310
,  // measure 114
0012
0103
1010
1001
0201
1300
0011
1100
,  // measure 115
0012
0103
1010
1001
0201
0310
0101
0011
,  // measure 116
2100
3001
0011
1100
0021
0130
1001
0011
,  // measure 117
1200
0301
0110
1010
0102
1003
2010
3001
,  // measure 118
1001
0100
0010
0001
1000
0100
0010
0000
0001
0010
0100
1000
0001
0010
0100
0000
,  // measure 119
1000
0001
0100
0010
1000
0001
0010
0000
0010
0100
0001
1000
0010
0100
0001
0000
,  // measure 120
0010
0100
1000
0010
0100
0001
1000
0000
0001
0010
0100
1000
0010
1000
0100
0000
,  // measure 121
0010
0100
0001
0010
0001
1000
0100
0000
0001
0100
0010
1000
0100
0010
0001
0000
,  // measure 122
1000
0100
0010
0001
0100
0010
0001
0000
0010
0100
1000
0001
0010
0100
1000
0000
,  // measure 123
0010
0100
0001
1000
0010
0100
1000
0000
0100
0010
1000
0001
0100
0010
0001
0000
,  // measure 124
1000
0100
0010
0100
1000
0010
0100
0000
0001
0010
0100
0010
0001
1000
0100
0000
,  // measure 125
1000
0100
0010
0001
1000
0100
0010
0000
0001
0010
0100
1000
0010
0100
1000
0000
,  // measure 126
1000
0000
0000
0000
0000
0000
1000
0100
0010
0001
0000
0000
0010
0000
0000
0010
0000
0000
0000
0000
0000
0000
0000
0000
,  // measure 127
0100
0000
0000
0000
0000
0000
0001
0010
0100
1000
0000
0000
0001
0000
0000
0001
0000
0000
0000
0000
0000
0100
0000
0000
,  // measure 128
0100
0000
0000
0000
0000
0000
0010
0100
0001
1000
0000
0000
0010
0000
0000
0010
0000
0000
0000
0000
0000
0000
0000
0000
,  // measure 129
0010
0000
0000
0000
0000
0000
0100
0010
1000
0001
0000
0000
0100
0000
0000
0100
0000
0000
0000
0000
0000
1000
0000
0000
,  // measure 130
1000
0000
0000
0000
0000
0000
1000
0001
0010
0100
0000
0000
0010
0000
0000
0010
0000
0000
0000
0000
0000
0000
0000
0000
,  // measure 131
0001
0000
0000
0000
0000
0000
0001
1000
0100
0010
0000
0000
1000
0000
0000
1000
0000
0000
0000
0000
0000
0100
0000
0000
,  // measure 132
0100
0000
0000
0000
0000
0000
0100
0010
0100
0010
0000
0000
1000
0000
0000
1000
0000
0000
0000
0000
0000
0000
0000
0000
,  // measure 133
0001
0000
0000
0000
0000
0000
0001
1000
0001
1000
0000
0000
0100
0000
0000
0100
0000
0000
0000
0000
0000
0000
0000
0000
,  // measure 134
1000
0100
1000
0100
0010
0001
0010
0001
0010
0100
1100
0000
0110
0000
0000
0000
,  // measure 135
0011
0110
0000
0101
0110
0000
1010
0110
,  // measure 136
0000
1001
1100
0000
0110
1010
0000
1001
,  // measure 137
0101
0000
0110
1100
0000
0011
0110
0000
,  // measure 138
1001
0000
1001
0110
0000
0101
0110
0000
,  // measure 139
1001
1010
0000
1001
0110
0000
0101
1010
,  // measure 140
0000
0110
0101
0000
0110
0101
0000
1010
,  // measure 141
1100
0000
1001
0110
0000
1001
0110
0000
,  // measure 142
1001
0000
0110
0101
0000
0110
0011
0000
,  // measure 143
1010
0101
0000
0110
1001
0000
0101
0110
,  // measure 144
0000
1100
0110
0000
0101
0110
0000
1010
,  // measure 145
0101
0000
0101
1010
0000
0101
0110
0000
,  // measure 146
1100
0000
0101
1010
0000
0110
1001
0000
,  // measure 147
0101
0110
0000
0110
1010
0000
0101
1010
,  // measure 148
0000
1010
0101
0000
0101
0110
0000
0110
,  // measure 149
1100
0000
0011
1001
0000
0101
0110
0000
,  // measure 150
1000
0100
0010
0001
1000
0100
0010
0001
1000
0001
0010
0100
1000
0001
0010
0100
,  // measure 151
1000
0010
0100
0001
1000
0100
0010
0001
0100
0010
1000
0001
0100
0010
1000
0001
,  // measure 152
1010
0100
0010
0001
1010
0100
0010
0001
1000
0001
0010
0100
1000
0001
0010
0100
,  // measure 153
1000
0100
0010
1000
0001
0100
0010
0001
1000
0010
0100
0001
1000
0010
1001
0100
,  // measure 154
1001
0010
0100
1000
0001
0010
0100
1000
0001
1000
0100
0010
0001
1000
0100
0010
,  // measure 155
0001
0100
0010
1000
0001
0010
0100
1000
0001
1000
0100
0010
0001
0010
0100
1000
,  // measure 156
0001
0010
0001
0010
0100
1000
0100
0010
0001
0010
0100
1000
0100
0010
0001
1000
,  // measure 157
0001
1000
0100
1000
0100
0010
0001
0010
0100
1000
0001
1000
0010
0100
0010
0001
,  // measure 158
1010
0100
0010
0100
0010
1000
0001
1000
0001
0010
1000
0010
1000
0001
0100
0001
,  // measure 159
0100
0010
1000
0100
0010
0001
1000
0100
0010
0100
1000
0001
0010
0100
1001
0100
,  // measure 160
0010
0001
1010
0100
0010
0001
0010
0100
1000
0100
0010
0100
1000
0100
0010
0001
,  // measure 161
0010
0100
1000
0100
0010
0001
0010
0100
1000
0001
1000
0010
0001
0010
0110
1000
,  // measure 162
0110
0001
1000
0100
0010
0100
1000
0001
0010
0100
1000
0001
1000
0010
0100
1000
,  // measure 163
0100
0010
0001
1000
0001
0010
0100
1000
0100
0010
0001
1000
0001
0010
0100
0010
,  // measure 164
0001
1000
0001
0010
0100
1000
0010
0100
0001
0100
0010
1000
0100
0010
0001
0010
,  // measure 165
0100
1000
0100
0010
0100
1000
0001
0010
0001
1000
0001
0100
0010
0100
0001
0010
,  // measure 166
2001
3002
0003
0000
;
