#TITLE:Sigma Fortress Stage #3;
#SUBTITLE:;
#ARTIST:Capcom;
#TITLETRANSLIT:;
#SUBTITLETRANSLIT:;
#ARTISTTRANSLIT:;
#CREDIT:;
#BANNER:Sigma Fortress Stage #3.png;
#BACKGROUND:Sigma Fortress Stage #3 BG.PNG;
#LYRICSPATH:;
#CDTITLE:!XMaxX.png;
#MUSIC:Sigma Fortress Stage #3.mp3;
#OFFSET:-0.020;
#SAMPLESTART:7.500;
#SAMPLELENGTH:21.500;
#SELECTABLE:YES;
#BPMS:0.000=124.880;
#STOPS:;
#BGCHANGES:;
// cache tags:
#FIRSTBEAT:0.000;
#LASTBEAT:208.000;
#SONGFILENAME:Songs/keyboard/Sigma Fortress Stage #3 (Megaman X)/Sigma Fortress Stage #3.sm;
#HASMUSIC:1;
#HASBANNER:1;
#MUSICLENGTH:103.505;
// end cache tags

//---------------dance-single - ----------------
#NOTES:
     dance-single:
     :
     Challenge:
     8:
     0.693,0.678,0.908,0.000,0.000,408.000,94.000,0.000,0.000,0.000:
1000
1000
0001
0001
0100
0100
0010
0010
,
1000
1000
0100
0100
0010
0010
0001
0001
,
1000
1000
0001
0001
0100
0100
0010
0010
,
1010
0101
1001
1010
1100
0000
1001
1001
,
1000
0100
0010
0001
0100
0010
1000
0001
,
0010
0100
1000
0001
0100
0010
1000
0100
,
0010
0001
0100
0010
1000
0100
0010
0001
,
0100
0010
1000
0100
1000
0010
0100
0001
,
0100
0110
0010
1010
1000
1100
0100
0110
,
0010
0011
0001
1001
1000
1010
0010
0110
,
0100
0101
0001
0011
0010
0110
0100
1100
,
1001
1001
1001
1001
1001
0000
1001
1001
,
0001
0100
0010
1000
0100
0010
0001
0100
,
0010
0100
0010
1000
0100
0010
0001
0010
,
0100
1000
0001
0100
0010
1000
0100
1000
,
0010
0100
0001
0100
0010
1000
0010
0100
,
0001
1000
0001
1000
0010
0100
0001
0100
,
0010
1000
0100
0010
0001
0100
0010
1000
,
0001
0100
0010
1000
0100
0010
0001
0100
,
0110
1010
1100
0110
0011
0000
1001
1001
,
0001
0100
0010
1000
0100
0010
0001
0100
,
0010
1000
0001
0100
0010
1000
0100
0010
,
0001
0100
0010
1000
0001
0100
0010
1000
,
0101
0110
1010
1100
1001
0000
1001
1001
,
0001
0100
0001
0010
0001
0100
0001
1001
,
1000
0100
1000
0010
1000
0100
1000
1001
,
0001
0100
0001
0010
0001
0100
0001
1001
,
1100
1100
0011
0011
1001
0000
1001
1001
,
0001
0010
0100
1000
0010
0100
0001
1000
,
0100
0010
0001
1000
0010
0100
0001
0010
,
0100
1000
0010
0100
0001
0010
0100
1000
,
0010
0100
0001
0010
0001
0100
0010
1000
,
0010
0110
0100
0101
0001
0011
0010
0110
,
0100
1100
1000
1001
0001
0101
0100
0110
,
0010
1010
1000
1100
0100
0110
0010
0011
,
1001
1001
1001
1001
1001
0000
1001
1001
,
1000
0010
0100
0001
0010
0100
1000
0010
,
0100
0010
0100
0001
0010
0100
1000
0100
,
0010
0001
1000
0010
0100
0001
0010
0001
,
0100
0010
1000
0010
0100
0001
0100
0010
,
1000
0001
1000
0001
0100
0010
1000
0010
,
0100
0001
0010
0100
1000
0010
0100
0001
,
1000
0010
0100
0001
0010
0100
1000
0010
,
0110
0101
0011
0110
1100
0000
1001
1001
,
1000
0010
0100
0001
0010
0100
1000
0010
,
0100
0001
1000
0010
0100
0001
0010
0100
,
1000
0010
0100
0001
1000
0010
0100
0001
,
1010
0110
0101
0011
1001
0000
1001
1001
,
1000
0010
1000
0100
1000
0010
1000
1001
,
0001
0010
0001
0100
0001
0010
0001
1001
,
1000
0010
1000
0100
1000
0010
1000
1001
,
0011
0011
1100
1100
1001
0000
1001
1001
,
1001
0000
0000
0000
;
