#TITLE:Sting Chameleon;
#SUBTITLE:;
#ARTIST:Capcom;
#TITLETRANSLIT:;
#SUBTITLETRANSLIT:;
#ARTISTTRANSLIT:;
#CREDIT:;
#BANNER:Sting Chameleon.png;
#BACKGROUND:Sting Chameleon BG.png;
#LYRICSPATH:;
#CDTITLE:!XMaxX.png;
#MUSIC:Sting Chameleon.mp3;
#OFFSET:-0.020;
#SAMPLESTART:0.001;
#SAMPLELENGTH:15.199;
#SELECTABLE:YES;
#BPMS:0.000=170.360;
#STOPS:;
#BGCHANGES:;
// cache tags:
#FIRSTBEAT:1.000;
#LASTBEAT:197.000;
#SONGFILENAME:Songs/keyboard/Sting Chameleon (Megaman X)/Sting Chameleon.sm;
#HASMUSIC:1;
#HASBANNER:1;
#MUSICLENGTH:72.210;
// end cache tags

//---------------dance-single - ----------------
#NOTES:
     dance-single:
     :
     Beginner:
     1:
     0.186,0.167,0.208,0.000,0.000,79.000,15.000,0.000,0.000,0.000:
0000
1001
0000
0000
,
0000
0000
1000
0000
,
0001
0000
1000
0000
,
0001
0000
0000
1001
,
0000
1001
0000
0000
,
0000
0000
1000
0000
,
0001
0000
1000
0000
,
0001
0000
0000
1001
,
0000
1001
0000
0000
,
0000
0000
0001
0000
,
1000
0000
0001
0000
,
1000
0000
0000
1001
,
0000
1001
0000
0000
,
0000
0000
1000
0000
,
0001
0000
1000
0000
,
0001
0000
1000
0000
,
0001
1000
0000
0000
,
0000
0001
0000
1000
,
0000
0001
0000
0000
,
0000
0100
0000
0010
,
0000
0100
0000
0010
,
0000
0100
0000
0010
,
0000
1000
0000
0001
,
0000
1000
0000
0001
,
0000
1001
0000
0000
,
0000
0000
0001
0000
,
1000
0000
0001
0000
,
1000
0000
0000
1001
,
0000
1001
0000
0000
,
0000
0000
0001
0000
,
1000
0000
0001
0000
,
1000
0000
0000
1001
,
0000
1001
0000
0000
,
0000
0000
1000
0000
,
0001
0000
1000
0000
,
0001
0000
0000
1001
,
0000
1001
0000
0000
,
0000
0000
0001
0000
,
1000
0000
0001
0000
,
1000
0000
0001
0000
,
1000
0001
0000
0000
,
0000
1000
0000
0001
,
0000
1000
0000
0000
,
0000
0010
0000
0100
,
0000
0010
0000
0100
,
0000
0010
0000
0100
,
0000
0001
0000
1000
,
0000
0001
0000
1000
,
0000
1001
0000
0000
;

//---------------dance-single - ----------------
#NOTES:
     dance-single:
     :
     Easy:
     4:
     0.360,0.409,0.457,0.332,0.000,125.000,33.000,24.000,0.000,0.000:
0000
2002
0000
3003
,
0000
0000
1000
0001
,
0100
0010
1000
0001
,
0000
0000
0000
0002
0000
1003
0000
0000
,
0000
2002
0000
3003
,
0000
0000
1000
0001
,
0100
0010
1000
0001
,
1000
0002
0000
2003
,
0000
3000
2002
0000
0000
0000
3003
0000
,
0000
0000
0001
0100
,
0010
1000
0001
1000
,
0000
0000
0000
1000
0000
0001
0000
0000
,
0000
2002
0000
3003
,
0000
0000
1000
0001
,
0100
0010
1000
0100
,
0010
0001
1000
0001
,
1000
1001
0000
0110
,
0000
0001
1000
0001
,
0000
1001
0000
0110
,
0000
1000
0001
1000
,
0000
0000
1001
0000
0000
1001
0000
0000
,
1001
0000
1001
0000
0000
1001
0000
0000
,
1001
1001
0000
0110
,
0000
0010
1000
0001
,
1000
2002
0000
3003
,
0000
0000
0001
1000
,
0010
0100
0001
1000
,
0000
0000
0000
2000
0000
3001
0000
0000
,
0000
2002
0000
3003
,
0000
0000
0001
1000
,
0010
0100
0001
1000
,
0001
2000
0000
3002
,
0000
0003
2002
0000
0000
0000
3003
0000
,
0000
0000
1000
0010
,
0100
0001
1000
0001
,
0000
0000
0000
0001
0000
1000
0000
0000
,
0000
2002
0000
3003
,
0000
0000
0001
1000
,
0010
0100
0001
0010
,
0100
1000
0001
1000
,
0001
1001
0000
0110
,
0000
1000
0001
1000
,
0000
1001
0000
0110
,
0000
0001
1000
0001
,
0000
0000
1001
0000
0000
1001
0000
0000
,
1001
0000
1001
0000
0000
1001
0000
0000
,
1001
1001
0000
0110
,
0000
0100
0001
1000
,
0001
2002
0000
0000
,
0000
3003
0000
0000
;

//---------------dance-single - ----------------
#NOTES:
     dance-single:
     :
     Medium:
     7:
     0.538,0.546,0.346,0.471,0.000,213.000,25.000,34.000,0.000,0.000:
0000
0001
1000
0001
,
1000
0000
0001
0000
1000
0001
0100
0000
,
0001
1000
0100
0000
0000
0022
0000
0000
,
0000
0033
0000
0011
0000
1100
0000
0000
,
0000
1000
0010
0100
,
0001
0000
1000
0000
0001
1000
0100
0000
,
1000
0001
0100
0010
1000
0000
0001
1000
,
0100
1001
0110
0110
,
1001
0001
0100
0010
,
1000
0000
0001
0000
1000
0010
0100
0000
,
0001
0100
0010
0000
0000
2020
0000
0000
,
0000
3030
0000
1100
0000
0011
0000
0000
,
0000
1000
0001
1000
,
0001
0000
0100
0000
0010
1000
0100
0000
,
0010
0001
0100
0000
0010
1000
0100
0000
,
0010
0001
0100
0000
0020
0000
2030
0000
,
3002
1003
1000
1000
,
0001
1000
0001
0000
1000
0001
1000
0000
,
1001
0002
0203
0320
,
1030
0100
1000
0000
0001
0010
0001
0000
,
1001
0000
2000
0000
0000
3002
0000
0000
,
0203
0000
0320
0000
0000
2030
0000
0000
,
3002
1003
0100
0010
,
0001
0000
0001
0010
0100
1000
0001
0100
,
0010
1000
1000
0000
0001
0000
1000
0000
,
0001
0000
1000
0000
0001
1000
0010
0000
,
1000
0001
0010
0000
0000
2200
0000
0000
,
0000
3300
0000
1100
0000
0011
0000
0000
,
0000
0001
0100
0010
,
1000
0000
0001
0000
1000
0001
0010
0000
,
0001
1000
0010
0100
0001
0000
1000
0001
,
0010
1001
0110
0110
,
1001
1000
0010
0100
,
0001
0000
1000
0000
0001
0100
0010
0000
,
1000
0010
0100
0000
0000
0202
0000
0000
,
0000
0303
0000
0011
0000
1100
0000
0000
,
0000
0001
1000
0001
,
1000
0000
0010
0000
0100
0001
0010
0000
,
0100
1000
0010
0000
0100
0001
0010
0000
,
0100
1000
0010
0000
0200
0000
0302
0000
,
2003
3001
0001
0001
,
1000
0001
1000
0000
0001
1000
0001
0000
,
1001
2000
3020
0230
,
0301
0010
0001
0000
1000
0100
1000
0000
,
1001
0000
0002
0000
0000
2003
0000
0000
,
3020
0000
0230
0000
0000
0302
0000
0000
,
2003
3001
0010
0100
,
1000
0000
1000
0100
0010
0001
1000
0010
,
0100
0001
2002
0000
0000
0000
0000
0000
,
0000
3003
0000
0000
;

//---------------dance-single - ----------------
#NOTES:
     dance-single:
     :
     Hard:
     8:
     0.641,0.614,0.679,0.471,0.055,241.000,49.000,34.000,0.000,0.000:
0000
2002
0000
0000
,
3003
0000
0000
0001
0100
0010
1000
0100
,
1000
0001
1000
0001
0000
2002
0000
0000
,
0000
3003
0000
0101
0000
1010
0000
0000
,
1001
2002
0000
0000
,
3003
0000
0000
1000
0010
0100
0001
0100
,
0001
0010
0100
1000
0001
0100
0010
1000
,
0001
1000
0000
0000
1010
0000
1001
0000
,
0101
2002
0000
0000
,
3003
0000
0000
1000
0001
0100
0010
1000
,
0100
0010
0001
1000
0000
2002
0000
0000
,
0000
3003
0000
0101
0000
1010
0000
0000
,
1001
2002
0000
0000
,
3003
0000
0000
1000
0001
0100
0010
1000
,
0100
0010
0001
0100
0010
1000
0001
0100
,
0010
1000
0100
0010
0001
0100
0010
1000
,
0001
1000
2002
0003
3001
1000
0001
0000
,
1000
0001
0100
0010
1000
0100
0000
0100
,
0110
0000
2002
3000
1003
0001
1000
0000
,
0001
0100
0010
1000
0100
0010
0000
0001
,
1001
0000
1010
0000
0000
0101
0000
0000
,
1001
0000
1010
0000
0000
1001
0000
0000
,
0100
1000
0010
0000
0100
0001
0010
0000
,
0001
0000
1000
0000
0001
0000
0010
0000
0100
0000
1000
0000
0001
0100
0010
1000
,
0001
0100
0010
1000
2002
0000
0000
0000
0000
0000
0000
0000
0000
0000
0000
0000
,
3003
0000
0000
1000
0010
0100
0001
0010
,
0001
1000
0001
1000
0000
2002
0000
0000
,
0000
3003
0000
1010
0000
0101
0000
0000
,
1001
2002
0000
0000
,
3003
0000
0000
0001
0100
0010
1000
0010
,
1000
0100
0010
0001
1000
0010
0100
0001
,
1000
0001
0000
0000
0101
0000
1001
0000
,
1010
2002
0000
0000
,
3003
0000
0000
0001
1000
0010
0100
0001
,
0010
0100
1000
0001
0000
2002
0000
0000
,
0000
3003
0000
1010
0000
0101
0000
0000
,
1001
2002
0000
0000
,
3003
0000
0000
0001
1000
0010
0100
0001
,
0010
0100
1000
0010
0100
0001
1000
0010
,
0100
0001
0010
0100
1000
0010
0100
0001
,
1000
0001
2002
3000
1003
0001
1000
0000
,
0001
1000
0010
0100
0001
0010
0000
0010
,
0110
0000
2002
0003
3001
1000
0001
0000
,
1000
0010
0100
0001
0010
0100
0000
1000
,
1001
0000
0101
0000
0000
1010
0000
0000
,
1001
0000
0101
0000
0000
1001
0000
0000
,
0010
0001
0100
0000
0010
1000
0100
0000
,
1000
0000
0001
0000
1000
0000
0100
0000
0010
0000
0001
0000
1000
0010
0100
0001
,
1000
0010
0100
0001
2002
0000
0000
0000
0000
0000
0000
0000
0000
0000
0000
0000
,
0000
3003
0000
0000
;
