#TITLE:Never ending story;
#SUBTITLE:Faster159;
#ARTIST:Index159;
#TITLETRANSLIT:;
#SUBTITLETRANSLIT:;
#ARTISTTRANSLIT:;
#CREDIT:;
#BANNER:never.jpg;
#BACKGROUND:Ivory-Tower-the-neverending-story-690136_1024_640.jpg;
#LYRICSPATH:;
#CDTITLE:cdtitle.PNG;
#MUSIC:Never.mp3;
#OFFSET:-0.040;
#SAMPLESTART:35.685;
#SAMPLELENGTH:12.000;
#SELECTABLE:YES;
#BPMS:0.000=166.000;
#STOPS:;
#BGCHANGES:;
// cache tags:
#FIRSTBEAT:0.500;
#LASTBEAT:276.250;
#SONGFILENAME:Songs/Definitive Keyboard Megapack/Never ending story(Disregard159)/Never.sm;
#HASMUSIC:1;
#HASBANNER:1;
#MUSICLENGTH:102.695;
// end cache tags

//---------------dance-single - ----------------
#NOTES:
     dance-single:
     :
     Easy:
     15:
     1.000,1.000,0.302,0.321,1.000,1015.000,31.000,33.000,0.000,17.000:

0000
0000
2222
0000
0000
0000
0000
0000
0000
0000
0333
0000
3100
0010
1000
0100
,
1000
0010
0100
0001
0010
0001
0010
0001
0010
0001
0010
0001
0010
0100
0010
0100
,
0010
0100
0010
0100
0010
0100
0010
0100
1000
0001
1000
0001
1000
0001
1000
0001
,
1000
0001
1000
0001
1000
0001
1000
0100
1010
0001
0010
0100
1000
0100
1010
0001
,
0110
1001
0110
1000
0110
0101
1100
0100
,
0011
0100
0011
0010
0100
0010
1001
0100
,
0110
0000
1000
0000
0100
0001
0010
0000
1100
0000
0010
0000
0011
0000
0100
0000
,
0010
0000
1001
0000
0010
0000
0100
1000
0010
0000
0001
0000
0100
0000
0010
0000
,
1100
0000
0100
0000
0011
0000
0001
0010
0000
0100
1000
0000
0110
0000
0011
0000
,
0100
0010
1000
0100
0011
0100
0010
1000
,
0011
0000
0010
0000
0110
0000
1000
0000
0001
0010
0000
0100
1000
0000
0100
0010
,
1000
0010
1000
0100
1000
0010
1000
0100
1000
0100
0010
0001
2200
3310
0001
0010
,
0100
1000
0200
0310
0001
0010
0100
1000
0100
0001
0100
0010
1000
0100
0010
1001
,
0100
0001
0100
0010
1000
0001
0100
0010
1000
0100
0001
0100
1000
0010
0100
0001
,
0100
0010
1000
0100
0010
0001
1000
0100
0010
1000
0100
0001
1000
0010
0100
0001
,
1000
0010
0100
0001
0010
0100
0010
1000
0001
0010
0100
1000
0001
0010
0100
0001
,
0010
1000
0100
0010
0001
0100
0010
1000
0100
0010
0001
0010
0100
1000
0010
0100
,
0001
0010
1000
0100
0010
0001
1000
0100
0010
0100
0001
0010
0100
0001
1000
0001
,
0100
0010
1000
0001
0010
0100
1000
0001
0010
0100
0001
0010
0100
0001
0010
1000
,
0100
0010
1000
0100
0010
0100
0001
0010
0100
1000
0100
0010
0001
0010
0100
1000
,
0100
0001
1000
0100
0010
0100
1000
0001
0010
0100
0001
0010
1000
0010
0100
0001
,
0010
1000
0100
0001
0010
0100
1000
0010
0001
0100
1000
0001
0010
0100
0001
1000
,
0100
0001
0010
1000
0001
0100
0010
1000
0010
0001
0100
0010
1000
0001
0100
0010
,
1000
0100
0001
0100
1000
0100
0010
0001
0010
1000
0100
1000
0010
0001
0100
0010
,
0001
0100
1000
0010
0100
0001
0010
0100
1000
0100
0010
0001
0100
0010
1000
0100
,
0010
1000
0100
0010
1000
0001
0100
0010
2000
0000
0000
0000
0020
0000
0000
0200
,
3000
0000
0000
0002
0030
0000
0000
2000
0000
0000
0300
0020
0000
0000
0000
0200
,
0030
0003
0020
0000
0300
3000
0030
0022
1033
0100
0001
0010
0100
1000
0001
0010
,
0100
0001
1000
0010
0100
0010
1000
0100
0010
0100
1000
0010
1000
0100
0010
0100
,
1000
0100
0010
0100
0010
0001
0010
0001
0100
0010
1000
0100
1000
0100
0010
0100
,
0010
0001
0010
1000
0100
1000
0010
0100
0001
0100
0010
1000
0100
0010
0001
0010
,
0100
0001
1000
0010
0100
0001
1000
0001
1000
0010
0100
0010
1000
0010
1000
0100
,
0010
0001
0100
0001
0100
0001
0010
1000
0100
1000
0100
0010
0001
0100
0010
1000
,
0100
0001
1000
0010
0100
0001
0010
1000
0001
0100
0010
0001
1000
0100
0010
0001
,
0100
1000
0010
0100
0001
1000
0100
0010
0100
1000
0010
0100
0001
0010
1000
0001
,
0100
0010
1000
0100
0010
1000
0100
0010
1000
0100
0010
0001
0010
0100
0001
0010
,
0100
0001
0010
0100
1000
0100
0010
0001
0010
0100
1000
0100
0010
0001
0010
0100
,
1000
0100
0010
0001
0010
0100
1000
0100
0010
0001
0010
0100
1000
0100
0010
0001
,
0010
0100
1000
0100
0010
0001
0010
0100
1000
0100
0010
0001
0010
1000
0100
0010
,
0001
1000
0100
0010
0001
0010
0100
1000
0001
0010
0100
1000
0010
1000
0100
0010
,
0001
1000
0100
0010
0001
0010
0100
1001
0010
0100
1000
0010
0001
0100
1000
0010
,
0100
0001
0010
1000
0100
0010
0001
0100
0010
1000
0010
0100
0001
0010
1000
0100
,
0010
0001
0010
0100
0010
0001
0010
1000
0100
1000
0100
0010
0100
1000
0010
0100
,
0001
0010
0100
1000
0100
0010
0001
1000
0001
1000
0001
1000
0001
0100
0010
0100
,
0010
0100
0010
1000
0100
1000
0100
0010
0001
0010
0001
0100
1000
0100
1000
0010
,
0001
0100
0010
1000
0100
0010
0100
1000
0010
0100
0001
0010
0100
1000
0010
0001
,
0100
0010
1000
0100
0010
0001
0100
0010
1000
0100
0001
0010
0001
0100
0010
1000
,
0100
0010
0001
0010
0100
0010
1000
0100
1000
0100
1000
0100
0010
0001
0010
0100
,
0010
0001
0010
0100
1000
0100
1000
0100
0010
0100
0010
0100
0010
0001
2000
0000
,
0000
0000
0020
0000
0000
0000
0000
0200
0000
0000
0002
0000
0000
0300
0200
0000
,
0030
3000
0020
0000
0000
0000
2000
0003
0000
0000
0002
0000
3333
0000
2002
3103
,
0010
0001
0010
1000
0100
0010
1000
0100
0010
0001
1000
0100
0010
0001
0010
0100
,
1000
0001
0010
0100
1000
0010
0100
1001
0010
0100
0001
1000
0100
0001
0010
0100
,
0001
1000
0100
0010
0100
0001
0010
0100
1000
0100
0010
0001
0100
0010
1000
0100
,
0010
0100
0010
0001
1000
0100
0010
0100
0001
0010
1000
0100
0010
0001
1000
0100
,
1000
0100
0010
0100
1000
0100
1000
0010
0001
0010
0001
0100
0010
0001
0010
0001
,
0010
0100
1000
0100
0010
0001
0010
0100
1000
0100
0010
0001
0010
0100
1000
0100
,
0010
0001
0100
0010
1000
0100
0010
0100
0010
1000
0100
0001
0010
0100
0010
0001
,
0100
0000
0000
1000
0000
0000
0010
0000
0000
1000
0000
0000
0010
0000
0000
1000
0000
0000
0100
0000
0000
0010
0000
0000
0001
0000
0000
0100
0000
0000
1000
0000
0000
0100
0000
0000
0022
0000
0000
0003
0130
0000
1000
0000
0100
0000
0010
0000
,
0001
0100
0010
1000
0100
0001
0010
0100
0001
0010
1000
0100
0010
0100
0010
0001
0010
1000
0100
0001
0100
0010
1000
0100
,
0001
0010
1000
0001
0100
0010
1000
0001
0100
0010
1000
0100
0010
0100
0001
0010
1000
0100
0010
0001
1000
0100
0010
0001
,
0100
0010
1000
0001
0010
1000
0100
0001
0010
1000
0100
0010
0100
1000
0010
0001
0100
0010
1000
0100
0010
0001
0100
1000
,
0010
0100
0001
0010
1000
0100
0010
0001
0010
1000
0100
0010
0100
0001
1000
0010
0100
0001
0010
0100
1000
0100
0010
0001
,
0100
0010
1000
0100
0001
0010
0100
0001
0010
1000
0100
0010
0100
0001
0010
0100
0001
0010
1000
0100
0010
0100
0001
0100
,
0010
1000
0100
1000
0100
0010
0100
1000
0100
0010
0001
0010
0100
0001
0010
0100
1000
0100
0010
0100
0001
0010
0100
1000
,
0100
0010
0001
0010
0100
1000
0010
0100
0001
0010
1000
0100
0010
0001
1000
0100
0010
0100
1000
0001
0010
0100
0010
1000
,
0100
0000
0001
0000
0010
0000
0100
0000
0001
0000
1000
0000
0010
0000
0100
0000
0001
0000
0010
0000
0000
2222
0000
0000
0000
0000
0000
0000
0000
0000
0000
0000
0000
0000
0000
0000
0000
0000
0000
0000
0000
0000
0000
0000
0000
0000
0000
0000
,
0000
0000
0000
0000
,
0000
0000
0000
0000
,
0000
3333
0000
0000
0000
0000
0000
0000
0000
0000
0000
0000
0000
0000
0000
0000
;
