#TITLE:Knight Of Immortal Fire;
#SUBTITLE:By-KeiChi;
#ARTIST:Lucca Turilli;
#TITLETRANSLIT:;
#SUBTITLETRANSLIT:;
#ARTISTTRANSLIT:;
#CREDIT:;
#BANNER:Banner.PNG;
#BACKGROUND:Knight Of Immortal Fire-bg.png;
#LYRICSPATH:;
#CDTITLE:;
#MUSIC:Luca Turilli - Knight Of Immortal Fire.mp3;
#OFFSET:-0.620;
#SAMPLESTART:100.000;
#SAMPLELENGTH:12.000;
#SELECTABLE:YES;
#BPMS:0.000=184.920,172.000=23.220,173.000=184.120,268.000=46.240,272.000=92.480,279.000=399.999,283.000=184.921,346.500=368.919,348.000=42.400,348.750=35.580,350.000=38.300,352.000=45.780,355.000=49.680,356.000=55.960,358.000=62.020,360.000=65.080,362.000=72.640,363.500=184.920,427.500=11.560,428.000=184.920;
#STOPS:140.000=0.080
,140.250=0.080
,140.500=0.080
,140.750=0.080
,141.000=0.080
,141.250=0.080
,141.500=0.080
,141.750=0.080
,171.500=0.100
,267.250=0.240
,315.750=0.060
,347.750=0.200
,425.000=0.520
;
#BGCHANGES:;
// cache tags:
#FIRSTBEAT:0.000;
#LASTBEAT:568.000;
#SONGFILENAME:Songs/juju steps/Knight Of Immortal Fire/Knight Of Immortal Fire.SM;
#HASMUSIC:1;
#HASBANNER:1;
#MUSICLENGTH:212.062;
// end cache tags

//---------------pump-single - XD!!----------------
#NOTES:
     pump-single:
     XD!!:
     Hard:
     15:
     1.000,1.000,1.000,0.872,1.000,1870.000,267.000,185.000,0.000,179.000:
02120
00100
00100
00100
03230
00000
00001
10000
,
02320
00000
00001
10000
23032
00000
31113
00000
,
20102
00100
00100
00100
30203
00300
02000
03020
,
20130
00000
00000
00000
32000
00000
00000
00000
03101
00000
00000
00000
00001
00010
00100
01000
,
10001
00001
00001
00002
01003
01000
01000
02000
23000
00000
00000
00000
00100
00000
00010
00000
,
30120
00100
02030
00100
23000
00100
30200
00000
00302
00100
00023
00100
01030
00000
00000
00000
,
02220
00000
00000
00000
00000
00000
00000
00000
00000
00000
00000
00000
00000
00000
00000
00000
00002
00000
00000
00000
00000
00000
00000
00003
00001
00000
00000
00000
00000
00000
00000
03330
02220
00000
00000
00000
00000
00000
00000
00000
00000
00000
00000
00000
00000
00000
00000
00000
20000
00000
00000
00000
00000
00000
00000
30000
10000
00000
00000
00000
00000
00000
00000
03330
,
22122
00000
00000
00000
00000
00000
33133
00000
00001
00010
10000
01000
00001
00010
10000
01000
,
00100
01000
00110
10000
00110
01000
00110
10000
00220
00000
00000
00000
10330
01000
00100
00010
,
00200
00000
00000
00000
00301
00010
00001
00010
00100
00010
10000
01000
00200
00000
00000
00000
,
10301
00010
10001
01000
10001
00010
10001
01000
20002
00000
00000
00000
30103
00000
01000
00010
,
01010
01000
00010
01000
20100
00100
00100
00100
02200
00000
00000
00000
33302
00020
00133
00000
,
11000
11000
11000
11000
11000
00000
00011
00011
,
00011
10000
01100
00010
00100
01000
10000
01000
00100
00010
00100
01000
10010
00000
00000
00000
,
20220
00000
00000
00000
00000
00000
00000
00000
00000
00000
00000
00000
00000
00000
00000
00030
00020
00000
00000
00300
00200
00000
00000
30000
20000
00000
00000
00000
30330
00000
00000
00000
02202
00000
00000
00000
00000
00000
00000
00000
00000
00000
00000
00000
00000
00000
00000
03000
02000
00000
00000
00300
00200
00000
00000
00003
00002
00000
00000
00000
00000
00000
00000
03300
,
02123
00000
00000
00000
03030
00001
10000
00001
01100
00010
00110
01000
01100
00001
00101
10000
,
02120
00000
00000
00000
03030
10000
00001
10000
00110
01000
01100
00010
00110
10000
10100
00001
,
00202
10303
01000
10000
00220
00331
00010
00001
02200
13300
00001
10000
20200
30301
10000
00001
,
20002
00000
01000
00100
,
30023
00000
00000
00000
00000
00000
00000
00000
00100
01000
00100
01000
00100
01000
00100
01000
,
10030
00100
00001
10000
00100
00001
00100
00010
01000
00100
00010
01000
00001
00010
00100
00010
,
00001
10000
01000
00100
00010
00100
00010
10000
01000
00100
10000
01000
00100
00010
00100
01000
,
20000
00000
00000
00000
00000
00000
00000
00000
30110
00001
00010
00100
00001
00010
00001
00010
,
00100
00010
00001
00010
00001
00010
00100
00010
00001
00010
00100
00010
00100
01000
10000
01000
,
00001
00100
10000
00001
00100
10000
00100
01000
00010
00100
01000
00010
10000
01000
00100
01000
,
10000
00001
00010
00100
01000
00100
01000
00001
00010
00100
00001
00010
00100
01000
00100
00010
,
00002
00000
00000
00000
00000
00000
00000
00000
01103
10000
01000
00100
10000
01000
10000
01000
,
00100
01000
10000
01000
10000
01000
00100
01000
10000
01000
00100
01000
00100
00010
00001
00010
,
10000
01000
00100
10000
01000
00100
10000
01000
00001
00010
00100
00001
00010
00100
00001
00010
,
10000
01000
00100
00001
00010
00100
10000
01000
00100
00001
00010
00100
10000
01000
00100
00001
,
00200
00010
01000
00010
01000
00310
00200
00001
10000
00001
10000
00301
02220
00000
00000
03330
,
00010
01000
00010
01000
00010
01000
00010
01000
00010
01000
00010
01000
00010
01000
00010
00100
,
11000
00001
00100
00010
00001
00100
00011
10000
00100
01000
10000
00100
00111
00000
01010
00000
,
11100
00000
01010
00000
10001
00000
10110
01010
01010
00000
10001
10001
01101
10010
01001
10010
,
01000
00100
00010
00001
00010
00100
00011
00100
01000
10000
01000
00100
00110
00001
00010
00100
,
01010
01010
10001
10001
10010
01001
10110
01101
10000
01000
10000
00100
00011
00000
01000
00100
,
00010
00001
00010
00100
11000
00000
00100
00010
00001
00010
00100
01000
00110
00000
00100
01000
,
10000
01000
00100
00010
01100
00000
00010
01000
00010
00100
01000
00100
10101
00000
00001
10000
,
00001
00010
00100
01000
01110
00000
00001
00010
00100
01000
10000
00000
10100
00000
10001
00000
,
00101
00000
00110
01000
10000
01000
11000
00000
00110
01000
10000
01000
00011
00010
00011
00000
,
00001
00000
00000
00000
00010
00000
00000
00000
00100
00000
00000
00000
00000
00000
00000
00000
00000
00000
00000
00000
00000
00000
00000
00000
10100
00000
00000
00000
00000
00000
00000
00000
10110
00000
00000
00000
00000
00000
00000
00000
20222
00000
00000
00000
00000
00000
00000
00000
00000
00000
00000
00000
00000
00000
00000
00030
30313
00000
00000
00000
00000
00000
00000
00000
,
00010
00100
01000
00010
00100
01000
10000
00100
00001
00010
00200
00000
00000
00000
01310
00000
,
10000
00010
10000
10000
00100
10000
10000
00010
10000
10000
00100
10000
10000
00010
10000
00000
,
10110
00000
00000
00000
01000
00100
01000
00010
01000
00100
01000
00010
00010
00100
00010
01000
,
00010
00100
00010
01000
10000
00100
10000
00001
10000
00100
10000
00001
00001
00100
00001
10000
,
00001
00100
00001
10000
01000
00100
00010
01000
00100
00010
01000
00100
00010
00100
01000
00010
,
00100
01000
00010
00100
10000
01000
00100
10000
01000
00100
10000
01000
00001
00010
00100
00001
,
00010
00100
00001
00010
20000
00000
00000
00000
00000
00000
00000
00000
00002
00000
00000
00000
,
00020
00000
00000
00000
32233
00000
00000
00000
00000
00000
03310
00001
00010
00100
01000
00100
,
20000
00000
00000
00000
30001
00010
00100
00001
00010
00100
00001
00010
00100
00001
00010
00100
,
01102
00000
00000
00000
10003
01000
00100
00010
00001
00010
00100
01000
01110
01000
00100
00010
,
01110
00010
00100
01000
10000
01000
10000
01000
00100
00010
00100
00010
00100
10000
00100
10000
,
00001
00100
00001
00100
00010
00100
00010
00100
01000
00100
01000
00100
01000
00010
01000
00010
,
10000
01000
10000
01000
00010
00100
00010
00100
01000
00100
01000
00100
00010
00001
00010
00001
,
01000
10000
01000
10000
00001
00010
00100
01000
10000
01000
00100
00010
00001
00010
00100
01000
,
00100
00100
00100
00000
00100
00000
00000
00000
00010
00010
10000
10000
00100
00000
00000
00000
,
00100
00001
10000
01000
00100
00000
01000
00000
00010
00000
01000
00000
00100
00010
00100
01000
,
00010
00100
01000
00010
00100
01000
00100
00010
00001
00010
00100
01000
10000
01000
00100
00010
,
00001
00000
00000
00010
00000
00000
00100
00000
00000
01000
00000
00000
00100
00000
00000
10000
00000
00000
01000
00000
00000
00100
00000
00000
00010
00000
00000
00001
00000
00000
00010
00000
00000
00100
00000
00000
01000
00000
00100
00000
00010
00000
00001
00000
00010
00000
00100
00000
,
01000
00000
00000
00000
00000
00000
00000
00000
10000
00000
00000
00000
00000
00000
00000
00000
01000
00000
00000
00000
00000
00000
00000
00000
00100
00000
00000
00000
00000
00000
00000
00000
00010
00000
00000
00000
00000
00000
00000
00000
00001
00000
00000
00000
00000
00000
00000
00000
00210
00000
00000
00000
00000
00000
00000
00000
00000
00000
00000
00000
10000
00000
00000
00000
00000
00000
00000
00000
00000
00000
00000
00000
00010
00000
00000
00000
00000
00000
00000
00000
00000
00000
00000
00000
10000
00000
00000
00000
00000
00000
00000
00000
00000
00000
00000
00000
00010
00000
00000
00000
00000
00000
00000
00000
00000
00000
00000
00000
10000
00000
00000
00000
00000
00000
00000
00000
00000
00000
00000
00000
00010
00000
00000
00000
00000
00000
00000
00000
00000
00000
00000
00000
10000
00000
00000
00000
00000
00000
00000
00000
00000
00300
00000
00000
01200
00000
00000
00000
00000
00000
00000
00000
00000
00000
00000
00000
00001
00000
00000
00000
00000
00000
00000
00000
00000
00000
00000
00000
01000
00000
00000
00000
00000
00000
00000
00000
00000
00000
00000
00000
00001
00000
00000
00000
00000
00000
00000
00000
00000
00300
00000
00000
,
01200
00000
00000
00000
00001
00000
00000
00000
01000
00000
00000
00000
00001
00000
00000
00300
01200
00000
00000
00000
00010
00000
00000
00000
01000
00000
00000
00000
00010
00000
00000
00000
01000
00000
00000
00000
00010
00000
00000
00000
01000
00000
00000
00000
00010
00000
00000
00300
01200
00000
00000
00000
10000
00000
00000
00000
00010
00000
00000
00000
01000
00000
00000
00000
,
00001
00000
00000
00000
00010
00000
00000
00000
10000
00000
00000
00000
01000
00000
00000
00300
00201
00000
00000
00000
00010
00000
00000
00000
00001
00000
00000
00000
00010
00000
00000
00000
00001
00000
00000
00000
00010
00000
00000
00000
00001
00000
00000
00000
00010
00000
00000
00300
00201
00000
00000
00000
01000
00000
00000
00000
10000
00000
00000
00000
01000
00000
00000
00000
,
10000
00000
00000
00000
01000
00000
00000
00000
10000
00000
00000
00000
01000
00000
00000
00300
00100
00000
00000
00000
00010
00000
00000
00000
00001
00000
00000
00000
00010
00000
00000
00000
00100
00000
00000
00000
01000
00000
00000
00000
10000
00000
00000
00000
01000
00000
00000
00000
00110
00000
00000
00000
10000
00000
00000
00000
01100
00000
00000
00000
00001
00000
00000
00000
,
00110
10000
01100
00010
20002
00000
00000
00000
00000
00000
00000
00000
32023
00000
00000
00000
,
00000
00000
00000
00000
00000
00000
00000
00000
00000
00000
00000
00000
00000
00000
00000
03030
02220
00000
00000
00000
00000
00000
00000
00000
00000
00000
00000
00000
00000
00000
00000
00000
00000
00000
00000
00000
00000
00000
00000
00000
00000
00000
00000
00000
00000
00000
00000
00000
23332
00000
00000
00000
00000
00000
00000
00000
00000
00000
00000
00000
00000
00000
00000
00000
,
00000
30203
00000
20020
,
00000
00000
00000
30330
20220
00000
00000
00000
32332
00000
00000
00000
23023
00000
30030
00000
,
10100
00001
00010
00001
10100
00001
00010
00001
00101
01000
00100
01000
00101
10000
00100
10000
01010
00001
00100
00001
01010
00100
01100
00110
10001
00100
00110
01100
10001
00010
00100
01000
,
10100
00010
00100
01000
11100
00010
00111
01000
00110
00010
01100
10000
00101
00001
10100
10000
,
01000
00001
00010
10000
01001
00100
10010
01001
00100
00000
02220
00000
20002
00000
00000
00000
,
00000
00000
00000
00000
00000
00000
00000
33333
00000
00000
00000
00000
01000
00100
00010
00100
,
01000
00100
00010
00100
01000
00100
00010
00100
01010
00100
00001
00100
10000
00100
00001
00100
,
01010
00100
10000
00100
10000
00100
00001
00100
01010
00001
00001
00010
00010
10000
10000
00010
,
00010
00001
00001
00010
00010
00100
00100
01000
01000
10000
10000
01000
01000
00100
00100
01010
,
10100
01000
00100
01000
10000
00010
00100
01000
00100
01000
20000
01000
01000
00101
01000
00010
,
01000
00010
01000
00110
01000
00010
01000
00010
01000
00001
01000
00010
01000
32120
00100
00100
,
00100
00100
00000
00000
00000
00100
00100
00100
00100
03130
00000
00000
00000
01010
00100
00010
,
00100
00010
00001
01000
00100
00010
00100
00010
00001
00100
00010
00001
01000
00100
00010
00100
,
00010
00001
00100
01000
00100
01000
00100
01000
00100
00010
00100
00010
00100
00010
00100
00001
,
01000
00100
00010
01000
00100
00010
01000
00100
00010
00001
00100
10000
00001
00100
10000
00001
,
02020
00000
00000
00000
00000
00000
00000
03030
00220
00000
00000
00030
00321
00000
00000
00000
,
00031
00010
01100
00010
00100
00010
01000
00100
10101
00001
00100
10000
10000
00100
10000
00100
,
00010
00100
00010
00100
00010
00100
00010
00100
02020
00000
00000
00000
03130
00001
01000
10000
,
00010
00001
01000
10000
00010
00001
01000
10000
00001
00010
00100
10000
01000
00100
10000
01000
,
00100
10000
01000
00001
00010
00001
00010
00001
00010
00001
00010
01000
00100
10000
01000
00100
,
10000
01000
00100
10000
01000
00100
10000
01000
00100
10000
01000
00100
01010
00000
01010
00000
,
10001
00000
10001
00000
00110
00000
00110
00000
01100
00000
02200
00000
00000
00000
00000
13301
,
00000
00000
00000
00100
00000
00000
00000
00000
01010
00000
00000
00000
10000
00000
00000
00000
01010
00000
00000
00000
00001
00000
00000
00000
01010
00000
00000
00000
01010
00000
00000
00000
00100
00000
00000
00000
10000
00000
01000
00000
00100
00000
00000
00000
00001
00000
00010
00000
00100
00000
00000
00000
01000
00000
00010
00000
01100
00000
00000
00000
00010
00000
10000
00000
,
00101
00000
01000
00001
10100
00000
00001
00001
00110
00000
10000
10000
01100
00000
00010
01000
00001
00010
01000
00010
10000
00010
01000
00010
01000
00010
01000
00010
01100
00010
01000
00000
,
02120
03232
20300
31113
02220
23330
30002
01103
,
10101
00000
10100
00000
00101
00000
10001
00000
01010
00000
00100
00000
00100
00000
01110
01000
,
00100
00010
01000
00100
00010
00001
00010
00100
01000
10000
01000
00100
02210
00010
03301
00010
,
00120
01000
00130
00010
00002
00000
00000
00000
00000
00000
00000
00000
01003
00100
00010
01000
,
00100
00010
00002
00100
20200
00000
00000
00000
31313
00000
00110
00000
00101
00000
00101
00000
,
00101
00101
02202
00000
13313
01001
10110
01001
,
10110
00000
10110
00000
01000
00100
00010
00001
00010
00100
01000
10000
00011
01000
00100
00010
,
00001
00010
00100
01000
10000
01000
00100
00010
11000
00001
00100
00001
00100
00001
00100
00001
,
01000
00100
01000
00100
20012
00010
00010
00010
00010
00000
00000
00000
01000
01000
01000
01000
,
31003
00100
00010
01000
00200
00000
00000
00000
00000
00000
00000
00000
00300
00010
01000
00100
,
10000
00001
00100
01000
10000
00010
00100
00010
00100
00010
00100
00010
10000
00010
00100
00010
,
00100
00010
00100
00010
10000
00010
00100
00010
00100
00010
00100
00010
01000
00100
10000
00100
,
10000
00100
10000
00100
10010
00000
10010
00000
10010
00000
10010
00000
10010
00000
10010
00000
,
10101
10101
10110
10110
10110
10110
10110
10110
,
10100
00000
10100
00000
01010
00001
00010
10000
01000
00001
00010
10000
01010
01000
10000
00010
,
00001
01000
10000
00010
10001
00010
00100
01000
00100
00010
00100
01000
10101
00010
00100
01000
,
00100
00000
00000
00000
00010
00000
00000
00000
00100
00000
00000
00000
01000
00000
00000
00000
02120
00000
00000
00000
00001
00000
00000
00000
00100
00000
00000
00000
10000
00000
00000
00000
00100
00000
00000
00000
00001
00000
00000
00000
00100
00000
00000
00000
10000
00000
00000
00000
00100
00000
00000
00000
00001
00000
00000
00000
00100
00000
00000
00000
10000
00000
00000
03030
,
01110
22100
33111
22200
00000
00000
00000
33310
,
01000
00100
00010
00100
01000
10000
01000
00100
00001
00100
10000
00100
00010
00001
00010
00100
,
00010
00100
01000
00100
00010
00001
00010
00100
10000
00100
00001
00100
01000
10000
01000
00100
,
01000
00010
00100
01000
00010
00100
00010
00100
10011
01000
00100
01000
00100
00010
01000
00100
,
22020
00000
00000
33030
11100
00001
00010
00100
01000
10000
01000
00100
00010
00100
00001
00100
,
01010
10000
00100
00010
10000
00100
00010
10000
00101
00010
00100
01000
10100
01000
00100
00010
,
00101
00010
01000
00010
01000
00010
00110
10000
00001
10000
00001
10000
01100
10001
10001
01010
,
00100
01000
00100
10000
00100
01000
00100
10000
00100
10000
00100
01000
00100
00010
00100
00001
,
00100
00000
00000
00000
01000
00000
00000
00000
00100
00000
00000
00000
00010
00000
00000
00000
00100
00000
00000
00000
01000
00000
00000
00000
00100
00000
00000
00000
00010
00000
00000
00000
00100
00000
00000
00000
00001
00000
00000
00000
10000
00000
00000
00000
00100
00000
00000
00000
20102
00000
00000
00000
00000
00000
00000
00000
00000
00000
00000
00000
00000
00000
00000
30003
,
11001
00100
00010
01000
00100
00010
01000
00100
00010
00100
01000
00100
01000
00100
00010
00100
,
00010
00100
01000
00100
00010
00100
01000
00100
00010
00100
01000
00100
20202
00000
00000
00000
,
32323
00000
23032
02000
,
00020
00000
00000
00000
00000
00000
00000
00000
00030
00020
00000
00000
00000
00000
00000
03030
02020
00000
00000
00000
00000
00000
00000
00000
00000
00000
00000
00000
00000
00000
00000
00000
03030
00000
00000
00000
00000
00000
00000
00000
00000
00000
00000
00000
00000
00000
00000
00000
30013
00000
00000
00000
00100
00000
00000
00000
00010
00000
00000
00000
00100
00000
00000
00000
,
10000
00100
10000
00100
10000
00100
10000
00100
00001
00010
00001
00100
00010
01000
00010
00001
,
00100
01000
00010
00100
01000
00010
00100
01000
00010
00001
00010
00100
00001
00010
00100
00001
,
21000
00100
00001
01000
00100
00010
01000
00100
00001
01000
00100
00010
01000
00100
00001
01000
,
30122
00100
00100
00100
00100
00000
00000
00000
01000
01000
01000
10000
10000
00000
00000
00033
,
00100
00010
01000
00100
10000
01000
00000
00000
00100
01000
00100
00001
00010
00000
00000
00000
,
10000
01000
00100
01000
10000
00000
00000
00000
00001
00010
00100
00010
00001
00000
00000
00000
,
10000
01000
00010
00100
01000
00010
00100
01000
10000
01000
00010
00100
01000
00010
00100
01000
,
00001
00010
00100
00010
00100
01000
00100
01000
00001
00010
00100
00010
00100
01000
00100
01000
,
00010
00100
01000
00010
00100
01000
00010
00100
00010
01000
00100
00010
01000
00100
00010
00100
,
01000
10000
00001
10000
00001
10000
00001
10000
01000
00010
01000
00010
01010
10000
00001
10000
,
00100
10000
01000
10000
01000
10000
01010
00001
00010
00001
00010
01000
10101
01000
00010
01000
,
01010
00001
10000
00001
10000
00001
10000
00001
00101
00010
00100
01000
00010
00100
01000
00010
,
10000
01000
00100
10000
01000
00100
10000
01000
00100
10000
01000
00100
10000
01000
00100
10000
,
00001
00010
00100
00001
00010
00100
00001
00010
00100
00001
00010
00100
00001
00010
00100
01000
,
00001
00010
01000
00100
00010
00001
01100
00010
00001
00010
01000
00100
00010
01000
00100
00010
,
10000
01000
00100
01000
00100
00010
00100
00010
10000
01000
00100
01000
00100
00010
00100
00010
,
01000
00100
00010
01000
00100
00010
01000
00100
01000
00010
00100
01000
00010
00100
01000
00100
,
00010
00001
10000
00001
10000
00001
10000
00001
00010
01000
00010
01000
01010
00001
10000
00001
,
00100
00001
00010
00001
00010
00001
01010
10000
01000
10000
01000
00010
10101
00010
01000
00010
,
01010
10000
00001
10000
00001
10000
00001
10000
10100
01000
00100
00010
01000
00100
00010
01000
,
00001
00010
00100
00001
00010
00100
00001
00010
00100
00001
00010
00100
00001
00010
00100
00001
,
10000
01000
00100
10000
01000
00100
10000
01000
00100
10000
01000
00100
10000
01000
00100
00010
,
00001
00000
01000
00000
00100
00000
00001
00000
01000
00000
10000
00000
00001
00000
01000
00000
00100
00000
00001
00000
01000
00000
10000
01000
00100
00010
00001
00010
00100
01000
10000
00100
,
01010
00000
00000
00000
;
