#TITLE:Hades;
#SUBTITLE:;
#ARTIST:Kalmah;
#TITLETRANSLIT:;
#SUBTITLETRANSLIT:;
#ARTISTTRANSLIT:;
#CREDIT:;
#BANNER:Copia de kalmah.banner.jpg;
#BACKGROUND:Kalmah - Swamplor.bg.jpg;
#LYRICSPATH:;
#CDTITLE:CDTITLE.jpg;
#MUSIC:kalmah - hades.mp3;
#OFFSET:0.000;
#SAMPLESTART:100.000;
#SAMPLELENGTH:12.000;
#SELECTABLE:YES;
#BPMS:0.000=209.120;
#STOPS:;
#BGCHANGES:;
// cache tags:
#FIRSTBEAT:1.000;
#LASTBEAT:908.750;
#SONGFILENAME:Songs/Definitive Keyboard Megapack/Hades - Kalmah (Leone510)/kalmah - hades.sm;
#HASMUSIC:1;
#HASBANNER:1;
#MUSICLENGTH:264.889;
// end cache tags

//---------------dance-single - ----------------
#NOTES:
     dance-single:
     :
     Hard:
     11:
     1.000,1.000,1.000,0.562,0.198,1614.000,462.000,149.000,0.000,9.000:
0000
1001
0000
0000
,
0000
0000
0000
0000
0110
0101
0000
0000
,
0000
0000
0000
0000
0000
0000
0000
0000
0001
0010
1000
0000
0000
0000
0000
0000
,
1010
0000
0000
0000
,
0000
0000
0000
0000
0010
0100
0010
0001
,
0100
0010
1000
0010
0100
1010
0000
0000
,
0110
0000
0000
0000
,
0000
0000
0000
0011
1100
0000
0000
0000
,
0000
0000
0000
0000
0000
0000
0000
0000
1000
0010
0001
0000
0000
0000
0000
0000
,
0110
0000
0000
0000
,
0000
0000
0000
0000
0100
1000
0100
1000
,
0010
0001
0100
0001
0010
0101
0000
0000
,
0110
0000
0100
1000
0100
1000
0110
0001
,
0010
0001
1000
0002
0000
0000
0013
0100
,
1000
0010
0100
0001
0100
0001
0200
0000
,
0000
1310
0000
0010
1000
1000
1000
0010
,
0001
1000
0001
1000
0020
0000
0000
0130
,
1000
0010
0001
0010
0100
1000
0001
2000
,
0000
0000
3010
0000
0100
1000
0100
1000
,
0110
0001
0010
0001
1000
0002
0000
0000
,
0013
0100
1000
0010
0100
0001
0100
0001
,
0200
0000
0000
1310
0000
0010
1000
1000
,
1000
0010
0001
1000
0001
1000
0020
0000
,
0000
0130
1000
0010
0001
0010
0100
1000
,
0001
2000
0000
0000
3101
0000
0000
0000
,
0000
0000
0000
0000
,
1010
0000
0000
0000
,
0000
0000
0000
0000
0000
0110
0000
0000
,
0000
0000
0000
0000
,
0000
0000
0000
0000
0000
1010
0000
0000
,
0000
0000
0000
0000
0000
0000
0000
0101
,
0000
0000
0100
0100
1001
0010
0010
0011
,
0100
0100
1100
0010
0010
0101
0010
0010
,
1001
0100
0100
0011
0100
0100
1000
1000
,
0001
0001
0100
0100
0101
0010
0010
1100
,
0010
0010
0101
0010
0010
1100
0001
0001
,
1010
0001
0001
0110
0100
0100
0010
0010
,
0100
0100
0020
0100
1000
0001
0100
1000
,
0001
0100
0001
0001
0100
1000
0001
2030
,
0010
0100
0001
0010
0100
3020
0001
1000
,
0001
0100
0001
1000
0032
0100
1000
0100
,
0010
1000
0010
0100
1000
0010
0100
1000
,
0023
0000
0100
0000
1000
0000
0100
0000
0001
0000
1000
0000
0130
0010
0001
0010
,
0100
0001
1000
0010
0001
0100
1000
0010
0100
0000
1100
0000
0101
0000
1010
0000
,
0101
0110
1001
0110
0101
0011
1100
1001
,
0110
0011
1100
0101
0011
1010
1100
1001
,
1010
0101
0110
1001
0101
1010
0101
0110
,
0011
0110
1010
0110
0101
0110
1001
0101
,
1010
0110
1100
0011
0110
0002
2003
3002
,
0023
2030
3200
0301
1100
0101
0110
0011
,
1010
0110
1001
1010
0110
1010
0101
1001
,
0101
1010
0110
0110
1100
0101
1010
1001
,
0101
0011
1010
0101
0110
1100
0101
1001
,
1010
0110
0101
1010
1001
1010
1010
0110
,
1001
0101
1001
0110
1010
0101
0020
0230
,
2300
3020
0230
0302
0023
1030
0000
1000
,
0001
0000
0010
0100
0010
0100
2000
0000
,
3001
0000
0000
0000
1000
0100
0001
0010
,
0100
0001
0200
0000
0310
0000
0000
0001
,
0100
1000
0010
0100
0010
0100
0001
0020
,
0000
1030
0000
0000
1000
0010
0001
0010
,
0001
0100
0010
1000
0011
0100
1010
0100
,
0000
0001
1000
0000
0100
0010
0100
0001
,
0020
0000
1030
0000
0000
1000
0100
0010
,
0001
0010
0100
0010
0200
0000
0310
0000
,
0000
0000
0100
1000
0100
1000
0010
0001
,
0100
0020
0000
0031
0000
0000
1000
0001
,
1000
0010
1000
0001
0100
1000
0010
0100
,
0001
1000
0010
1000
0011
1000
0010
1000
,
0001
0100
1010
0001
0010
0100
1000
0100
,
0110
1000
0001
0100
0010
0001
1010
0100
,
0001
0010
0100
1000
0001
1100
0010
0100
,
0010
1000
0010
0101
0010
0100
1000
0001
,
0010
0100
1001
0010
0100
0001
0010
1000
,
0011
0000
0100
0000
0001
0000
1000
0001
0020
0000
0000
0000
0130
0000
1000
0000
,
0100
0000
0020
0000
0000
0000
0031
0010
0100
0000
0000
0000
0000
0000
0100
1000
,
0100
0000
0000
0000
0010
0000
0001
0000
0100
0000
0001
0010
1000
0000
0010
0000
,
0100
0010
1000
0020
0100
0001
1030
0110
,
0000
0000
0100
0001
0010
0001
1010
0100
,
0010
0100
0001
0100
1010
0001
0010
0100
,
1000
0100
0110
1000
0001
0100
0010
0001
,
1010
0100
0001
0010
0100
1000
0101
1000
,
0010
0100
0010
1000
0011
0100
0010
0100
,
1000
0001
0010
0101
1000
0010
0100
0001
,
0010
1001
0010
0100
0001
1000
0001
1100
,
0010
0100
0001
1000
0001
1010
0001
0100
,
1000
0001
0010
0100
1010
0100
0010
1000
,
0001
0100
1010
0001
0010
0100
0001
0010
,
0101
1000
0001
1000
0010
0100
0011
1000
,
0010
0001
0010
0100
1001
0100
0010
0100
,
0001
0010
0100
1001
0010
1000
0011
0000
,
0002
2003
3020
2030
3020
0032
0203
0320
,
2030
3002
1103
0110
1001
1010
0101
0110
,
1001
0110
0101
0011
1100
1001
0110
0011
,
1100
0101
0011
1010
1100
1001
1010
0101
,
0110
1001
0101
1010
0101
0110
0011
0110
,
1010
0110
0101
0110
1001
0101
1010
0110
,
1100
0011
0110
1010
0200
0302
0023
2030
,
3200
0302
1003
0101
0110
0011
1010
0110
,
1001
1010
0110
1010
0101
1001
0101
1010
,
0110
0110
1100
0101
1010
1001
0101
0011
,
1010
0101
0110
1100
0101
1001
1010
0110
,
0101
1010
1001
1010
1010
0110
1001
0101
,
1001
0110
1010
0101
0020
0230
0302
0023
,
2030
3200
0302
1003
0000
1000
0001
0000
,
0010
0100
0010
0100
2000
0000
3001
0000
,
0000
0000
1000
0100
0001
0010
0100
0001
,
0100
2000
0000
3010
0000
0000
0001
1000
,
0010
0100
0010
0100
0001
0020
0000
1030
,
0000
0000
1000
0010
0001
0010
0001
0100
,
0010
1000
0011
0100
1010
0100
0000
0001
,
1000
0000
0100
0010
0100
0001
0020
0000
,
1030
0000
0000
1000
0100
0010
0001
0010
,
0100
0010
0001
0200
0000
0310
0000
0000
,
0100
1000
0100
1000
0010
0001
0100
0001
,
0020
0000
0031
0000
0000
1000
0001
0010
,
0100
0001
0010
1000
0100
0010
0100
0010
,
0001
0100
0001
0110
1000
0010
0100
1000
,
0010
1100
0001
0010
1000
0010
0100
0101
,
0010
0100
1000
0010
0100
0001
1010
0100
,
0001
0010
0100
0001
1010
0100
1000
0010
,
0001
1000
0110
0001
0100
0010
0100
0001
,
1100
0010
0001
0100
0010
1000
0110
0001
,
1000
0000
0010
0001
0100
0000
0010
0000
1000
0000
0010
0000
0100
0000
1000
0000
,
0020
0000
0000
0000
0000
0000
1130
0000
0000
0000
0000
0000
0100
0001
0100
0000
,
0010
0000
1000
0000
0001
0000
0100
0000
0001
0010
1000
0000
0010
0000
0100
0000
,
1000
0010
0200
0000
0300
0000
0000
0000
,
0020
0000
0032
0000
,
2003
0000
0000
3020
0000
0032
0000
0000
,
2003
0000
0000
3000
2000
0000
3020
0000
0032
0000
0000
0000
2000
0000
0003
0000
,
3020
0000
0230
0000
0000
0320
0000
0000
,
0000
0000
0000
0000
2030
0000
0000
0000
0000
0000
0000
0000
3002
0000
0000
0000
0000
0000
0000
0000
0203
0000
0000
0000
0000
0000
0000
0020
0300
0000
0000
0000
,
0000
0000
0000
0230
0000
2300
0000
3020
,
0000
0032
0000
2003
0000
0000
3002
0000
,
0000
0000
0203
0000
,
0010
1300
0010
0001
0100
0010
0001
0100
,
1000
0010
1000
0010
0001
2000
0000
0000
,
3010
0001
0100
2000
0000
0000
3020
0000
,
0000
0130
1000
0100
0010
0001
1000
0001
,
0010
0100
0010
0100
1000
0100
0010
0010
,
0001
0001
0100
0100
0010
0010
0001
0001
,
1000
1000
0100
0100
0010
0010
1000
1000
,
0001
0001
0100
0100
0001
0001
1000
1000
,
0100
0100
0010
0010
0001
0001
1000
1000
,
0010
0010
0100
0100
0010
0010
0100
0100
,
2000
3200
0320
0032
2003
0000
3010
0010
,
0100
0100
1000
1000
0100
0100
1000
1000
,
0001
0001
0010
0010
0100
0100
0001
0001
,
1000
1000
0010
0010
0100
0100
1000
1000
,
0010
0010
0100
0100
1000
1000
0010
0010
,
0100
0100
0001
0001
0010
0010
0001
0001
,
1000
1000
0020
0032
0203
2300
3020
0000
,
0130
1000
0011
0100
1001
0010
1100
0001
,
1100
0010
1001
0100
0110
0001
1010
0100
,
1001
0100
0011
0100
1010
0001
1100
0010
,
1001
0010
0110
0001
1010
0100
1001
0010
,
0101
0010
0101
0010
0101
0010
1100
0001
,
1010
0001
0020
2030
3020
0032
0203
0000
,
0000
0310
0010
1010
0100
0100
0100
0011
,
0001
0001
0001
1010
0100
0100
0100
1010
,
0010
0010
0010
1100
0010
0010
0010
1001
,
0100
0100
0100
0011
0010
0010
0010
0101
,
1000
1000
1000
0101
0010
0010
0010
0101
,
0100
0100
0100
0010
0001
1000
0002
0000
,
0000
0203
0000
0000
0000
0000
0000
0320
,
0000
0000
0000
0000
0000
0032
0000
0000
,
1003
0010
0001
0010
0100
1000
0010
0100
1000
0010
0100
1000
0002
0000
2003
0000
,
0000
0000
3010
0001
0010
0100
0001
0010
0100
1000
0100
0010
0001
1000
0001
0100
,
0001
0010
0100
0001
0100
0001
0010
0100
1000
0010
0100
0001
0010
0100
1000
0100
,
0010
0000
1000
0000
0010
0000
0100
0000
0010
0000
0100
0000
0010
0000
0001
0000
1000
0000
0000
0010
0000
0000
0100
0000
0000
1000
0000
0000
0010
0000
0000
0000
,
0100
0010
0101
0010
0100
0001
1100
0001
,
0010
0100
1001
0010
0100
1000
0011
0100
,
0001
1000
0011
0100
0001
1000
0101
1000
,
0010
1000
0101
0010
0100
1000
0110
1000
,
0001
0100
1001
1000
0100
0010
1000
0010
,
0001
0010
0100
1000
0100
0010
1000
0001
0010
0100
1000
0010
0200
0000
0000
0000
,
0301
0000
0100
0000
1010
0000
0001
0000
0100
0000
2000
0000
3010
0001
0100
0010
,
0001
0010
0100
1000
0100
0010
0001
0100
0010
0001
0100
1000
0001
0100
1000
0001
,
1000
0001
0010
0100
1000
0010
0100
1000
0010
0100
0010
1000
0010
0001
0010
1000
,
0010
0000
0100
0000
0000
0001
0000
0000
1000
0000
0000
0010
0000
0000
0100
0000
0000
0010
0000
0000
1000
0000
0000
0000
0001
0000
0010
0000
1000
0000
0100
0000
,
0010
0001
1000
0001
0010
1000
0100
0010
0100
1000
0100
0010
0001
0010
0100
1000
,
0100
0010
0001
1000
0010
0001
0010
0001
0000
2000
0000
0000
3020
0000
0000
0000
,
0000
0031
1100
0010
0101
0010
1100
0001
,
1010
0100
0110
1000
0011
0100
1010
0001
,
1100
0100
1001
0100
0011
1000
0101
0010
,
1000
0000
0010
0000
0001
0010
0100
0000
0101
0000
0010
0100
1000
0000
0101
0000
,
0010
0100
1000
0000
0101
0000
0010
0100
0010
0000
0101
0000
1000
0001
1000
0001
,
0100
0001
0010
0100
1000
0010
0100
1000
0001
0100
0010
0001
0010
0100
1000
0001
,
0100
0110
0101
1010
0110
1001
0101
0110
,
1100
1001
1010
0101
0110
1001
1010
0101
,
1010
0101
0011
0110
1010
1001
1100
0110
,
0101
0011
1100
1001
1010
0110
1010
0101
,
0110
1001
0101
1001
1010
0110
1001
0101
,
1010
1100
0020
0032
2003
3200
0000
0000
,
0311
1010
1001
0101
1010
0110
0101
1010
,
0101
1001
0110
1001
0101
1010
0110
1100
,
0101
0101
1010
0110
0110
1001
1010
0011
,
1010
1100
0101
0110
1001
0011
1010
1100
,
0101
0110
1001
0011
1010
0110
1001
0011
,
1010
1010
0002
0203
2300
3020
0000
0000
,
0232
0000
0000
0000
,
0000
0000
0000
0313
1100
0010
0101
0010
,
1010
0100
0110
0001
1010
0001
1100
0010
,
1100
0100
0101
0010
1010
0100
0110
1000
,
0101
0010
1001
0100
1001
0010
0101
0010
,
1100
0100
0011
0010
1010
0100
0011
0001
,
1001
0100
1001
0010
0101
0020
0032
0023
,
2030
0000
0000
3010
1100
0010
0101
0010
,
1010
0100
0110
0001
1010
0001
1100
0010
,
1100
0100
0101
0010
1010
0100
0110
1000
,
0101
0010
1001
0100
1001
0010
0101
0010
,
1100
0100
0011
0010
1010
0100
0011
0001
,
1001
0100
1001
0010
0101
0020
2030
3020
,
0230
0000
0000
0301
1010
1000
0101
0100
,
1010
0001
0110
1000
1010
0100
0110
0010
,
1001
0100
0101
0010
1010
0100
0110
1000
,
0101
0010
1001
0100
1001
0010
0101
0010
,
1100
0100
0011
0010
1010
0100
0011
0001
,
1001
0100
1001
0010
0101
0200
2300
3002
,
0023
0000
0030
0100
1001
1000
0101
0001
,
1010
0100
0110
0100
1001
0010
1100
0001
,
0101
1000
0101
0100
1010
0001
0110
1000
,
0110
1000
0011
0100
1001
0010
0101
0010
,
1100
0100
0011
0010
1001
0100
0011
0001
,
1001
0100
1001
0010
0101
0020
0032
0023
,
2030
0000
0000
0000
0000
3220
0000
0000
0000
0000
0000
0000
0000
0000
0000
0000
,
0000
0000
0000
0000
0000
0000
0000
0000
0000
0000
0330
0000
1010
0002
0000
0003
,
0000
0202
0000
0303
0000
0000
0000
0000
0000
0000
0000
0000
0000
0000
0000
0000
;
