#TITLE:City of solitude;
#SUBTITLE:;
#ARTIST:Betwixt & Between;
#TITLETRANSLIT:;
#SUBTITLETRANSLIT:;
#ARTISTTRANSLIT:;
#CREDIT:owenviau1;
#BANNER:BN.png;
#BACKGROUND:BG.png;
#LYRICSPATH:;
#CDTITLE:../CDTitleOV1.png;
#MUSIC:City of solitude.ogg;
#OFFSET:-1.902;
#SAMPLESTART:67.731;
#SAMPLELENGTH:29.999;
#SELECTABLE:YES;
#BPMS:0.000=175.000;
#STOPS:;
#BGCHANGES:;
// cache tags:
#FIRSTBEAT:0.000;
#LASTBEAT:1096.500;
#SONGFILENAME:Songs/owenviau1 Simfiles 07_final/City of solitude - [owenviau1] v1.0.9/City of solitude.sm;
#HASMUSIC:1;
#HASBANNER:1;
#MUSICLENGTH:384.574;
// end cache tags

//---------------dance-single - 9.61 (9+) (owenviau1----------------
#NOTES:
     dance-single:
     9.61 (9+) (owenviau1:
     Medium:
     9:
     0.745,0.672,0.042,0.000,0.000,1974.000,16.000,0.000,2.000,0.000:
1000
0100
0010
0001
,
1000
0010
0100
0010
,
1000
0001
0010
0001
,
0100
0010
1000
0001
,
0010
0100
1000
0010
,
0100
0001
1000
0010
,
1000
0001
0100
0001
,
1000
0010
0100
0010
,
1000
0001
0010
0001
,
1000
0100
0010
0001
,
0100
0010
1000
0001
,
0010
0100
1000
0001
,
0010
0001
1000
0100
,
1000
0010
0100
0010
,
1000
0001
0100
0001
,
1000
0100
0010
0001
,
1000
0010
0100
0010
1000
0001
0010
0001
,
0100
0010
1000
0001
0010
0100
1000
0010
,
0100
0000
0001
1000
0100
0000
0010
0001
,
1000
0000
0010
0100
0001
0000
1000
0100
,
0010
0001
1000
0010
0100
0010
1000
0001
,
0010
0001
0100
0010
1000
0001
0010
0100
,
1000
0000
0100
0010
0001
0000
0100
0010
,
1000
0000
0001
0010
0100
0000
1000
0010
,
0100
0001
1000
0100
1000
0010
0100
0001
,
1000
0100
0010
0001
0100
0010
1000
0001
,
1000
0000
0100
0010
0001
0000
1000
0010
,
0100
0000
0001
1000
0010
0000
0100
0001
,
1000
0100
1000
0010
0100
0001
1000
0100
,
1000
0010
0100
0001
1000
0100
1000
0010
,
0100
0001
1000
0100
1000
0010
0100
0001
,
1000
0100
0010
0001
0100
0010
1000
0001
,
1001
1000
0100
0010
0001
0100
0010
1000
,
0001
0100
0001
1000
0010
0100
0010
1000
,
0001
0010
0001
0100
0010
1000
0001
0010
,
0100
1000
0010
0100
0001
1000
0100
1000
,
0010
0100
0010
1000
0001
0010
0001
0100
,
0010
1000
0001
0010
0100
1000
0010
0100
,
0001
1000
0100
1000
0010
0100
0001
1000
,
0100
1000
0010
0100
0001
0100
0010
1000
,
0001
0010
0001
0100
0010
1000
0001
0010
,
0100
1000
0010
0100
0001
1000
0010
1000
,
0001
0100
0010
0100
0001
1000
0100
1000
,
0010
0100
0001
0010
0001
1000
0100
1000
,
0010
0100
0001
1000
0100
0010
0001
0100
,
0010
1000
0001
0010
0100
1000
0001
0100
,
0001
1000
0010
0100
0010
1000
0001
0010
,
0001
0100
0010
1000
0001
0010
0100
1000
,
0010
0100
0001
1000
0100
1000
0010
0100
,
0010
1000
0001
0100
0001
1000
0010
0100
,
0001
1000
0100
0010
0001
0100
0010
1000
,
0001
0010
0100
1000
0010
0100
0001
1000
,
0100
1000
0010
0100
0001
1000
0100
0010
,
0001
0100
0010
0100
0001
1000
0010
0100
,
0010
1000
0001
0100
0001
1000
0010
0100
,
0001
1000
0100
0010
0001
1000
0001
0100
,
0010
0100
0001
1000
0100
0010
0001
1000
,
0100
1000
0010
0100
0001
1000
0100
0010
,
0001
1000
0010
0100
0010
1000
0001
0010
,
0001
0100
0010
1000
0001
0010
0100
1000
,
0010
0100
0001
1000
0100
1000
0010
0100
,
0010
1000
0001
0010
0100
1000
0010
0100
,
0001
0100
0010
1000
0001
0010
0100
1000
,
0010
0100
0001
1000
0010
0100
0010
1000
,
1001
0001
0100
0010
0100
0001
1000
0100
,
1000
0010
0100
0001
1000
0100
0010
0001
,
0100
0010
1000
0001
0010
0100
1000
0001
,
0100
0001
1000
0010
0100
0010
1000
0001
,
0010
0001
1000
0100
1000
0010
0100
0001
,
1000
0100
0010
0001
1000
0010
0100
0010
,
1000
0001
0010
0100
1000
0001
0100
0010
,
1000
0001
0010
0001
1000
0100
0010
0001
,
0101
0100
0010
1000
0001
0100
0010
1000
,
0001
0100
0001
1000
0010
0100
0010
1000
,
0001
0010
0001
0100
0010
1000
0001
0010
,
0100
1000
0010
0100
0001
1000
0100
1000
,
0010
0100
0010
1000
0001
0010
0001
0100
,
0010
1000
0001
0010
0100
1000
0010
0100
,
0001
1000
0100
1000
0010
0100
0001
1000
,
0100
1000
0010
0100
0001
0100
0010
1000
,
0001
0010
0001
0100
0010
1000
0001
0010
,
0100
1000
0010
0100
0001
1000
0010
1000
,
0001
0100
0010
0100
0001
1000
0100
1000
,
0010
0100
0001
0010
0001
1000
0100
1000
,
0010
0100
0001
1000
0100
0010
0001
0100
,
0010
1000
0001
0010
0100
1000
0001
0100
,
0001
1000
0010
0100
0010
1000
0001
0010
,
0001
0100
0010
1000
0001
0010
0100
1000
,
0010
0100
0001
1000
0100
1000
0010
0100
,
0010
1000
0001
0100
0001
1000
0010
0100
,
0001
1000
0100
0010
0001
0100
0010
1000
,
0001
0010
0100
1000
0010
0100
0001
1000
,
0100
1000
0010
0100
0001
1000
0100
0010
,
0001
0100
0010
0100
0001
1000
0010
0100
,
0010
1000
0001
0100
0001
1000
0010
0100
,
0001
1000
0100
0010
0001
1000
0001
0100
,
0010
0100
0001
1000
0100
0010
0001
1000
,
0100
1000
0010
0100
0001
1000
0100
0010
,
0001
1000
0010
0100
0010
1000
0001
0010
,
0001
0100
0010
1000
0001
0010
0100
1000
,
0010
0100
0001
1000
0100
1000
0010
0100
,
0010
1000
0001
0010
0100
1000
0010
0100
,
0001
0100
0010
1000
0001
0010
0100
1000
,
0010
0100
0001
1000
0010
0100
0010
1000
,
0001
1000
0100
0010
0001
0100
0010
1000
,
0001
0100
0001
1000
0010
0100
0010
1000
,
0001
0010
0001
0100
0010
1000
0001
0010
,
0100
1000
0010
0100
0001
1000
0100
1000
,
0010
0100
0010
1000
0001
0010
0001
0100
,
0010
1000
0001
0010
0100
1000
0010
0100
,
0001
1000
0100
1000
0010
0100
0001
1000
,
0100
1000
0010
0100
0001
0100
0010
1000
,
0001
0010
0001
0100
0010
1000
0001
0010
,
0100
1000
0010
0100
0001
1000
0010
1000
,
0001
0100
0010
0100
0001
1000
0100
1000
,
0010
0100
0001
0010
0001
1000
0100
1000
,
0010
0100
0001
1000
0100
0010
0001
0100
,
0010
1000
0001
0010
0100
1000
0001
0100
,
0001
1000
0010
0100
0010
1000
0001
0010
,
0001
0100
0010
1000
0001
0010
0100
1000
,
0010
0100
0001
1000
0100
1000
0010
0100
,
0010
1000
0001
0100
0001
1000
0010
0100
,
0001
1000
0100
0010
0001
0100
0010
1000
,
0001
0010
0100
1000
0010
0100
0001
1000
,
0100
1000
0010
0100
0001
1000
0100
0010
,
0001
0100
0010
0100
0001
1000
0010
0100
,
0010
1000
0001
0100
0001
1000
0010
0100
,
0001
1000
0100
0010
0001
1000
0001
0100
,
0010
0100
0001
1000
0100
0010
0001
1000
,
0100
1000
0010
0100
0001
1000
0100
0010
,
0001
1000
0010
0100
0010
1000
0001
0010
,
0001
0100
0010
1000
0001
0010
0100
1000
,
0010
0100
0001
1000
0100
1000
0010
0100
,
0010
1000
0001
0010
0100
1000
0010
0100
,
0001
0100
0010
1000
0001
0010
0100
1000
,
0010
0100
0001
1000
0010
0100
0010
1000
,
0001
1000
0100
0010
0001
0100
0010
1000
,
0001
0100
0001
1000
0010
0100
0010
1000
,
0001
0010
0001
0100
0010
1000
0001
0010
,
0100
1000
0010
0100
0001
1000
0100
1000
,
0010
0100
0010
1000
0001
0010
0001
0100
,
0010
1000
0001
0010
0100
1000
0010
0100
,
0001
1000
0100
1000
0010
0100
0001
1000
,
0100
1000
0100
0010
0001
1000
0010
0100
,
0101
1000
0001
0100
0010
1000
0001
0010
,
0100
1000
0010
0100
0001
1000
0010
1000
,
0101
0100
0010
0100
0001
1000
0100
1000
,
0010
0100
0001
0010
0001
1000
0100
1000
,
0110
0100
0001
1000
0100
0010
0001
0100
,
0010
1000
0001
0010
0100
1000
0001
0100
,
0101
1000
0010
0100
0010
1000
0001
0010
,
0001
0100
0010
1000
0001
0010
0100
1000
,
0110
0100
0001
1000
0100
1000
0010
0100
,
0010
1000
0001
0100
0001
1000
0010
0100
,
1001
1000
0100
0010
0001
0100
0010
1000
,
0001
0010
0100
1000
0010
0100
0001
1000
,
1100
1000
0010
0100
0001
1000
0100
0010
,
0001
0100
0010
0100
0001
1000
0010
0100
,
0010
1000
0001
0100
0001
1000
0010
0100
,
0001
1000
0100
0010
0001
0100
0001
1000
,
4010
0000
0000
3004
,
0000
0000
4003
0000
,
0000
0000
3004
0000
,
0000
0000
4003
0000
,
0000
0000
3004
0000
,
0000
0000
4003
0000
,
0000
0000
3004
0000
,
0000
0000
4003
0M00
,
0000
0000
3004
0000
,
0000
0000
4003
0000
,
0000
0000
3004
0000
,
0000
0000
4003
0000
,
0000
0000
3004
0000
,
0000
0000
4003
0000
,
0000
0000
3004
0000
,
0000
0000
4003
0M00
,
3001
0100
0010
0100
0001
1000
0100
1000
,
0001
0100
0001
1000
0010
0100
0010
1000
,
0001
0010
0001
0100
0010
1000
0001
0010
,
0100
1000
0010
0100
0001
1000
0100
1000
,
0010
0100
0010
1000
0001
0010
0001
0100
,
0010
1000
0001
0010
0100
1000
0010
0100
,
0001
1000
0100
1000
0010
0100
0001
1000
,
0100
1000
0010
0100
0001
0100
0010
1000
,
0001
0010
0001
0100
0010
1000
0001
0010
,
0100
1000
0010
0100
0001
1000
0010
1000
,
0001
0100
0010
0100
0001
1000
0100
1000
,
0010
0100
0001
0010
0001
1000
0100
1000
,
0010
0100
0001
1000
0100
0010
0001
0100
,
0010
1000
0001
0010
0100
1000
0001
0100
,
0001
1000
0010
0100
0010
1000
0001
0010
,
0001
0100
0010
1000
0001
0010
0100
1000
,
0010
0100
0001
1000
0100
1000
0010
0100
,
0010
1000
0001
0100
0001
1000
0010
0100
,
0001
1000
0100
0010
0001
0100
0010
1000
,
0001
0010
0100
1000
0010
0100
0001
1000
,
0100
1000
0010
0100
0001
1000
0100
0010
,
0001
0100
0010
0100
0001
1000
0010
0100
,
0010
1000
0001
0100
0001
1000
0010
0100
,
0001
1000
0100
0010
0001
1000
0001
0100
,
0010
0100
0001
1000
0100
0010
0001
1000
,
0100
1000
0010
0100
0001
1000
0100
0010
,
0001
1000
0010
0100
0010
1000
0001
0010
,
0001
0100
0010
1000
0001
0010
0100
1000
,
0010
0100
0001
1000
0100
1000
0010
0100
,
0010
1000
0001
0010
0100
1000
0010
0100
,
0001
0100
0010
1000
0001
0010
0100
1000
,
0010
0100
0001
1000
0010
0100
0010
1000
,
1001
1000
0100
0010
0001
0100
0010
1000
,
0001
0100
0001
1000
0010
0100
0010
1000
,
0001
0010
0001
0100
0010
1000
0001
0010
,
0100
1000
0010
0100
0001
1000
0100
1000
,
0010
0100
0010
1000
0001
0010
0001
0100
,
0010
1000
0001
0010
0100
1000
0010
0100
,
0001
1000
0100
1000
0010
0100
0001
1000
,
0100
1000
0010
0100
0001
0100
0010
1000
,
0001
0010
0001
0100
0010
1000
0001
0010
,
0100
1000
0010
0100
0001
1000
0010
1000
,
0001
0100
0010
0100
0001
1000
0100
1000
,
0010
0100
0001
0010
0001
1000
0100
1000
,
0010
0100
0001
1000
0100
0010
0001
0100
,
0010
1000
0001
0010
0100
1000
0001
0100
,
0001
1000
0010
0100
0010
1000
0001
0010
,
0001
0100
0010
1000
0001
0010
0100
1000
,
0110
0100
0001
1000
0100
1000
0010
0100
,
0010
1000
0001
0100
0001
1000
0010
0100
,
0001
1000
0100
0010
0001
0100
0010
1000
,
0001
0010
0100
1000
0010
0100
0001
1000
,
0100
1000
0010
0100
0001
1000
0100
0010
,
0001
0100
0010
0100
0001
1000
0010
0100
,
0010
1000
0001
0100
0001
1000
0010
0100
,
0001
1000
0100
0010
0001
1000
0001
0100
,
0010
0100
0001
1000
0100
0010
0001
1000
,
0100
1000
0010
0100
0001
1000
0100
0010
,
0001
1000
0010
0100
0010
1000
0001
0010
,
0001
0100
0010
1000
0001
0010
0100
1000
,
0010
0100
0001
1000
0100
1000
0010
0100
,
0010
1000
0001
0010
0100
1000
0010
0100
,
0001
0100
0010
1000
0001
0010
0100
1000
,
0010
0100
0001
1000
0010
0100
0001
0100
,
0110
1000
0100
0010
0001
0100
0010
1000
,
0001
0100
0001
1000
0010
0100
0010
1000
,
0001
0010
0001
0100
0010
1000
0001
0010
,
0100
1000
0010
0100
0001
1000
0100
1000
,
0010
0100
0010
1000
0001
0010
0001
0100
,
0010
1000
0001
0010
0100
1000
0010
0100
,
0001
1000
0100
1000
0010
0100
0001
1000
,
0100
1000
0010
0100
0001
0100
0010
1000
,
0001
0010
0001
0100
0010
1000
0001
0010
,
0100
1000
0010
0100
0001
1000
0010
1000
,
0001
0100
0010
0100
0001
1000
0100
1000
,
0010
0100
0001
0010
0001
1000
0100
1000
,
0010
0100
0001
1000
0100
0010
0001
0100
,
0010
1000
0001
0010
0100
1000
0001
0100
,
0001
1000
0010
0100
0010
1000
0001
0010
,
0001
0100
0010
1000
0001
0010
0100
1000
,
0110
0100
0001
1000
0100
1000
0010
0100
,
0010
1000
0001
0100
0001
1000
0010
0100
,
0001
1000
0100
0010
0001
0100
0010
1000
,
0001
0010
0100
1000
0010
0100
0001
1000
,
0100
1000
0010
0100
0001
1000
0100
0010
,
0001
0100
0010
0100
0001
1000
0010
0100
,
0010
1000
0001
0100
0001
1000
0010
0100
,
0001
1000
0100
0010
0001
1000
0001
0100
,
0010
0100
0001
1000
0100
0010
0001
1000
,
0100
1000
0010
0100
0001
1000
0100
0010
,
0001
1000
0010
0100
0010
1000
0001
0010
,
0001
0100
0010
1000
0001
0010
0100
1000
,
0010
0100
0001
1000
0100
1000
0010
0100
,
0010
1000
0001
0010
0100
1000
0010
0100
,
0001
0100
0010
1000
0001
0010
0100
1000
,
0010
0100
0001
1000
0010
0100
0010
1000
,
1001
0000
0000
0000
,
0000
0000
0000
0000
,
0000
0000
0000
0000
,
0000
0000
0000
0000
,
0000
0000
0000
0000
,
0000
0000
0000
0000
,
0000
0000
0000
0000
,
0000
0000
0000
0000
;

//---------------dance-single - 15.24 (15) (owenviau----------------
#NOTES:
     dance-single:
     15.24 (15) (owenviau:
     Hard:
     15:
     1.000,1.000,0.000,0.000,1.000,3929.000,0.000,0.000,340.000,0.000:
1000
0100
0010
0000
0001
0100
0010
0000
1000
0001
0100
0000
0010
1000
0001
0000
,
0100
0010
1000
0000
0001
0100
0010
0000
1000
0001
0100
0000
0010
1000
0001
0000
,
0100
0010
1000
0000
0001
0100
0010
0000
1000
0100
0010
0000
0001
0100
0010
0000
,
1000
0001
0100
0000
0010
1000
0001
0000
0010
0100
1000
0000
0001
0100
0010
0000
,
1000
0001
0100
0000
0010
1000
0100
0000
0010
0001
0100
0000
0010
1000
0001
0000
,
1000
0100
0010
0000
0001
0100
0010
0000
1000
0001
0100
0000
0010
1000
0001
0000
,
0100
0010
1000
0000
0001
0100
0010
0000
1000
0001
0100
0000
0010
1000
0001
0000
,
0100
0010
1000
0000
0001
0100
0010
0000
1000
0100
0010
0000
0001
0100
0010
0000
,
1000
0001
0100
0000
0010
1000
0001
0000
0010
0100
1000
0000
0001
0100
0010
0000
,
1000
0001
0100
0000
0010
1000
0100
0000
0010
0001
0100
0000
0010
1000
0001
0000
,
1000
0100
0010
0000
0001
0100
0010
0000
1000
0001
0100
0000
0010
1000
0001
0000
,
0100
0010
1000
0000
0001
0100
0010
0000
1000
0001
0100
0000
0010
1000
0001
0000
,
0100
0010
1000
0000
0001
0100
0010
0000
1000
0100
0010
0000
0001
0100
0010
0000
,
1000
0001
0100
0000
0010
1000
0001
0000
0010
0100
1000
0000
0001
0100
0010
0000
,
1000
0001
0100
0000
0010
1000
0100
0000
0010
0001
0100
0000
0010
1000
0001
0000
,
0100
0010
1000
0000
0001
0100
0010
0000
1000
0100
0010
0000
M001
0100
0010
0000
,
1000
0001
0010
0000
0100
1000
0001
0100
0010
0000
1000
0000
0100
0010
0001
0100
,
0010
0000
1000
0000
0001
0100
0001
1000
0100
0000
0010
0000
0001
0100
0010
1000
,
0001
0000
0100
0000
0010
1000
0010
0100
0001
0000
0010
0000
0100
1000
0100
0010
,
0001
0000
0100
0000
0010
1000
0001
0100
0001
0000
1000
0000
0100
0010
0001
1000
,
0001
0000
0010
0000
0100
1000
0001
0100
0010
0000
1000
0000
0100
0010
0001
0100
,
0010
0000
1000
0000
0001
0100
0001
1000
0100
0000
0010
0000
0001
0100
0010
1000
,
0001
0000
0100
0000
0010
1000
0010
0100
0001
0000
0010
0000
0100
1000
0100
0010
,
0001
0000
0100
0000
0010
1000
0001
0100
0001
0000
1000
0000
0100
0010
0001
1000
,
0100
0000
0010
0000
0001
1000
0001
0100
0010
0000
1000
0000
0100
0010
0001
1000
,
0010
0000
0100
0000
0001
0010
0001
1000
0100
0000
0010
0000
0001
0100
0010
1000
,
0001
0000
0100
0000
0010
1000
0010
0100
0001
0000
0010
0000
0100
1000
0100
0010
,
0001
0000
0100
0000
0010
1000
0001
0100
0001
0000
1000
0000
0100
0010
0001
0000
,
1000
0001
0100
0010
1000
0100
0010
0001
0100
0010
1000
0001
0100
0010
1000
0001
,
0010
0001
0100
0010
1000
0100
0010
0001
1000
0010
1000
0100
0010
0001
0100
0010
,
1000
0001
0100
0010
0100
0001
1000
0010
0100
0001
0100
0010
1000
0100
0010
0001
,
1000
0100
1000
0010
0100
0001
0100
0010
1000
0100
0010
0001
0100
0010
1000
0001
,
0M10
0000
0100
0000
1000
0010
0100
0001
0010
0000
0100
0000
1000
0001
0100
0010
,
0100
0000
0001
0000
1000
0100
0010
0001
0010
0000
0100
0000
1000
0001
1000
0010
,
0100
0000
0001
0000
1000
0100
1000
0010
0100
0000
0001
0000
0010
0100
1000
0001
,
0100
0000
0010
0000
1000
0001
1000
0100
0010
0000
0001
0000
0100
0010
1000
0001
,
0100
0000
0010
0000
1000
0100
1000
0001
0010
0000
0100
0000
1000
0001
0010
0001
,
0100
0000
0010
0000
1000
0001
0100
0001
0010
0000
0100
0000
1000
0010
0100
0010
,
1000
0000
0001
0000
0010
0001
0100
0010
1000
0000
0001
0000
0100
0010
0100
0001
,
1000
0000
0100
0000
0010
0001
0100
0010
1000
0000
0001
0000
0100
0010
1000
0001
,
0010
0000
0100
0000
1000
0010
0100
0001
0010
0000
0100
0000
1000
0001
0100
0010
,
0100
0000
0001
0000
1000
0100
0010
0001
0010
0000
0100
0000
1000
0001
1000
0010
,
0100
0000
0001
0000
1000
0100
1000
0010
0100
0000
0001
0000
0010
0100
1000
0001
,
0100
0000
0010
0000
1000
0001
1000
0100
0010
0000
0001
0000
0100
0010
1000
0001
,
0100
0000
0010
0000
1000
0100
1000
0001
0010
0000
0100
0000
1000
0001
0010
0001
,
0100
0000
0010
0000
1000
0001
0100
0001
0010
0000
0100
0000
1000
0010
0100
0010
,
1000
0000
0001
0000
0010
0001
0100
0010
1000
0000
0001
0000
0100
0010
0100
0001
,
1000
0000
0100
0000
0010
0001
0100
0010
1000
0000
0001
0000
0100
0010
1000
0001
,
0100
0000
0001
0000
1000
0010
0100
0001
0010
0000
0100
0000
1000
0001
0100
0010
,
0100
0000
0001
0000
1000
0100
0010
0001
0010
0000
0100
0000
1000
0001
1000
0010
,
0100
0000
0001
0000
1000
0100
1000
0010
0100
0000
0001
0000
0010
0100
1000
0001
,
0100
0000
0010
0000
1000
0001
1000
0100
0010
0000
0001
0000
0100
0010
1000
0001
,
0100
0000
0010
0000
1000
0100
1000
0001
0010
0000
0100
0000
1000
0001
0010
0001
,
0100
0000
0010
0000
1000
0001
0100
0001
0010
0000
0100
0000
1000
0010
0100
0010
,
1000
0000
0001
0000
0010
0001
0100
0010
1000
0000
0001
0000
0100
0010
0100
0001
,
1000
0000
0100
0000
0010
0001
0100
0010
1000
0000
0001
0000
0100
0010
1000
0001
,
0010
0000
0100
0000
1000
0010
0100
0001
0010
0000
0100
0000
1000
0001
0100
0010
,
0100
0000
0001
0000
1000
0100
0010
0001
0010
0000
0100
0000
1000
0001
1000
0010
,
0100
0000
0001
0000
1000
0100
1000
0010
0100
0000
0001
0000
0010
0100
1000
0001
,
0100
0000
0010
0000
1000
0001
1000
0100
0010
0000
0001
0000
0100
0010
1000
0001
,
0100
0000
0010
0000
1000
0100
1000
0001
0010
0000
0100
0000
1000
0001
0010
0001
,
0100
0000
0010
0000
1000
0001
0100
0001
0010
0000
0100
0000
1000
0010
0100
0010
,
1000
0000
0001
0000
0010
0001
0100
0010
1000
0000
0001
0000
0100
0010
0100
0001
,
1000
0000
0100
0000
0010
0001
0100
0010
1000
0000
0001
0000
0100
0010
1000
0001
,
0010
0000
0100
0000
1000
0010
0100
0001
0010
0000
0100
0000
1000
0001
0100
0010
,
0100
0000
0001
0000
1000
0100
0010
0001
0010
0000
0100
0000
1000
0001
1000
0010
,
0100
0000
0001
0000
1000
0100
1000
0010
0100
0000
0001
0000
0010
0100
1000
0001
,
0100
0000
0010
0000
1000
0001
1000
0100
0010
0000
0001
0000
0100
0010
1000
0001
,
0100
0000
0010
0000
1000
0100
1000
0001
0010
0000
0100
0000
1000
0001
0010
0001
,
0100
0000
0010
0000
1000
0001
0100
0001
0010
0000
0100
0000
1000
0010
0100
0010
,
1000
0000
0001
0100
0010
0000
1000
0001
0100
0000
0010
1000
0100
0000
0010
0001
,
0100
0010
1000
0100
0010
0001
0100
0010
1000
0100
0010
0001
0100
0010
0100
0001
,
1000
0100
0010
0001
0100
0010
1000
0001
0010
0100
1000
0010
0100
0010
1000
0001
,
0100
0001
1000
0100
0010
0001
0100
0010
1000
0001
0010
0001
1000
0100
0010
0001
,
0100
0010
1000
0001
0010
0100
1000
0010
0100
0001
1000
0100
1000
0010
0100
0001
,
1000
0100
0010
0001
0100
0010
1000
0001
0100
0010
1000
0001
0100
0010
0100
0001
,
0010
0100
1000
0001
0100
0001
1000
0010
0100
0001
1000
0100
0010
0001
0100
0010
,
1000
0001
0100
0001
1000
0001
0100
0010
1000
0001
0100
0001
1000
0100
0010
0001
,
0100
0010
1000
0001
0100
0001
1000
0010
1000
0001
0100
0010
1000
0100
0010
0001
,
0100
0010
1000
0001
0010
0001
1000
0100
0010
0001
0100
0010
1000
0001
0010
0100
,
1000
0010
0100
0010
1000
0001
0100
0001
1000
0100
0010
0001
0100
0010
1000
0001
,
0100
0001
1000
0010
1000
0001
0100
0010
1000
0100
0010
0001
0100
0010
1000
0001
,
0010
0001
1000
0100
0010
0001
0100
0010
1000
0001
0010
0100
1000
0010
0100
0010
,
1000
0001
0100
0010
0100
0001
1000
0001
0100
0010
1000
0100
0010
0001
1000
0100
,
1000
0001
0100
0010
1000
0001
0010
0001
1000
0100
0010
0001
0100
0010
1000
0010
,
0100
0001
1000
0001
0100
0010
1000
0100
0010
0001
1000
0100
1000
0001
0100
0010
,
1000
0100
0010
0001
0100
0010
1000
0010
0100
0001
1000
0100
0010
0001
0100
0010
,
1000
0001
0010
0001
1000
0100
1000
0001
0100
0001
0010
0100
1000
0010
0100
0010
,
1000
0001
0100
0010
0100
0001
1000
0001
0100
0010
1000
0100
0010
0001
1000
0100
,
1000
0001
0100
0010
1000
0001
0010
0001
1000
0100
0010
0001
0100
0010
1000
0010
,
0100
0001
1000
0001
0100
0010
1000
0100
0010
0001
1000
0100
1000
0001
0100
0010
,
1000
0100
0010
0001
0100
0010
1000
0010
0100
0001
1000
0100
0010
0001
0100
0010
,
1000
0001
0010
0001
1000
0100
1000
0001
0100
0010
1000
0100
0010
0001
0100
0010
,
1000
0001
0100
0001
1000
0100
0010
0001
0100
0010
1000
0001
0100
0001
1000
0010
,
1000
0001
0100
0010
1000
0100
0010
0001
0100
0010
1000
0001
0010
0001
1000
0100
,
0010
0001
0100
0010
1000
0001
0010
0100
1000
0010
0100
0010
1000
0001
0100
0001
,
1000
0100
0010
0001
0100
0010
1000
0001
0100
0001
1000
0010
1000
0001
0100
0010
,
1000
0100
0010
0001
0100
0010
1000
0001
0010
0001
1000
0100
0010
0001
0100
0010
,
1000
0001
0010
0100
1000
0010
0100
0010
1000
0001
0100
0010
0100
0001
1000
0001
,
0100
0010
1000
0100
0010
0001
1000
0100
1000
0001
0100
0010
1000
0001
0010
0001
,
1000
0100
0010
0001
0100
0010
1000
0010
0100
0001
1000
0001
0100
0010
1000
0100
,
0010
0001
1000
0100
1000
0001
0100
0010
1000
0100
0010
0001
0100
0010
1000
0010
,
0100
0001
1000
0100
0010
0001
0100
0010
1000
0001
0010
0001
1000
0100
1000
0001
,
0100
0010
0100
0001
1000
0001
0100
0010
1000
0100
0010
0001
0100
0010
1000
0001
,
0100
0010
1000
0001
0010
0001
0100
0010
1000
0100
0010
0001
1000
0010
1000
0100
,
0010
0001
0100
0010
1000
0001
0100
0010
0100
0001
1000
0010
0100
0001
0100
0010
,
1000
0100
0010
0001
1000
0100
1000
0010
0100
0001
0100
0010
1000
0100
0010
0001
,
0100
0010
1000
0001
0010
0001
1000
0100
0010
0001
1000
0100
1000
0001
0100
0010
,
1000
0100
0010
0001
0100
0010
0100
0001
1000
0100
1000
0001
0100
0010
1000
0100
,
0010
0001
0100
0010
0100
0001
1000
0100
0010
0001
0100
0010
1000
0010
0100
0001
,
0010
0001
1000
0100
0010
0001
0100
0001
1000
0100
0010
0001
0100
0010
1000
0001
,
0010
0100
1000
0010
0100
0010
1000
0001
0100
0001
1000
0100
0010
0001
0100
0010
,
1000
0001
0010
0001
1000
0100
0010
0001
0100
0010
1000
0001
0010
0100
1000
0010
,
0100
0001
1000
0100
1000
0010
0100
0001
1000
0100
0010
0001
0100
0010
1000
0001
,
0100
0010
1000
0001
0100
0010
0100
0001
0010
0100
1000
0001
0100
0001
1000
0010
,
0100
0001
1000
0100
0010
0001
0100
0010
1000
0001
0100
0001
1000
0100
0010
0001
,
0100
0010
1000
0001
0100
0010
1000
0001
0010
0001
0100
0010
1000
0100
0010
0001
,
1000
0010
1000
0100
0010
0001
0100
0010
1000
0001
0100
0010
0100
0001
1000
0010
,
0100
0001
0100
0010
1000
0100
0010
0001
1000
0100
1000
0010
0100
0001
0100
0010
,
1000
0100
0010
0001
0100
0010
1000
0001
0010
0001
1000
0100
0010
0001
1000
0100
,
1000
0001
0100
0010
1000
0100
0010
0001
0100
0010
0100
0001
1000
0100
1000
0001
,
0100
0010
1000
0100
0010
0001
0100
0010
0100
0001
1000
0100
0010
0001
0100
0010
,
1000
0010
0100
0001
0010
0001
1000
0100
0010
0001
0100
0001
1000
0100
0010
0001
,
0100
0010
1000
0001
0010
0100
1000
0010
0100
0010
1000
0001
0100
0001
1000
0100
,
0010
0001
0100
0010
1000
0001
0010
0001
1000
0100
0010
0001
0100
0010
1000
0001
,
0010
0100
1000
0010
0100
0001
1000
0100
1000
0010
0100
0001
1000
0100
0010
0001
,
0100
0010
1000
0001
0100
0010
1000
0001
0100
0010
0100
0001
0010
0100
1000
0001
,
0100
0001
1000
0010
0100
0001
1000
0100
0010
0001
0100
0010
1000
0001
0100
0001
,
1000
0100
0010
0001
0100
0010
1000
0001
0100
0010
1000
0001
0010
0001
0100
0010
,
1000
0100
0010
0001
1000
0010
1000
0100
0010
0001
0100
0010
1000
0001
0100
0010
,
0100
0001
1000
0010
0100
0001
0100
0010
1000
0100
0010
0001
1000
0100
1000
0010
,
0100
0001
0100
0010
1000
0100
0010
0001
0100
0010
1000
0001
0010
0001
1000
0100
,
0010
0001
1000
0100
1000
0001
0100
0010
1000
0100
0010
0001
0100
0010
0100
0001
,
1000
0100
1000
0001
0100
0010
1000
0100
0010
0001
0100
0010
0100
0001
1000
0100
,
0010
0001
0100
0010
1000
0010
0100
0001
0010
0001
1000
0100
0010
0001
0100
0001
,
1000
0100
0010
0001
0100
0010
1000
0001
0010
0100
1000
0010
0100
0010
1000
0001
,
0100
0001
1000
0100
0010
0001
0100
0010
1000
0001
0010
0001
1000
0100
0010
0001
,
0100
0010
1000
0001
0010
0100
1000
0010
0100
0001
1000
0100
1000
0010
0100
0001
,
1000
0100
0010
0001
0100
0010
1000
0001
0100
0010
1000
0001
0100
0010
0100
0001
,
0010
0100
1000
0001
0100
0001
1000
0010
0100
0001
1000
0100
0010
0001
0100
0010
,
1000
0001
0100
0001
1000
0100
1000
0001
0100
0010
1000
0100
0010
0001
0100
0010
,
1000
0001
0100
0001
1000
0100
0010
0001
0100
0010
1000
0001
0100
0001
1000
0010
,
1000
0001
0100
0010
1000
0100
0010
0001
0100
0010
1000
0001
0010
0001
1000
0100
,
0010
0001
0100
0010
1000
0001
0010
0100
1000
0010
0100
0010
1000
0001
0100
0010
,
1000
0000
0001
0000
1000
0010
0100
0001
0010
0000
0100
0000
1000
0001
0100
0010
,
0100
0000
0001
0000
1000
0100
0010
0001
0010
0000
0100
0000
1000
0001
1000
0010
,
0100
0000
0001
0000
1000
0100
1000
0010
0100
0000
0001
0000
0010
0100
1000
0001
,
0100
0000
0010
0000
1000
0001
1000
0100
0010
0000
0001
0000
0100
0010
1000
0001
,
0100
0000
0010
0000
1000
0100
1000
0001
0010
0000
0100
0000
1000
0001
0010
0001
,
0100
0000
0010
0000
1000
0001
0100
0001
0010
0000
0100
0000
1000
0010
0100
0010
,
1000
0000
0001
0000
0010
0001
0100
0010
1000
0000
0001
0000
0100
0010
0100
0001
,
1000
0000
0100
0000
0010
0001
0100
0010
1000
0000
0001
0000
0100
0010
1000
0001
,
0010
0000
0100
0000
1000
0010
0100
0001
0010
0000
0100
0000
1000
0001
0100
0010
,
0100
0000
0001
0000
1000
0100
0010
0001
0010
0000
0100
0000
1000
0001
1000
0010
,
0100
0000
0001
0000
1000
0100
1000
0010
0100
0000
0001
0000
0010
0100
1000
0001
,
0100
0000
0010
0000
1000
0001
1000
0100
0010
0000
0001
0000
0100
0010
1000
0001
,
0100
0000
0010
0000
1000
0100
1000
0001
0010
0000
0100
0000
1000
0001
0010
0001
,
0100
0000
0010
0000
1000
0001
0100
0001
0010
0000
0100
0000
1000
0010
0100
0010
,
1000
0000
0001
0100
0010
0000
1000
0001
0100
0000
0010
1000
0100
0000
0010
0001
,
0100
0010
1000
0100
0010
0001
0100
0010
1000
0100
0010
0001
0100
0010
1000
0010
,
0100
0001
0100
0001
0100
0001
0100
0001
0100
0001
0100
0001
0100
0001
0100
0001
,
0100
0001
0100
0001
0100
0001
0100
0001
1000
0100
1000
0100
1000
0100
1000
0100
,
1000
0100
1000
0100
1000
0100
1000
0100
0010
0001
0010
0001
0010
0001
0010
0001
,
0010
0001
0010
0001
0010
0001
0010
0001
1000
0010
1000
0010
1000
0010
1000
0010
,
1000
0010
1000
0010
1000
0010
1000
0010
0100
0001
0100
0001
0100
0001
0100
0001
,
0100
0001
0100
0001
0100
0001
0100
0001
1000
0100
1000
0100
1000
0100
1000
0100
,
1000
0100
1000
0100
1000
0100
1000
0100
0010
0001
0010
0001
0010
0001
0010
0001
,
0010
0001
0010
0001
0010
0001
0010
0001
0010
0100
1000
0100
1000
0010
0100
0001
,
1000
0100
1000
0100
1000
0100
1000
0100
0010
0001
0010
0001
0010
0001
0010
0001
,
0010
0001
0010
0001
0010
0001
0010
0001
1000
0010
1000
0010
1000
0010
1000
0010
,
1000
0010
1000
0010
1000
0010
1000
0010
0100
0001
0100
0001
0100
0001
0100
0001
,
0100
0001
0100
0001
0100
0001
0100
0001
1000
0100
1000
0100
1000
0100
1000
0100
,
1000
0100
1000
0100
1000
0100
1000
0100
0010
0001
0010
0001
0010
0001
0010
0001
,
0010
0001
0010
0001
1000
0100
1000
0100
1000
0100
1000
0100
1000
0100
1000
0100
,
1000
0100
1000
0100
1000
0100
1000
0100
0010
0001
0010
0001
0010
0001
0010
0001
,
0010
0001
0010
0001
0010
0001
0010
0001
1000
0010
1000
0010
1M00
0001
0010
0001
,
1000
0100
0010
0001
0100
0010
1000
0001
0100
0010
1000
0001
0100
0010
0100
0001
,
0010
0100
1000
0001
0100
0001
1000
0010
0100
0001
1000
0100
0010
0001
0100
0010
,
1000
0001
0100
0001
1000
0001
0100
0010
1000
0001
0100
0001
1000
0100
0010
0001
,
0100
0010
1000
0001
0100
0001
1000
0010
1000
0001
0100
0010
1000
0100
0010
0001
,
0100
0010
1000
0001
0010
0001
1000
0100
0010
0001
0100
0010
1000
0001
0010
0100
,
1000
0010
0100
0010
1000
0001
0100
0001
1000
0100
0010
0001
0100
0010
1000
0001
,
0100
0001
1000
0010
1000
0001
0100
0010
1000
0100
0010
0001
0100
0010
1000
0001
,
0010
0001
1000
0100
0010
0001
0100
0010
1M00
0001
0010
0100
1000
0001
0100
0010
,
100M
000M
010M
0000
M010
M000
M001
M000
M100
0000
0010
0000
1000
0000
0001
0000
M010
0000
010M
000M
10MM
000M
010M
0000
M010
0000
0001
0000
1000
0000
0100
0000
,
10M0
00M0
00M1
0000
M100
0000
001M
0000
1M00
0000
0001
0000
0010
0000
0001
0000
10M0
0000
010M
0000
M010
M000
M001
M000
M100
0000
0010
0000
1000
0000
0010
0000
,
M100
0000
00M1
00M0
1MM0
00M0
00M1
0000
M100
0000
0010
0000
1000
0000
0100
0000
M010
0000
0M01
0000
10M0
00M0
01MM
00M0
10M0
0000
0001
0000
0100
0000
0010
0000
,
100M
000M
010M
0000
M010
M000
M001
M000
M100
0000
0010
0000
1000
0000
0010
0000
M100
0000
00M1
00M0
10M0
0000
010M
0000
M010
0000
0001
0000
0100
0000
0010
0000
,
1M00
0M00
0M01
0M00
MM10
0M00
0M01
0000
10M0
0000
0100
0000
1000
0000
0001
0000
M1M0
M000
M001
M000
M010
0000
010M
000M
100M
0000
0010
0000
0100
0000
0010
0000
,
1M00
0000
00M1
0000
M100
M000
M01M
M000
M100
0000
0001
0000
1000
0000
0001
0000
M100
0000
001M
000M
100M
000M
010M
0000
M010
0000
0001
0000
1000
0000
0100
0000
,
10M0
00M0
00M1
0000
M100
0000
001M
0000
1M00
0000
0001
0000
0010
0000
0001
0000
10M0
0000
010M
0000
M010
M000
M001
M000
M100
0000
0010
0000
1000
0000
0010
0000
,
M100
0000
00M1
00M0
1MM0
00M0
00M1
0000
M100
0000
0010
0000
1000
0000
0100
0000
M010
0000
0M01
0000
10M0
00M0
01MM
00M0
10M0
0000
0001
0000
0100
0000
0010
0000
,
100M
000M
010M
0000
M010
M000
M001
M000
M100
0000
0010
0000
1000
0000
0010
0000
M100
0000
00M1
00M0
10M0
0000
010M
0000
M010
0000
0001
0000
0100
0000
0010
0000
,
1M00
0M00
0M01
0M00
MM10
0M00
0M01
0000
10M0
0000
0100
0000
1000
0000
0001
0000
M100
0000
001M
000M
100M
000M
010M
0000
M010
0000
0001
0000
0100
0000
0010
0000
,
1M00
0000
00M1
00M0
M1M0
00M0
00M1
00M0
10M0
0000
0100
0000
0010
0000
0001
0000
M100
0000
001M
0000
1M00
0000
00M1
00M0
M1M0
0000
0001
0000
1000
0000
0010
0000
,
1M00
0000
00M1
0000
M100
0000
001M
000M
100M
0000
0100
0000
0010
0000
0001
0000
M100
0000
001M
0000
1M00
0M00
0M01
0M00
MM10
0000
0001
0000
1000
0000
0100
0000
,
M010
M000
M001
M000
M100
0000
001M
0000
1M00
0000
0001
0000
0010
0000
0100
0000
100M
000M
001M
000M
M10M
000M
001M
0000
1M00
0000
0001
0000
0100
0000
0001
0000
,
10M0
0000
010M
0000
M010
M000
M001
M000
M100
0000
0010
0000
1000
0000
0001
0000
M1M0
00M0
00M1
0000
1M00
0M00
0M1M
0M00
1000
0000
0001
0000
0100
0000
0010
0000
,
100M
000M
010M
0000
M010
M000
M001
0000
M100
0000
0010
0000
1000
0000
0001
0000
MM10
0M00
0M01
0000
10M0
0000
010M
0000
M010
0000
0001
0000
0100
0000
0010
0000
,
1M00
0M00
0M01
0000
M010
0000
010M
000M
100M
0000
0010
0000
0100
0000
0010
0000
1M00
0000
00M1
0000
M100
M000
M01M
M000
M100
0000
0001
0000
1000
0000
0001
0000
,
M100
0000
001M
000M
100M
000M
010M
0000
M010
0000
0001
0000
1000
0000
0100
0000
10M0
00M0
00M1
0000
M100
0000
001M
0000
1M00
0000
0001
0000
0010
0000
0001
0000
,
10M0
0000
010M
0000
M010
M000
M001
M000
M100
0000
0010
0000
1000
0000
0010
0000
M100
0000
00M1
00M0
1MM0
00M0
00M1
0000
M100
0000
0010
0000
1000
0000
0100
0000
,
M010
0000
0M01
0000
10M0
00M0
01MM
00M0
10M0
0000
0001
0000
0100
0000
0010
0000
100M
000M
010M
0000
M010
M000
M001
M000
M100
0000
0010
0000
1000
0000
0010
0000
,
M100
0000
00M1
00M0
10M0
0000
010M
0000
M010
0000
0001
0000
0100
0000
0010
0000
1M00
0M00
0M01
0M00
MM10
0M00
0M01
0000
10M0
0000
0100
0000
1000
0000
0001
0000
,
M100
M000
M01M
M000
M100
0000
00M1
00M0
1MM0
0000
0001
0000
0100
0000
0010
0000
1000
0000
0100
0000
0010
0000
0001
0000
0100
0000
0010
0000
1000
0000
0001
0000
,
0100
0010
1000
0001
0010
0001
0100
0010
1000
0100
0010
0001
1000
0010
1000
0100
,
0010
0001
0100
0010
1000
0001
0100
0010
0100
0001
1000
0010
0100
0001
0100
0010
,
1000
0100
0010
0001
1000
0100
1000
0010
0100
0001
0100
0010
1000
0100
0010
0001
,
1000
0010
0100
0001
0010
0000
0100
0000
1000
0001
0100
0010
0100
0000
0001
0000
,
1000
0100
0010
0001
0010
0000
0100
0000
1000
0001
1000
0010
0100
0000
0001
0000
,
1000
0100
1000
0010
0100
0000
0001
0000
0010
0100
1000
0001
0100
0000
0010
0000
,
1000
0001
1000
0100
0010
0000
0001
0000
0100
0010
1000
0001
0100
0000
0010
0000
,
1000
0100
1000
0001
0010
0000
0100
0000
1000
0001
0010
0001
0100
0000
0010
0000
,
1000
0001
0100
0001
0010
0000
0100
0000
1000
0010
0100
0010
1000
0000
0001
0000
,
0010
0001
0100
0010
1000
0000
0001
0000
0100
0010
0100
0001
1000
0000
0100
0000
,
0010
0001
0100
0010
1000
0000
0001
0000
0100
0010
1000
0001
0010
0000
0100
0000
,
1000
0010
0100
0001
0010
0000
0100
0000
1000
0001
0100
0010
0100
0000
0001
0000
,
1000
0100
0010
0001
0010
0000
0100
0000
1000
0001
1000
0010
0100
0000
0001
0000
,
1000
0100
1000
0010
0100
0000
0001
0000
0010
0100
1000
0001
0100
0000
0010
0000
,
1000
0001
1000
0100
0010
0000
0001
0000
0100
0010
1000
0001
0100
0000
0010
0000
,
1000
0100
1000
0001
0010
0000
0100
0000
1000
0001
0010
0001
0100
0000
0010
0000
,
1000
0001
0100
0001
0010
0000
0100
0000
1000
0010
0100
0010
1000
0000
0001
0000
,
0010
0001
0100
0010
1000
0001
0010
0001
0100
0010
1000
0001
0100
0001
1000
0100
,
0010
0001
0100
0010
1000
0001
0010
0100
1000
0010
0100
0010
1000
0100
0010
0001
,
1000
0010
0100
0001
0010
0000
0100
1000
0010
0100
0001
1000
0001
0010
0100
0000
,
1000
0010
1000
0000
0001
0100
0010
0000
1000
0100
1000
0000
0010
0100
0001
1000
,
0100
0010
0001
1000
0010
0000
0100
0001
1000
0100
0010
0001
0100
0010
1000
0000
,
0001
0010
0001
0000
0100
0010
1000
0000
0001
0010
0100
0000
1000
0010
0100
0001
,
1000
0100
0010
0001
0010
0000
0100
1000
0010
0100
0001
1000
0001
0010
0100
0000
,
1000
0010
1000
0000
0001
0100
0010
0000
1000
0100
1000
0000
0010
0100
0001
1000
,
0100
0010
0001
1000
0010
0000
0100
0001
1000
0100
0010
0001
0100
0010
1000
0000
,
0001
0010
0001
0000
0100
0010
1000
0000
0001
0010
0100
0000
1000
0010
0100
0001
,
1000
0010
0100
0001
0010
0000
0100
1000
0010
0100
0001
1000
0001
0010
0100
0000
,
1000
0010
1000
0000
0001
0100
0010
0000
1000
0100
1000
0000
0010
0100
0001
1000
,
0100
0010
0001
1000
0010
0000
0100
0001
1000
0100
0010
0001
0100
0010
1000
0000
,
0001
0010
0001
0000
0100
0010
1000
0000
0001
0010
0100
0000
1000
0010
0100
0001
,
1000
0010
0100
0001
0010
0000
0100
1000
0010
0100
0001
1000
0001
0010
0100
0000
,
1000
0010
1000
0000
0001
0100
0010
0000
1000
0100
1000
0000
0010
0100
0001
1000
,
0100
0010
0001
1000
0010
0000
0100
0001
1000
0100
0010
0001
0100
0010
1000
0000
,
0001
0010
0001
0000
0100
0010
1000
0000
0001
0010
0100
0000
1000
0010
0100
0001
,
1000
0010
0100
0001
1000
0001
1000
0010
0100
0001
1000
0100
0010
0001
0100
0010
,
1000
0001
0100
0001
1000
0100
1000
0001
0100
0010
1000
0100
0010
0001
0100
0010
,
1000
0001
0100
0001
1000
0100
0010
0001
0100
0010
1000
0001
0100
0001
1000
0010
,
1000
0001
0100
0010
1000
0100
0010
0001
0100
0010
1000
0001
0010
0001
1000
0100
,
0010
0001
0100
0010
1000
0001
0010
0100
1000
0010
0100
0010
1000
0100
0010
0001
,
0100
0010
1000
0001
0100
0010
1000
0001
0100
0010
0100
0001
0010
0100
1000
0001
,
0100
0001
1000
0010
0100
0001
1000
0100
0010
0001
0100
0010
1000
0001
0100
0001
,
1000
0001
0100
0010
1000
0001
0100
0001
1000
0100
0010
0001
0100
0010
1000
0001
,
0100
0001
1000
0010
1000
0001
0100
0010
1000
0100
0010
0001
0100
0010
1000
0001
,
0010
0001
1000
0100
0010
0001
0100
0010
1000
0001
0010
0100
1000
0010
0100
0010
,
1000
0001
0100
0001
1000
0100
0010
0001
0100
0010
1000
0001
0100
0001
1000
0010
,
1000
0001
0100
0010
1000
0100
0010
0001
0100
0010
1000
0001
0010
0001
1000
0100
,
0010
0001
0100
0010
1000
0001
0010
0100
1000
0010
0100
0010
1000
0001
0100
0010
,
0100
0001
1000
0001
0100
0010
1000
0100
0010
0001
1000
0100
1000
0001
0100
0010
,
1000
0001
0010
0001
1000
0100
0010
0001
0100
0010
1000
0010
0100
0001
1000
0001
,
0100
0010
1000
0100
0010
0001
1000
0100
1000
0001
0100
0010
1000
0100
0010
0001
,
0100
0010
1000
0010
0100
0001
1000
0100
0010
0001
0100
0010
1000
0001
0010
0001
,
1000
0100
1000
0001
0100
0001
0010
0100
1000
0010
0100
0010
1000
0001
0100
0010
,
0100
0001
1000
0001
0100
0010
1000
0100
0010
0001
1000
0100
1000
0001
0100
0010
,
1000
0001
0010
0001
1000
0100
0010
0001
0100
0010
1000
0010
0100
0001
1000
0001
,
0100
0010
1000
0100
0010
0001
1000
0100
1000
0001
0100
0010
1000
0100
0010
0001
,
0100
0010
1000
0010
0100
0001
1000
0100
0010
0001
0100
0010
1000
0001
0010
0001
,
1000
0100
1000
0001
0100
0010
1000
0100
0010
0001
0100
0010
1000
0001
0100
0001
,
1000
0100
0010
0001
0100
0010
1000
0001
0100
0001
1000
0010
1000
0001
0100
0010
,
1000
0100
0010
0001
0100
0010
1000
0001
0010
0001
1000
0100
0010
0001
0100
0010
,
1000
0001
0010
0100
1000
0010
0100
0010
1000
0001
0100
0001
1000
0100
0010
0001
,
0100
0010
1000
0001
0100
0001
1000
0010
1000
0001
0100
0010
1000
0100
0010
0001
,
0100
0010
1000
0001
0010
0001
1000
0100
0010
0001
0100
0010
1000
0001
0010
0100
,
1000
0010
0100
0010
1000
0001
0100
0010
0100
0001
1000
0001
0100
0010
1000
0100
,
0010
0001
1000
0100
1000
0001
0100
0010
1000
0001
0010
0001
1000
0100
0010
0001
,
0100
0010
1000
0010
0100
0001
1000
0001
0100
0010
1000
0100
0010
0001
1000
0100
,
1000
0001
0100
0010
1000
0100
0010
0001
0100
0010
1000
0100
0010
0001
1000
0001
,
01M0
0000
M000
0000
00MM
0000
M000
000M
0M00
00M0
M000
0000
000M
0000
0M00
0000
,
M00M
0000
0000
0MM0
0000
0000
M00M
0000
0000
0MM0
0000
0000
M00M
0000
0000
0MM0
,
0000
M00M
0000
0000
0000
0000
0000
0000
,
0000
0000
0000
0000
,
0000
0000
0000
0000
,
0000
0000
0000
0000
,
0000
0000
0000
0000
,
0000
0000
0000
0000
;

//---------------dance-single - 16.75 (17-) (owenvia----------------
#NOTES:
     dance-single:
     16.75 (17-) (owenvia:
     Challenge:
     17:
     1.000,1.000,0.000,0.000,1.000,4289.000,0.000,0.000,353.000,0.000:
1000
0100
0010
0000
0001
0100
0010
0000
1000
0001
0100
0000
0010
1000
0001
0000
,
0100
0010
1000
0000
0001
0100
0010
0000
1000
0001
0100
0000
0010
1000
0001
0000
,
0100
0010
1000
0000
0001
0100
0010
0000
1000
0100
0010
0000
0001
0100
0010
0000
,
1000
0001
0100
0000
0010
1000
0001
0000
0010
0100
1000
0000
0001
0100
0010
0000
,
1000
0001
0100
0000
0010
1000
0100
0000
0010
0001
0100
0000
0010
1000
0001
0000
,
1000
0100
0010
0000
0001
0100
0010
0000
1000
0001
0100
0000
0010
1000
0001
0000
,
0100
0010
1000
0000
0001
0100
0010
0000
1000
0001
0100
0000
0010
1000
0001
0000
,
0100
0010
1000
0000
0001
0100
0010
0000
1000
0100
0010
0000
0001
0100
0010
0000
,
1000
0001
0100
0000
0010
1000
0001
0000
0010
0100
1000
0000
0001
0100
0010
0000
,
1000
0001
0100
0000
0010
1000
0100
0000
0010
0001
0100
0000
0010
1000
0001
0000
,
1000
0100
0010
0000
0001
0100
0010
0000
1000
0001
0100
0000
0010
1000
0001
0000
,
0100
0010
1000
0000
0001
0100
0010
0000
1000
0001
0100
0000
0010
1000
0001
0000
,
0100
0010
1000
0000
0001
0100
0010
0000
1000
0100
0010
0000
0001
0100
0010
0000
,
1000
0001
0100
0000
0010
1000
0001
0000
0010
0100
1000
0000
0001
0100
0010
0000
,
1000
0001
0100
0000
0010
1000
0100
0000
0010
0001
0100
0000
0010
1000
0001
0000
,
0100
0010
1000
0000
0001
0100
0010
0000
1000
0100
0010
0000
M001
0100
0010
0000
,
1000
0100
0010
0001
0100
0010
1000
0001
0100
0010
1000
0001
0010
0001
0100
0010
,
1000
0100
0010
0001
1000
0010
1000
0100
0010
0001
0100
0010
1000
0001
0100
0010
,
0100
0001
1000
0010
0100
0001
0100
0010
1000
0100
0010
0001
1000
0100
1000
0010
,
0100
0001
0100
0010
1000
0100
0010
0001
0100
0010
1000
0001
0010
0001
1000
0100
,
0010
0001
1000
0100
1000
0001
0100
0010
1000
0100
0010
0001
0100
0010
0100
0001
,
1000
0100
1000
0001
0100
0010
1000
0100
0010
0001
0100
0010
0100
0001
1000
0100
,
0010
0001
0100
0010
1000
0010
0100
0001
0010
0001
1000
0100
0010
0001
0100
0001
,
1000
0100
0010
0001
0100
0010
1000
0001
0010
0100
1000
0010
0100
0010
1000
0001
,
0100
0001
1000
0100
0010
0001
0100
0010
1000
0001
0010
0001
1000
0100
0010
0001
,
0100
0010
1000
0001
0010
0100
1000
0010
0100
0001
1000
0100
1000
0010
0100
0001
,
1000
0100
0010
0001
0100
0010
1000
0001
0100
0010
1000
0001
0100
0010
0100
0001
,
0010
0100
1000
0001
0100
0001
1000
0010
0100
0001
1000
0100
0010
0001
0100
0010
,
1000
0001
0100
0001
1000
0100
0010
0001
0100
0010
1000
0001
0100
0010
1000
0001
,
0010
0001
0100
0010
1000
0100
0010
0001
1000
0010
1000
0100
0010
0001
0100
0010
,
1000
0001
0100
0010
0100
0001
1000
0010
0100
0001
0100
0010
1000
0100
0010
0001
,
1000
0100
1000
0010
0100
0001
0100
0010
1000
0100
0010
0001
0100
0010
1000
0001
,
0M10
0001
1000
0100
0010
0001
1000
0100
1000
0001
0100
0010
1000
0100
0010
0001
,
0100
0010
0100
0001
1000
0100
1000
0001
0100
0010
1000
0100
0010
0001
0100
0010
,
0100
0001
1000
0100
0010
0001
0100
0010
1000
0010
0100
0001
0010
0001
1000
0100
,
0010
0001
0100
0001
1000
0100
0010
0001
0100
0010
1000
0001
0010
0100
1000
0010
,
0100
0010
1000
0001
0100
0001
1000
0100
0010
0001
0100
0010
1000
0001
0010
0001
,
1000
0100
0010
0001
0100
0010
1000
0001
0010
0100
1000
0010
0100
0001
1000
0100
,
1000
0010
0100
0001
1000
0100
0010
0001
0100
0010
1000
0001
0100
0010
1000
0001
,
0100
0010
0100
0001
0010
0100
1000
0001
0100
0001
1000
0010
0100
0001
1000
0100
,
0010
0001
0100
0010
1000
0001
0100
0001
1000
0100
0010
0001
0100
0010
1000
0001
,
0100
0010
1000
0001
0010
0001
0100
0010
1000
0100
0010
0001
1000
0010
1000
0100
,
0010
0001
0100
0010
1000
0001
0100
0010
0100
0001
1000
0010
0100
0001
0100
0010
,
1000
0100
0010
0001
1000
0100
1000
0010
0100
0001
0100
0010
1000
0100
0010
0001
,
0100
0010
1000
0001
0010
0001
1000
0100
0010
0001
1000
0100
1000
0001
0100
0010
,
1000
0100
0010
0001
0100
0010
0100
0001
1000
0100
1000
0001
0100
0010
1000
0100
,
0010
0001
0100
0010
0100
0001
1000
0100
0010
0001
0100
0010
1000
0010
0100
0001
,
0010
0001
1000
0100
0010
0001
0100
0001
1000
0100
0010
0001
0100
0010
1000
0001
,
0010
0100
1000
0010
0100
0010
1000
0001
0100
0001
1000
0100
0010
0001
0100
0010
,
1000
0001
0010
0001
1000
0100
0010
0001
0100
0010
1000
0001
0010
0100
1000
0010
,
0100
0001
1000
0100
1000
0010
0100
0001
1000
0100
0010
0001
0100
0010
1000
0001
,
0100
0010
1000
0001
0100
0010
0100
0001
0010
0100
1000
0001
0100
0001
1000
0010
,
0100
0001
1000
0100
0010
0001
0100
0010
1000
0001
0100
0001
1000
0100
0010
0001
,
0100
0010
1000
0001
0100
0010
1000
0001
0010
0001
0100
0010
1000
0100
0010
0001
,
1000
0010
1000
0100
0010
0001
0100
0010
1000
0001
0100
0010
0100
0001
1000
0010
,
0100
0001
0100
0010
1000
0100
0010
0001
1000
0100
1000
0010
0100
0001
0100
0010
,
1000
0100
0010
0001
0100
0010
1000
0001
0010
0001
1000
0100
0010
0001
1000
0100
,
1000
0001
0100
0010
1000
0100
0010
0001
0100
0010
0100
0001
1000
0100
1000
0001
,
0100
0010
1000
0100
0010
0001
0100
0010
0100
0001
1000
0100
0010
0001
0100
0010
,
1000
0010
0100
0001
0010
0001
1000
0100
0010
0001
0100
0001
1000
0100
0010
0001
,
0100
0010
1000
0001
0010
0100
1000
0010
0100
0010
1000
0001
0100
0001
1000
0100
,
0010
0001
0100
0010
1000
0001
0010
0001
1000
0100
0010
0001
0100
0010
1000
0001
,
0010
0100
1000
0010
0100
0001
1000
0100
1000
0010
0100
0001
1000
0100
0010
0001
,
0100
0010
1000
0001
0100
0010
1000
0001
0100
0010
0100
0001
0010
0100
1000
0001
,
01M0
0001
1000
0010
0100
0001
1000
0100
0010
0001
0100
0010
1000
0001
0100
0001
,
1000
0100
0010
0001
0100
0010
1000
0001
0100
0010
1000
0001
0010
0001
0100
0010
,
1000
0100
0010
0001
1000
0010
1000
0100
0010
0001
0100
0010
1000
0001
0100
0010
,
0100
0001
1000
0010
0100
0001
0100
0010
1000
0100
0010
0001
1000
0100
1000
0010
,
0100
0001
0100
0010
1000
0100
0010
0001
0100
0010
1000
0001
0010
0001
1000
0100
,
0010
0001
1000
0100
1000
0001
0100
0010
1000
0100
0010
0001
0100
0010
0100
0001
,
1000
0100
1000
0001
0100
0010
1000
0100
0010
0001
0100
0010
0100
0001
1000
0100
,
0010
0001
0100
0010
1000
0010
0100
0001
0010
0001
1000
0100
0010
0001
0100
0001
,
10M0
0100
0010
0001
0100
0010
1000
0001
0010
0100
1000
0010
0100
0010
1000
0001
,
0100
0001
1000
0100
0010
0001
0100
0010
1000
0001
0010
0001
1000
0100
0010
0001
,
0100
0010
1000
0001
0010
0100
1000
0010
0100
0001
1000
0100
1000
0010
0100
0001
,
1000
0100
0010
0001
0100
0010
1000
0001
0100
0010
1000
0001
0100
0010
0100
0001
,
0010
0100
1000
0001
0100
0001
1000
0010
0100
0001
1000
0100
0010
0001
0100
0010
,
1000
0001
0100
0001
1000
0001
0100
0010
1000
0001
0100
0001
1000
0100
0010
0001
,
0100
0010
1000
0001
0100
0001
1000
0010
1000
0001
0100
0010
1000
0100
0010
0001
,
0100
0010
1000
0001
0010
0001
1000
0100
0010
0001
0100
0010
1000
0001
0010
0100
,
1000
0010
0100
0010
1000
0001
0100
0001
1000
0100
0010
0001
0100
0010
1000
0001
,
0100
0001
1000
0010
1000
0001
0100
0010
1000
0100
0010
0001
0100
0010
1000
0001
,
0010
0001
1000
0100
0010
0001
0100
0010
1000
0001
0010
0100
1000
0010
0100
0010
,
1000
0001
0100
0010
0100
0001
1000
0001
0100
0010
1000
0100
0010
0001
1000
0100
,
1000
0001
0100
0010
1000
0001
0010
0001
1000
0100
0010
0001
0100
0010
1000
0010
,
0100
0001
1000
0001
0100
0010
1000
0100
0010
0001
1000
0100
1000
0001
0100
0010
,
1000
0100
0010
0001
0100
0010
1000
0010
0100
0001
1000
0100
0010
0001
0100
0010
,
1000
0001
0010
0001
1000
0100
1000
0001
0100
0001
0010
0100
1000
0010
0100
0010
,
1000
0001
0100
0010
0100
0001
1000
0001
0100
0010
1000
0100
0010
0001
1000
0100
,
1000
0001
0100
0010
1000
0001
0010
0001
1000
0100
0010
0001
0100
0010
1000
0010
,
0100
0001
1000
0001
0100
0010
1000
0100
0010
0001
1000
0100
1000
0001
0100
0010
,
1000
0100
0010
0001
0100
0010
1000
0010
0100
0001
1000
0100
0010
0001
0100
0010
,
1000
0001
0010
0001
1000
0100
1000
0001
0100
0010
1000
0100
0010
0001
0100
0010
,
1000
0001
0100
0001
1000
0100
0010
0001
0100
0010
1000
0001
0100
0001
1000
0010
,
1000
0001
0100
0010
1000
0100
0010
0001
0100
0010
1000
0001
0010
0001
1000
0100
,
0010
0001
0100
0010
1000
0001
0010
0100
1000
0010
0100
0010
1000
0001
0100
0001
,
1000
0100
0010
0001
0100
0010
1000
0001
0100
0001
1000
0010
1000
0001
0100
0010
,
1000
0100
0010
0001
0100
0010
1000
0001
0010
0001
1000
0100
0010
0001
0100
0010
,
1000
0001
0010
0100
1000
0010
0100
0010
1000
0001
0100
0010
0100
0001
1000
0001
,
0100
0010
1000
0100
0010
0001
1000
0100
1000
0001
0100
0010
1000
0001
0010
0001
,
1000
0100
0010
0001
0100
0010
1000
0010
0100
0001
1000
0001
0100
0010
1000
0100
,
0010
0001
1000
0100
1000
0001
0100
0010
1000
0100
0010
0001
0100
0010
1000
0010
,
0100
0001
1000
0100
0010
0001
0100
0010
1000
0001
0010
0001
1000
0100
1000
0001
,
0100
0010
0100
0001
1000
0001
0100
0010
1000
0100
0010
0001
0100
0010
1000
0001
,
0100
0010
1000
0001
0010
0001
0100
0010
1000
0100
0010
0001
1000
0010
1000
0100
,
0010
0001
0100
0010
1000
0001
0100
0010
0100
0001
1000
0010
0100
0001
0100
0010
,
1000
0100
0010
0001
1000
0100
1000
0010
0100
0001
0100
0010
1000
0100
0010
0001
,
0100
0010
1000
0001
0010
0001
1000
0100
0010
0001
1000
0100
1000
0001
0100
0010
,
1000
0100
0010
0001
0100
0010
0100
0001
1000
0100
1000
0001
0100
0010
1000
0100
,
0010
0001
0100
0010
0100
0001
1000
0100
0010
0001
0100
0010
1000
0010
0100
0001
,
0010
0001
1000
0100
0010
0001
0100
0001
1000
0100
0010
0001
0100
0010
1000
0001
,
0010
0100
1000
0010
0100
0010
1000
0001
0100
0001
1000
0100
0010
0001
0100
0010
,
1000
0001
0010
0001
1000
0100
0010
0001
0100
0010
1000
0001
0010
0100
1000
0010
,
0100
0001
1000
0100
1000
0010
0100
0001
1000
0100
0010
0001
0100
0010
1000
0001
,
0100
0010
1000
0001
0100
0010
0100
0001
0010
0100
1000
0001
0100
0001
1000
0010
,
0100
0001
1000
0100
0010
0001
0100
0010
1000
0001
0100
0001
1000
0100
0010
0001
,
0100
0010
1000
0001
0100
0010
1000
0001
0010
0001
0100
0010
1000
0100
0010
0001
,
1000
0010
1000
0100
0010
0001
0100
0010
1000
0001
0100
0010
0100
0001
1000
0010
,
0100
0001
0100
0010
1000
0100
0010
0001
1000
0100
1000
0010
0100
0001
0100
0010
,
1000
0100
0010
0001
0100
0010
1000
0001
0010
0001
1000
0100
0010
0001
1000
0100
,
1000
0001
0100
0010
1000
0100
0010
0001
0100
0010
0100
0001
1000
0100
1000
0001
,
0100
0010
1000
0100
0010
0001
0100
0010
0100
0001
1000
0100
0010
0001
0100
0010
,
1000
0010
0100
0001
0010
0001
1000
0100
0010
0001
0100
0001
1000
0100
0010
0001
,
0100
0010
1000
0001
0010
0100
1000
0010
0100
0010
1000
0001
0100
0001
1000
0100
,
0010
0001
0100
0010
1000
0001
0010
0001
1000
0100
0010
0001
0100
0010
1000
0001
,
0010
0100
1000
0010
0100
0001
1000
0100
1000
0010
0100
0001
1000
0100
0010
0001
,
0100
0010
1000
0001
0100
0010
1000
0001
0100
0010
0100
0001
0010
0100
1000
0001
,
0100
0001
1000
0010
0100
0001
1000
0100
0010
0001
0100
0010
1000
0001
0100
0001
,
1000
0100
0010
0001
0100
0010
1000
0001
0100
0010
1000
0001
0010
0001
0100
0010
,
1000
0100
0010
0001
1000
0010
1000
0100
0010
0001
0100
0010
1000
0001
0100
0010
,
0100
0001
1000
0010
0100
0001
0100
0010
1000
0100
0010
0001
1000
0100
1000
0010
,
0100
0001
0100
0010
1000
0100
0010
0001
0100
0010
1000
0001
0010
0001
1000
0100
,
0010
0001
1000
0100
1000
0001
0100
0010
1000
0100
0010
0001
0100
0010
0100
0001
,
1000
0100
1000
0001
0100
0010
1000
0100
0010
0001
0100
0010
0100
0001
1000
0100
,
0010
0001
0100
0010
1000
0010
0100
0001
0010
0001
1000
0100
0010
0001
0100
0001
,
1000
0100
0010
0001
0100
0010
1000
0001
0010
0100
1000
0010
0100
0010
1000
0001
,
0100
0001
1000
0100
0010
0001
0100
0010
1000
0001
0010
0001
1000
0100
0010
0001
,
0100
0010
1000
0001
0010
0100
1000
0010
0100
0001
1000
0100
1000
0010
0100
0001
,
1000
0100
0010
0001
0100
0010
1000
0001
0100
0010
1000
0001
0100
0010
0100
0001
,
0010
0100
1000
0001
0100
0001
1000
0010
0100
0001
1000
0100
0010
0001
0100
0010
,
1000
0001
0100
0001
1000
0100
1000
0001
0100
0010
1000
0100
0010
0001
0100
0010
,
1000
0001
0100
0001
1000
0100
0010
0001
0100
0010
1000
0001
0100
0001
1000
0010
,
1000
0001
0100
0010
1000
0100
0010
0001
0100
0010
1000
0001
0010
0001
1000
0100
,
0010
0001
0100
0010
1000
0001
0010
0100
1000
0010
0100
0010
1000
0001
0100
0010
,
0100
0001
1000
0001
0100
0010
1000
0100
0010
0001
1000
0100
1000
0001
0100
0010
,
1000
0001
0010
0001
1000
0100
0010
0001
0100
0010
1000
0010
0100
0001
10M0
0001
,
M100
0010
1000
0100
0010
0001
1000
0100
1000
0001
0100
0010
1000
0100
0010
0001
,
0100
0010
1000
0010
0100
0001
1000
0100
0010
0001
0100
0010
1000
0001
0010
0001
,
10M0
0100
1000
0001
0100
0010
1000
0100
0010
0001
0100
0010
1000
0001
0100
0001
,
1000
0100
0010
0001
0100
0010
1000
0001
0100
0001
1000
0010
1000
0001
M100
0010
,
100M
0100
0010
0001
0100
0010
1000
0001
0010
0001
1000
0100
0010
0001
0100
0010
,
1000
0001
0100
0010
0100
0001
1000
0010
1000
0001
0010
0100
1000
0010
0100
0010
,
1M00
0001
0100
0010
0100
0001
1000
0001
0100
0010
1000
0100
0010
0001
1000
0100
,
1000
0001
0100
0010
1000
0001
0010
0001
1000
0100
0010
0001
0100
0010
100M
0010
,
M100
0001
1000
0001
0100
0010
1000
0100
0010
0001
1000
0100
1000
0001
0100
0010
,
1000
0100
0010
0001
0100
0010
1000
0010
0100
0001
1000
0100
0010
0001
M100
0010
,
100M
0100
0010
0001
0100
0010
1000
0001
0100
0010
1000
0001
0010
0001
0100
0010
,
1000
0100
0010
0001
1000
0010
1000
0100
0010
0001
0100
0010
1000
0001
0100
0010
,
0100
0001
1000
0010
0100
0001
0100
0010
1000
0100
0010
0001
1000
0100
1000
0010
,
0100
0001
0100
0010
1000
0100
0010
0001
0100
0010
1000
0001
0100
0010
0100
0001
,
1000
0010
1000
0001
0100
0001
1000
0100
1000
0001
0010
0001
0100
0010
0100
0001
,
0010
0001
0100
0010
0100
0001
0010
0001
1000
0100
1000
0010
0100
0010
1000
0100
,
1000
0010
0100
0010
1000
0100
1000
0001
0100
0001
1000
0010
1000
0001
0010
0001
,
0100
0010
0100
0001
0010
0001
1000
0010
1000
0001
0010
0001
1000
0100
1000
0010
,
0100
0010
1000
0100
1000
0010
0100
0010
1000
0100
1000
0001
0010
0001
0100
0010
,
0100
0001
0010
0001
0100
0010
0100
0001
0010
0001
1000
0100
1000
0010
0100
0010
,
1000
0100
1000
0001
0100
0001
1000
0100
1000
0001
0010
0001
0100
0010
0100
0001
,
0010
0001
0100
0010
0100
0001
0010
0001
1000
0010
1000
0001
M100
0010
1000
0001
,
0100
0001
1000
0100
1000
0001
0010
0001
0100
0010
0100
0001
0010
0001
0100
0010
,
0100
0001
0010
0001
1000
0100
1000
0010
0100
0010
1000
0100
1000
0010
0100
0010
,
1000
0100
1000
0001
0100
0001
1000
0010
1000
0001
0010
0001
0100
0010
0100
0001
,
0010
0001
1000
0010
1000
0001
0010
0001
1000
0100
1000
0010
0100
0010
1000
0100
,
1000
0010
0100
0010
1000
0100
1000
0001
0010
0001
0100
0010
0100
0001
0010
0001
,
0100
0010
0100
0001
0010
0001
1000
0100
1000
0010
0100
0010
1000
0100
1000
0001
,
0100
0001
1000
0100
1000
0001
0010
0001
0100
0010
0100
0001
0010
0001
0100
0010
,
0100
0001
0010
0001
1000
0010
1000
0001
0100
0001
1000
0100
10M0
0001
0010
0001
,
1000
0100
0010
0001
0100
0010
1000
0001
0100
0010
1000
0001
0100
0010
0100
0001
,
0010
0100
1000
0001
0100
0001
1000
0010
0100
0001
1000
0100
0010
0001
0100
0010
,
1000
0001
0100
0001
1000
0001
0100
0010
1000
0001
0100
0001
1000
0100
0010
0001
,
0100
0010
1000
0001
0100
0001
1000
0010
1000
0001
0100
0010
1000
0100
0010
0001
,
0100
0010
1000
0001
0010
0001
1000
0100
0010
0001
0100
0010
1000
0001
0010
0100
,
1000
0010
0100
0010
1000
0001
0100
0001
1000
0100
0010
0001
0100
0010
1000
0001
,
0100
0001
1000
0010
1000
0001
0100
0010
1000
0100
0010
0001
0100
0010
1000
0001
,
0010
0001
1000
0100
0010
0001
0100
0010
1M00
0001
0010
0100
1000
0001
0100
0010
,
100M
000M
010M
0000
M010
M000
M001
M000
M100
0000
0010
0000
1000
0000
0001
0000
M010
0000
010M
000M
10MM
000M
010M
0000
M010
0000
0001
0000
1000
0000
0100
0000
,
10M0
00M0
00M1
0000
M100
0000
001M
0000
1M00
0000
0001
0000
0010
0000
0001
0000
10M0
0000
010M
0000
M010
M000
M001
M000
M100
0000
0010
0000
1000
0000
0010
0000
,
M100
0000
00M1
00M0
1MM0
00M0
00M1
0000
M100
0000
0010
0000
1000
0000
0100
0000
M010
0000
0M01
0000
10M0
00M0
01MM
00M0
10M0
0000
0001
0000
0100
0000
0010
0000
,
100M
000M
010M
0000
M010
M000
M001
M000
M100
0000
0010
0000
1000
0000
0010
0000
M100
0000
00M1
00M0
10M0
0000
010M
0000
M010
0000
0001
0000
0100
0000
0010
0000
,
1M00
0M00
0M01
0M00
MM10
0M00
0M01
0000
10M0
0000
0100
0000
1000
0000
0001
0000
M1M0
M000
M001
M000
M010
0000
010M
000M
100M
0000
0010
0000
0100
0000
0010
0000
,
1M00
0000
00M1
0000
M100
M000
M01M
M000
M100
0000
0001
0000
1000
0000
0001
0000
M100
0000
001M
000M
100M
000M
010M
0000
M010
0000
0001
0000
1000
0000
0100
0000
,
10M0
00M0
00M1
0000
M100
0000
001M
0000
1M00
0000
0001
0000
0010
0000
0001
0000
10M0
0000
010M
0000
M010
M000
M001
M000
M100
0000
0010
0000
1000
0000
0010
0000
,
M100
0000
00M1
00M0
1MM0
00M0
00M1
0000
M100
0000
0010
0000
1000
0000
0100
0000
M010
0000
0M01
0000
10M0
00M0
01MM
00M0
10M0
0000
0001
0000
0100
0000
0010
0000
,
100M
000M
010M
0000
M010
M000
M001
M000
M100
0000
0010
0000
1000
0000
0010
0000
M100
0000
00M1
00M0
10M0
0000
010M
0000
M010
0000
0001
0000
0100
0000
0010
0000
,
1M00
0M00
0M01
0M00
MM10
0M00
0M01
0000
10M0
0000
0100
0000
1000
0000
0001
0000
M100
0000
001M
000M
100M
000M
010M
0000
M010
0000
0001
0000
0100
0000
0010
0000
,
1M00
0000
00M1
00M0
M1M0
00M0
00M1
00M0
10M0
0000
0100
0000
0010
0000
0001
0000
M100
0000
001M
0000
1M00
0000
00M1
00M0
M1M0
0000
0001
0000
1000
0000
0010
0000
,
1M00
0000
00M1
0000
M100
0000
001M
000M
100M
0000
0100
0000
0010
0000
0001
0000
M100
0000
001M
0000
1M00
0M00
0M01
0M00
MM10
0000
0001
0000
1000
0000
0100
0000
,
M010
M000
M001
M000
M100
0000
001M
0000
1M00
0000
0001
0000
0010
0000
0100
0000
100M
000M
001M
000M
M10M
000M
001M
0000
1M00
0000
0001
0000
0100
0000
0001
0000
,
10M0
0000
010M
0000
M010
M000
M001
M000
M100
0000
0010
0000
1000
0000
0001
0000
M1M0
00M0
00M1
0000
1M00
0M00
0M1M
0M00
1000
0000
0001
0000
0100
0000
0010
0000
,
100M
000M
010M
0000
M010
M000
M001
0000
M100
0000
0010
0000
1000
0000
0001
0000
MM10
0M00
0M01
0000
10M0
0000
010M
0000
M010
0000
0001
0000
0100
0000
0010
0000
,
1M00
0M00
0M01
0000
M010
0000
010M
000M
100M
0000
0010
0000
0100
0000
0010
0000
1M00
0000
00M1
0000
M100
M000
M01M
M000
M100
0000
0001
0000
1000
0000
0001
0000
,
M100
0000
001M
000M
100M
000M
010M
0000
M010
0000
0001
0000
1000
0000
0100
0000
10M0
00M0
00M1
0000
M100
0000
001M
0000
1M00
0000
0001
0000
0010
0000
0001
0000
,
10M0
0000
010M
0000
M010
M000
M001
M000
M100
0000
0010
0000
1000
0000
0010
0000
M100
0000
00M1
00M0
1MM0
00M0
00M1
0000
M100
0000
0010
0000
1000
0000
0100
0000
,
M010
0000
0M01
0000
10M0
00M0
01MM
00M0
10M0
0000
0001
0000
0100
0000
0010
0000
100M
000M
010M
0000
M010
M000
M001
M000
M100
0000
0010
0000
1000
0000
0010
0000
,
M100
0000
00M1
00M0
10M0
0000
010M
0000
M010
0000
0001
0000
0100
0000
0010
0000
1M00
0M00
0M01
0M00
MM10
0M00
0M01
0000
10M0
0000
0100
0000
1000
0000
0001
0000
,
M100
M000
M01M
M000
M100
0000
00M1
00M0
1MM0
0000
0001
0000
0100
0000
0010
0000
1000
0000
0100
0000
0010
0000
0001
0000
0100
0000
0010
0000
1000
0000
0001
0000
,
0100
0010
1000
0001
0010
0001
0100
0010
1000
0100
0010
0001
1000
0010
1000
0100
,
0010
0001
0100
0010
1000
0001
0100
0010
0100
0001
1000
0010
0100
0001
0100
0010
,
1000
0100
0010
0001
1000
0100
1000
0010
0100
0001
0100
0010
1000
0100
0010
0001
,
0100
0010
1000
0001
0010
0001
1000
0100
0010
0001
1000
0100
1000
0001
0100
0010
,
1000
0100
0010
0001
0100
0010
0100
0001
1000
0100
1000
0001
0100
0010
1000
0100
,
0010
0001
0100
0010
0100
0001
1000
0100
0010
0001
0100
0010
1000
0010
0100
0001
,
0010
0001
1000
0100
0010
0001
0100
0001
1000
0100
0010
0001
0100
0010
1000
0001
,
0010
0100
1000
0010
0100
0010
1000
0001
0100
0001
1000
0100
0010
0001
0100
0010
,
1000
0001
0010
0001
1000
0100
0010
0001
0100
0010
1000
0001
0010
0100
1000
0010
,
0100
0001
1000
0100
1000
0010
0100
0001
1000
0100
0010
0001
0100
0010
1000
0001
,
0100
0010
1000
0001
0100
0010
0100
0001
0010
0100
1000
0001
0100
0001
1000
0010
,
0100
0001
1000
0100
0010
0001
0100
0010
1000
0001
0100
0001
1000
0100
0010
0001
,
0100
0010
1000
0001
0100
0010
1000
0001
0010
0001
0100
0010
1000
0100
0010
0001
,
1000
0010
1000
0100
0010
0001
0100
0010
1000
0001
0100
0010
0100
0001
1000
0010
,
0100
0001
0100
0010
1000
0100
0010
0001
1000
0100
1000
0010
0100
0001
0100
0010
,
1000
0100
0010
0001
0100
0010
1000
0001
0010
0001
1000
0100
0010
0001
1000
0100
,
1000
0001
0100
0010
1000
0100
0010
0001
0100
0010
0100
0001
1000
0100
1000
0001
,
0100
0010
1000
0100
0010
0001
0100
0010
0100
0001
1000
0100
0010
0001
0100
0010
,
1000
0010
0100
0001
0010
0001
1000
0100
0010
0001
0100
0001
1000
0100
0010
0001
,
0100
0010
1000
0001
0010
0100
1000
0010
0100
0010
1000
0001
0100
0001
1000
0100
,
0010
0001
0100
0010
1000
0001
0010
0001
1000
0100
0010
0001
0100
0010
1000
0001
,
0010
0100
1000
0010
0100
0001
1000
0100
1000
0010
0100
0001
1000
0100
0010
0001
,
0100
0010
1000
0001
0100
0010
1000
0001
0100
0010
0100
0001
0010
0100
1000
0001
,
0100
0001
1000
0010
0100
0001
1000
0100
0010
0001
0100
0010
1000
0001
0100
0001
,
1000
0100
0010
0001
0100
0010
1000
0001
0100
0010
1000
0001
0010
0001
0100
0010
,
1000
0100
0010
0001
1000
0010
1000
0100
0010
0001
0100
0010
1000
0001
0100
0010
,
0100
0001
1000
0010
0100
0001
0100
0010
1000
0100
0010
0001
1000
0100
1000
0010
,
0100
0001
0100
0010
1000
0100
0010
0001
0100
0010
1000
0001
0010
0001
1000
0100
,
0010
0001
1000
0100
1000
0001
0100
0010
1000
0100
0010
0001
0100
0010
0100
0001
,
1000
0100
1000
0001
0100
0010
1000
0100
0010
0001
0100
0010
0100
0001
1000
0100
,
0010
0001
0100
0010
1000
0010
0100
0001
0010
0001
1000
0100
0010
0001
0100
0001
,
1000
0100
0010
0001
0100
0010
1000
0001
0010
0100
1000
0010
0100
0010
1000
0001
,
0100
0001
1000
0100
0010
0001
0100
0010
1000
0001
0010
0001
1000
0100
0010
0001
,
0100
0010
1000
0001
0010
0100
1000
0010
0100
0001
1000
0100
1000
0010
0100
0001
,
1000
0100
0010
0001
0100
0010
1000
0001
0100
0010
1000
0001
0100
0010
0100
0001
,
0010
0100
1000
0001
0100
0001
1000
0010
0100
0001
1000
0100
0010
0001
0100
0010
,
1000
0001
0100
0001
1000
0100
1000
0001
0100
0010
1000
0100
0010
0001
0100
0010
,
1000
0001
0100
0001
1000
0100
0010
0001
0100
0010
1000
0001
0100
0001
1000
0010
,
1000
0001
0100
0010
1000
0100
0010
0001
0100
0010
1000
0001
0010
0001
1000
0100
,
0010
0001
0100
0010
1000
0001
0010
0100
1000
0010
0100
0010
1000
0100
0010
0001
,
0100
0010
1000
0001
0100
0010
1000
0001
0100
0010
0100
0001
0010
0100
1000
0001
,
0100
0001
1000
0010
0100
0001
1000
0100
0010
0001
0100
0010
1000
0001
0100
0001
,
1000
0001
0100
0010
1000
0001
0100
0001
1000
0100
0010
0001
0100
0010
1000
0001
,
0100
0001
1000
0010
1000
0001
0100
0010
1000
0100
0010
0001
0100
0010
1000
0001
,
0010
0001
1000
0100
0010
0001
0100
0010
1000
0001
0010
0100
1000
0010
0100
0010
,
1000
0001
0100
0001
1000
0100
0010
0001
0100
0010
1000
0001
0100
0001
1000
0010
,
1000
0001
0100
0010
1000
0100
0010
0001
0100
0010
1000
0001
0010
0001
1000
0100
,
0010
0001
0100
0010
1000
0001
0010
0100
1000
0010
0100
0010
1000
0001
0100
0010
,
0100
0001
1000
0001
0100
0010
1000
0100
0010
0001
1000
0100
1000
0001
0100
0010
,
1000
0001
0010
0001
1000
0100
0010
0001
0100
0010
1000
0010
0100
0001
1000
0001
,
0100
0010
1000
0100
0010
0001
1000
0100
1000
0001
0100
0010
1000
0100
0010
0001
,
0100
0010
1000
0010
0100
0001
1000
0100
0010
0001
0100
0010
1000
0001
0010
0001
,
1000
0100
1000
0001
0100
0001
0010
0100
1000
0010
0100
0010
1000
0001
0100
0010
,
0100
0001
1000
0001
0100
0010
1000
0100
0010
0001
1000
0100
1000
0001
0100
0010
,
1000
0001
0010
0001
1000
0100
0010
0001
0100
0010
1000
0010
0100
0001
1000
0001
,
0100
0010
1000
0100
0010
0001
1000
0100
1000
0001
0100
0010
1000
0100
0010
0001
,
0100
0010
1000
0010
0100
0001
1000
0100
0010
0001
0100
0010
1000
0001
0010
0001
,
1000
0100
1000
0001
0100
0010
1000
0100
0010
0001
0100
0010
1000
0001
0100
0001
,
1000
0100
0010
0001
0100
0010
1000
0001
0100
0001
1000
0010
1000
0001
0100
0010
,
1000
0100
0010
0001
0100
0010
1000
0001
0010
0001
1000
0100
0010
0001
0100
0010
,
1000
0001
0010
0100
1000
0010
0100
0010
1000
0001
0100
0001
1000
0100
0010
0001
,
0100
0010
1000
0001
0100
0001
1000
0010
1000
0001
0100
0010
1000
0100
0010
0001
,
0100
0010
1000
0001
0010
0001
1000
0100
0010
0001
0100
0010
1000
0001
0010
0100
,
1000
0010
0100
0010
1000
0001
0100
0010
0100
0001
1000
0001
0100
0010
1000
0100
,
0010
0001
1000
0100
1000
0001
0100
0010
1000
0001
0010
0001
1000
0100
0010
0001
,
0100
0010
1000
0010
0100
0001
1000
0001
0100
0010
1000
0100
0010
0001
1000
0100
,
1000
0001
0100
0010
1000
0100
0010
0001
0100
0010
1000
0100
0010
0001
1000
0001
,
01M0
0000
M000
0000
00MM
0000
M000
000M
0M00
00M0
M000
0000
000M
0000
0M00
0000
,
M00M
0000
0000
0MM0
0000
0000
M00M
0000
0000
0MM0
0000
0000
M00M
0000
0000
0MM0
,
0000
M00M
0000
0000
0000
0000
0000
0000
,
0000
0000
0000
0000
,
0000
0000
0000
0000
,
0000
0000
0000
0000
,
0000
0000
0000
0000
,
0000
0000
0000
0000
;
