#TITLE:Disconnected;
#SUBTITLE:;
#ARTIST:Sanxion7;
#TITLETRANSLIT:;
#SUBTITLETRANSLIT:;
#ARTISTTRANSLIT:;
#CREDIT:;
#BANNER:Disconnected-bn.png;
#BACKGROUND:Disconnected-bg.png;
#LYRICSPATH:;
#CDTITLE:ddrace.png;
#MUSIC:Disconnected -Sanxion7-.mp3;
#OFFSET:1.870;
#SAMPLESTART:47.988;
#SAMPLELENGTH:12.000;
#SELECTABLE:YES;
#DISPLAYBPM:125.000;
#BPMS:0.000=125.030,128.000=62.515,144.000=125.030;
#STOPS:;
#BGCHANGES:;
// cache tags:
#FIRSTBEAT:16.000;
#LASTBEAT:216.000;
#SONGFILENAME:Songs/toune 3/Disconnected (Sanxion7 remix)/Disconnected.sm;
#HASMUSIC:1;
#HASBANNER:1;
#MUSICLENGTH:111.653;
// end cache tags

//---------------dance-single - Copied from----------------
#NOTES:
     dance-single:
     Copied from:
     Edit:
     11:
     0.933,1.000,0.725,0.179,1.000,628.000,81.000,20.000,0.000,0.000:
0000
0000
0000
0000
,
0000
0000
0000
0000
,
0000
0000
0000
0000
,
0000
0000
0000
0000
,
0000
0000
0000
0000
,
0000
0000
1000
0000
0000
0001
1000
0001
1000
0000
0000
0000
0001
0000
0000
0000
,
0101
0000
0010
0000
1000
0000
0001
0100
0000
1000
0100
0001
0000
0001
0010
0100
,
0000
0000
0100
1000
0000
0100
0001
0000
0000
0001
0100
1000
0000
1000
0001
0010
,
0000
0100
0011
0000
0000
0001
0100
0000
0000
0100
0001
0010
0000
0010
0001
1000
,
0000
0000
1000
0000
0000
0001
0100
0001
0100
0000
0101
0000
0210
0000
1000
0300
,
1001
0000
0001
0010
1000
0100
0001
1000
0010
0001
1000
0010
0100
0001
0010
0100
,
1000
0000
0100
0000
0010
0001
0010
0001
0010
0000
0100
0000
1000
0000
0001
0000
0010
0000
0001
0000
0100
0000
0010
0000
1000
0000
0100
0000
0010
0000
0001
0000
,
1000
0010
1010
0100
0001
0100
0010
0001
0010
1000
0100
0001
0100
1000
0010
0100
,
1001
0000
0001
0000
0000
1000
0100
1000
0100
0000
0110
0000
2002
0000
3003
0000
,
0201
0000
0000
0000
0001
0000
0000
0000
0000
0000
1000
0000
0000
0000
0000
0000
0310
0000
0000
0000
0202
0000
0000
0000
0303
0000
0000
0000
0001
0010
0100
1000
,
0010
0100
0001
1000
0100
0010
0001
0010
0100
1000
0001
0100
0010
1000
0010
0100
,
0001
0000
0010
0000
0100
1000
0100
1000
0100
0000
0010
0000
0001
0000
0010
0000
1000
0000
0010
0000
0001
0000
0100
0000
0010
0000
1000
0000
1010
0000
0100
0000
,
0101
0000
0011
0010
1000
0010
0001
1000
0010
0100
0001
0100
1000
0100
0001
1000
,
0110
0000
0100
0000
0000
0010
0100
0010
0100
0000
0000
0000
1020
0000
0031
0000
,
0100
0010
1000
0001
0010
0100
1000
0100
0010
0001
1000
0010
0100
0001
0100
0010
,
1000
0000
0100
0000
0010
0001
0010
0001
0010
0000
0100
0000
1000
0000
0100
0000
0001
0000
0100
0000
1000
0000
0010
0000
0100
0000
0001
0000
0101
0000
0010
0000
,
1010
0000
1100
0100
0001
0100
1000
0001
0100
0010
1000
0010
0001
0010
1000
0001
,
0110
0000
0010
0000
0000
1000
0001
1000
0001
0000
0000
0000
1002
0000
0013
0000
,
0120
0000
1000
0000
0000
0100
0000
0000
0031
0000
0000
0000
0000
0000
0000
0000
,
0011
0000
0100
0000
1000
0010
0100
0001
0010
0000
0110
0000
0012
0000
0003
0000
,
1001
0000
0000
1001
0000
0000
1001
0000
0000
0000
0000
0000
0000
0000
0000
0000
,
1010
0000
0000
0000
0100
0001
0100
0001
0100
0000
0010
0000
1000
0000
0100
0000
0010
0000
0000
0000
0000
0000
0000
0000
0120
0000
0000
0000
0030
0000
0000
0000
,
2002
3000
0000
0000
0000
0000
2000
3000
0000
0000
0000
0000
2000
3000
0003
0000
0100
0000
0010
0000
0001
0000
0010
0000
0100
0000
1000
0000
0010
0000
0100
0000
,
0001
0000
0101
0000
0001
1000
0010
0100
0001
0000
0000
0000
2020
0000
3030
0000
,
1001
0000
0000
1001
0000
0000
1001
0000
0010
0100
1000
0100
0010
0001
0100
0010
,
1000
0001
1000
0001
1000
0001
1000
0001
1000
0001
1000
0001
1000
0001
1000
0001
,
1200
0000
0001
0000
0000
1000
0000
0000
0310
0000
0000
0000
0000
0000
0000
0000
,
1001
0000
0000
0000
1000
0000
0000
0001
0100
0001
0100
0000
0000
0000
0100
0000
0010
0000
0000
0000
1000
0000
0000
0100
0000
0010
0001
0000
0000
0000
1000
0000
,
0010
0000
0000
0000
0100
0000
0000
0100
0000
0001
1000
0000
0000
0000
0100
0000
0010
0000
0000
0000
0001
0000
0000
0001
0000
0001
0100
0000
0010
0000
1000
0000
,
1001
0000
0000
0000
1001
0000
0000
0100
0000
0001
1000
0000
0000
0000
0010
0000
0010
0000
0000
0000
0100
0000
0000
0100
0000
0010
0100
0000
0000
0000
0001
0000
,
1000
0000
0000
0000
1000
0000
0000
1000
0000
1000
0100
0000
0000
0000
0010
0000
0001
0000
0000
0000
0001
0000
0000
0001
0000
0100
0010
0000
0001
0010
1000
0100
,
0001
0100
0010
0001
0100
0010
1000
0100
0010
0001
0010
0100
1000
0010
0001
0010
,
1000
0000
0100
0000
0010
0001
0010
0001
0010
0000
0100
0000
1000
0000
0001
0000
0100
0000
1000
0000
0100
0000
0001
0000
0010
0000
0100
0000
1000
0000
0100
0000
,
0010
0001
1001
1000
0010
0100
0001
0010
0100
1000
0001
0100
0010
1000
0010
0100
,
0001
0100
1000
0100
0001
0010
1000
0010
0001
1000
0010
0100
0001
0010
0100
1000
,
0101
0000
1000
0001
0100
0010
1000
0100
0010
0001
1000
0010
0100
0001
1000
0100
,
0001
0000
0100
0000
1000
0001
1000
0001
1000
0000
0010
0000
0100
0000
0001
0000
1000
0000
0001
0000
0010
0000
0100
0000
1000
0000
0100
0000
0001
0000
0100
0000
,
1001
0100
0010
1000
0010
1000
0001
0100
0010
1000
0100
1000
0100
0010
0001
0010
,
0001
0100
0001
0010
0100
1000
0010
0100
0001
0100
0010
1000
0001
0010
1000
0100
,
2002
3003
0001
0010
0110
1000
0010
0001
0010
1000
0100
0001
1100
1000
0010
0100
,
0001
0000
0010
0000
0100
1000
0010
0100
1001
0000
0010
0000
0100
0000
1000
0000
0010
0000
0001
0000
0010
0000
1000
0000
1100
0000
0010
0000
0001
0000
0100
0000
,
1001
0010
1100
0010
0110
0100
1000
0001
0100
0010
1000
0100
1001
0001
0010
1000
,
0010
0001
0101
1000
0001
1010
1010
1010
1010
0001
1000
0010
0101
1000
0001
1000
,
1001
0100
0010
1000
0100
0010
0001
0010
1000
0010
0001
0100
1000
0100
0001
1000
,
0010
0000
0100
0000
0001
1000
0100
0010
1001
0000
0100
0000
0010
0000
1000
0000
0100
0000
0001
0000
0100
0000
1000
0000
0010
0000
0001
0000
0010
0000
1000
0000
,
1100
0010
0101
1000
0110
0100
0001
0010
1000
0010
0001
0010
1001
0100
0010
1000
,
0101
1010
1100
0011
1001
0110
1010
1100
0101
0011
0110
1100
1001
1010
0101
0110
,
1001
0000
0100
0001
0010
1000
0100
0010
0000
0000
0000
0000
0000
0000
0010
0000
,
0000
0000
0010
0000
0000
0010
0000
0000
,
0010
0000
0000
0000
;

//---------------dance-single - Copied from Copied f----------------
#NOTES:
     dance-single:
     Copied from Copied f:
     Challenge:
     11:
     0.967,1.000,0.743,0.179,1.000,653.000,83.000,20.000,0.000,0.000:
0000
0000
0000
0000
,
0000
0000
0000
0000
,
0000
0000
0000
0000
,
0000
0000
0000
0000
,
1000
0100
0011
0000
0001
0100
0010
0000
1000
0010
0100
0000
0001
0010
0100
0000
,
0010
0100
1000
0000
0000
0001
1000
0001
1000
0000
0000
0000
0001
0000
0000
0000
,
0101
0000
0010
0000
1000
0000
0001
0100
0000
1000
0100
0001
0000
0001
0010
0100
,
0000
0000
0100
1000
0000
0100
0001
0000
0000
0001
0100
1000
0000
1000
0001
0010
,
0000
0100
0011
0000
0000
0001
0100
0000
0000
0100
0001
0010
0000
0010
0001
1000
,
0000
0000
1000
0000
0000
0001
0100
0001
0100
0000
0101
0000
0210
0000
1000
0300
,
1001
0000
0001
0010
1000
0100
0001
1000
0010
0001
1000
0010
0100
0001
0010
0100
,
1000
0000
0100
0000
0010
0001
0010
0001
0010
0000
0100
0000
1000
0000
0001
0000
0010
0000
0001
0000
0100
0000
0010
0000
1000
0000
0100
0000
0010
0000
0001
0000
,
1000
0010
1010
0100
0001
0100
0010
0001
0010
1000
0100
0001
0100
1000
0010
0100
,
1001
0000
0001
0000
0000
1000
0100
1000
0100
0000
0110
0000
2002
0000
3003
0000
,
0201
0000
0000
0000
0001
0000
0000
0000
0000
0000
1000
0000
0000
0000
0000
0000
0310
0000
0000
0000
0202
0000
0000
0000
0303
0000
0000
0000
0001
0010
0100
1000
,
0010
0100
0001
1000
0100
0010
0001
0010
0100
1000
0001
0100
0010
1000
0010
0100
,
0001
0000
0010
0000
0100
1000
0100
1000
0100
0000
0010
0000
0001
0000
0010
0000
1000
0000
0010
0000
0001
0000
0100
0000
0010
0000
1000
0000
1010
0000
0100
0000
,
0101
0000
0011
0010
1000
0010
0001
1000
0010
0100
0001
0100
1000
0100
0001
1000
,
0110
0000
0100
0000
0000
0010
0100
0010
0100
0000
0000
0000
1020
0000
0031
0000
,
0100
0010
1000
0001
0010
0100
1000
0100
0010
0001
1000
0010
0100
0001
0100
0010
,
1000
0000
0100
0000
0010
0001
0010
0001
0010
0000
0100
0000
1000
0000
0100
0000
0001
0000
0100
0000
1000
0000
0010
0000
0100
0000
0001
0000
0101
0000
0010
0000
,
1010
0000
1100
0100
0001
0100
1000
0001
0100
0010
1000
0010
0001
0010
1000
0001
,
0110
0000
0010
0000
0000
1000
0001
1000
0001
0000
0000
0000
1002
0000
0013
0000
,
0120
0000
1000
0000
0000
0100
0000
0000
0031
0000
0000
0000
0000
0000
0000
0000
,
0011
0000
0100
0000
1000
0010
0100
0001
0010
0000
0110
0000
0012
0000
0003
0000
,
1001
0000
0000
1001
0000
0000
1001
0000
0000
0000
0000
0000
0000
0000
0000
0000
,
1010
0000
0000
0000
0100
0001
0100
0001
0100
0000
0010
0000
1000
0000
0100
0000
0010
0000
0000
0000
0000
0000
0000
0000
0120
0000
0000
0000
0030
0000
0000
0000
,
2002
3000
0000
0000
0000
0000
2000
3000
0000
0000
0000
0000
2000
3000
0003
0000
0100
0000
0010
0000
0001
0000
0010
0000
0100
0000
1000
0000
0010
0000
0100
0000
,
0001
0000
0101
0000
0001
1000
0010
0100
0001
0000
0000
0000
2020
0000
3030
0000
,
1001
0000
0000
1001
0000
0000
1001
0000
0010
0100
1000
0100
0010
0001
0100
0010
,
1000
0000
0000
0001
0000
0000
1000
0000
0000
0001
0000
0000
1000
0000
0000
0001
0000
0000
1000
0000
0000
0001
0000
0000
1000
0000
0000
0001
0000
0000
1000
0000
0000
0001
0000
0000
1000
0000
0001
0000
1000
0000
0001
0000
1000
0000
0001
0000
,
1200
0000
0001
0000
0000
1000
0000
0000
0310
0000
0000
0000
0000
0000
0000
0000
,
1001
0000
0000
0000
1000
0000
0000
0001
0100
0001
0100
0000
0000
0000
0100
0000
0010
0000
0000
0000
1000
0000
0000
0100
0000
0010
0001
0000
0000
0000
1000
0000
,
0010
0000
0000
0000
0100
0000
0000
0100
0000
0001
1000
0000
0000
0000
0100
0000
0010
0000
0000
0000
0001
0000
0000
0001
0000
0001
0100
0000
0010
0000
1000
0000
,
1001
0000
0000
0000
1001
0000
0000
0100
0000
0001
1000
0000
0000
0000
0010
0000
0010
0000
0000
0000
0100
0000
0000
0100
0000
0010
0100
0000
0000
0000
0001
0000
,
1000
0000
0000
0000
1000
0000
0000
1000
0000
1000
0100
0000
0000
0000
0010
0000
0001
0100
0010
1000
0100
0010
0001
1000
0010
0100
0001
1000
0001
0010
1000
0100
,
0001
0100
0010
0001
0100
0010
1000
0100
0010
0001
0010
0100
1000
0010
0001
0010
,
1000
0000
0100
0000
0010
0001
0010
0001
0010
0000
0100
0000
1000
0000
0001
0000
0100
0000
1000
0000
0100
0000
0001
0000
0010
0000
0100
0000
1000
0000
0100
0000
,
0010
0001
1001
1000
0010
0100
0001
0010
0100
1000
0001
0100
0010
1000
0010
0100
,
0001
0100
1000
0100
0001
0010
1000
0010
0001
1000
0010
0100
0001
0010
0100
1000
,
0101
0000
1000
0001
0100
0010
1000
0100
0010
0001
1000
0010
0100
0001
1000
0100
,
0001
0000
0100
0000
1000
0001
1000
0001
1000
0000
0010
0000
0100
0000
0001
0000
1000
0000
0001
0000
0010
0000
0100
0000
1000
0000
0100
0000
0001
0000
0100
0000
,
1001
0100
0011
1000
0010
1000
0001
0100
0010
1000
0100
1000
0100
0010
0001
0010
,
0001
0000
0000
0100
0000
0000
0001
0000
0000
0010
0000
0000
0100
0000
0000
1000
0000
0000
0010
0000
0000
0100
0000
0000
0001
0000
0000
0100
0000
0000
0010
0000
0000
1000
0000
0000
0001
0000
0010
0000
1000
0000
0100
0000
0001
0000
0010
0000
,
2002
3003
0001
0010
0110
1000
0010
0001
0010
1000
0100
0001
1100
1000
0010
0100
,
0001
0000
0010
0000
0100
1000
0010
0100
1001
0000
0010
0000
0100
0000
1000
0000
0010
0000
0001
0000
0010
0000
1000
0000
1100
0000
0010
0000
0001
0000
0100
0000
,
1001
0010
1100
0010
0110
0100
1000
0001
0100
0010
1000
0100
1001
0001
0010
1000
,
0010
0001
0101
1000
0001
1010
1010
1010
1010
0001
1000
0010
0101
1000
0001
1000
,
1001
0100
0010
1000
0100
0010
0001
0010
1000
0010
0001
0100
1000
0100
0001
1000
,
0010
0000
0100
0000
0001
1000
0100
0010
1001
0000
0100
0000
0010
0000
1000
0000
0100
0000
0001
0000
0100
0000
1000
0000
0010
0000
0001
0000
0010
0000
1000
0000
,
1100
0010
0101
1000
0110
0100
0001
0010
1000
0010
0001
0010
1001
0100
0010
1000
,
0101
1010
1100
0011
1001
0110
1010
1100
0101
0011
0110
1100
1001
1010
0101
0110
,
1001
0000
0100
0001
0010
1000
0100
0010
0000
0000
0000
0000
0000
0000
0010
0000
,
0000
0000
0010
0000
0000
0010
0000
0000
,
0010
0000
0000
0000
;

//---------------dance-single - Copied from Copied f----------------
#NOTES:
     dance-single:
     Copied from Copied f:
     Hard:
     8:
     0.626,0.611,0.412,0.188,0.663,422.000,46.000,21.000,0.000,0.000:
0000
0000
0000
0000
,
0000
0000
0000
0000
,
0000
0000
0000
0000
,
0000
0000
0000
0000
,
0000
0000
0000
0000
,
0000
0000
0100
0000
0000
0001
1000
0001
1000
0000
0000
0000
1100
0000
0000
0000
,
0101
0000
1000
0001
0100
0010
1000
0100
0000
0100
0010
0001
0000
0001
1000
0010
,
0000
0000
1010
0000
0000
0100
0010
0001
0000
0001
0100
0010
0000
1000
0001
0010
,
0000
0000
0110
0000
0001
0000
0100
0010
0000
0100
0010
0001
0000
0001
0010
1000
,
0000
0000
1010
0000
0000
0001
0100
0001
0100
0000
0000
0000
0202
0000
0303
0000
,
1000
0000
0100
0001
0100
1000
0010
0001
0010
1000
0000
1000
0100
0000
0100
1000
,
0010
0000
0100
0010
0001
0000
0001
0010
0100
0001
0010
0100
1000
0000
1000
0001
,
0000
0000
0001
0010
0000
0010
0100
1000
0010
0000
0010
0100
1000
0000
1000
0100
,
0001
0000
0010
0000
0000
0100
0010
0100
0010
0000
0011
0000
1200
0000
0000
0000
,
0320
0000
0001
0000
0000
0100
0000
0000
1030
0000
0022
0000
0033
0000
0001
1000
,
0010
0000
0100
0000
0010
0000
1000
0000
0000
0001
0000
0100
0010
0000
1000
0000
,
0000
0100
0000
0100
0010
0000
0001
0000
0000
0100
0000
0001
0100
0000
1010
0000
,
0000
1000
0001
0000
1000
0000
0100
0000
0000
0010
0000
0001
0010
0000
0100
0000
,
0110
0000
1001
0000
0000
0100
0001
0100
0010
0000
0010
0000
1010
0000
1000
0000
,
1100
0000
0010
0000
0001
0000
0100
0000
0000
0010
0000
1000
0100
0000
0010
0000
,
1000
0010
0001
0100
0001
0000
1000
0100
0000
0001
0000
0100
0001
1000
0100
0000
,
1100
0000
0010
0001
0000
0000
1000
0000
0000
0010
0000
0100
0001
0000
0010
0100
,
1100
0000
0110
0000
0000
0010
0001
0100
1000
0000
0100
0000
1001
0000
1000
0100
,
0002
0000
0000
0000
0000
0203
0000
0000
2300
0000
0000
0000
3000
0000
0000
0000
,
0101
0000
0001
0000
0000
1000
0010
1000
0100
0000
0000
0000
0022
0000
0033
0000
,
1001
0000
0000
0101
0000
0000
1001
0000
0001
0100
0000
0010
0000
1000
0100
0000
,
0010
0000
0011
0000
0100
0000
1000
0010
0100
0001
0010
0000
2200
0000
3300
0000
,
1020
0000
0000
0001
0000
0000
0130
0001
0010
0100
0000
0110
0000
0000
0011
0000
,
0000
0000
1000
0000
0000
0001
1000
0100
0010
0000
0011
0000
0001
0000
1000
0000
,
0110
0000
0000
1010
0000
0000
0110
0000
0100
0001
0000
1000
0100
0000
0100
0010
,
0001
0100
1000
0100
0001
0010
1000
0010
,
0201
0000
0001
0000
0000
0010
0000
0000
2000
0000
0000
0000
0000
0000
3300
0000
,
0101
0000
0010
0000
0100
0000
0001
0000
1000
0000
0000
0000
0000
0000
1000
0010
,
0100
0000
0001
0000
0100
0000
0010
1000
0001
0000
0000
0000
0011
0000
0000
0000
,
1100
0000
1000
0000
0100
0000
0010
0000
0001
0000
0000
0000
0010
0000
0100
1000
,
0001
0000
0100
0000
0001
0000
1000
0001
0020
0000
0000
0000
0000
0000
0031
0100
,
1000
0100
0010
1000
0100
0000
0100
0010
0000
0010
0001
0000
0100
0000
0001
0000
,
1000
0000
0010
0100
0001
0000
0001
0010
0000
0010
0100
0000
1000
0000
0010
0000
,
0001
1000
0100
0001
0010
1000
0001
0100
,
1000
0001
0000
0001
0100
0000
0100
0010
0000
0010
1000
0000
1000
0010
0100
0001
,
0010
0000
0010
0100
1000
0000
0000
0001
0100
0000
0000
0001
0010
0000
0000
1000
,
0010
0000
0010
1000
0001
0000
0000
0010
0100
0000
0100
1000
0010
0000
0100
0000
,
0001
0000
0100
0000
0000
0010
0000
0000
1000
0000
0000
0100
0000
0000
0001
0100
,
1000
0000
0001
0100
0000
0001
0010
0000
0100
1000
0000
0001
1000
0001
0000
1001
,
0200
0000
0000
0000
0301
1000
0010
0100
0000
0100
0001
0100
0010
0000
1000
0000
,
0100
0000
0010
0001
0100
0000
0001
0100
0010
0000
0010
1000
0100
0000
1100
0000
,
1001
0000
0001
0000
0100
0010
0000
0010
1000
0000
1000
0001
0000
0001
0010
0000
,
0100
0000
1100
0000
0000
1000
0001
1000
0001
0000
0101
0000
1010
0000
0010
0000
,
1001
1000
0100
0001
0100
1000
0010
0001
,
0010
0000
1000
0100
0010
0000
0001
0100
0001
0000
1000
0010
0000
1000
0100
0000
,
0011
0000
2100
0000
3010
0100
0000
0001
0010
0100
0000
0100
0010
0000
0001
0100
,
0010
0000
1000
0100
0000
0001
0010
0000
0100
1000
0000
0100
0001
0000
0010
0000
,
2002
0000
3003
0000
;
