#TITLE:Red Sign;
#SUBTITLE:;
#ARTIST:Kevin.o2SE;
#TITLETRANSLIT:;
#SUBTITLETRANSLIT:;
#ARTISTTRANSLIT:;
#CREDIT:;
#BANNER:Red Sign.png;
#BACKGROUND:Red Sign-bg.png;
#LYRICSPATH:;
#CDTITLE:NVLM-cdtitle.png;
#MUSIC:Red Sign.mp3;
#OFFSET:-0.481;
#SAMPLESTART:41.282;
#SAMPLELENGTH:12.000;
#SELECTABLE:YES;
#DISPLAYBPM:80.000:180.000;
#BPMS:0.000=80.000,32.000=150.000,268.000=180.000,336.000=150.000;
#STOPS:;
#BGCHANGES:;
// cache tags:
#FIRSTBEAT:2.000;
#LASTBEAT:415.500;
#SONGFILENAME:Songs/IzzySM Keyboard Mega Pack/Red Sign/Red Sign.sm;
#HASMUSIC:1;
#HASBANNER:1;
#MUSICLENGTH:175.725;
// end cache tags

//---------------dance-single - ----------------
#NOTES:
     dance-single:
     :
     Hard:
     13:
     0.905,1.000,0.239,0.148,1.000,1033.000,42.000,26.000,0.000,10.000:  // measure 1
0000
0000
0000
0000
,  // measure 2
1000
0100
0001
0100
2002
0000
3003
0000
,  // measure 3
0010
0100
0001
0100
2002
0000
3003
0000
,  // measure 4
0100
0010
0001
0100
0220
0330
2200
3300
,  // measure 5
0001
0010
0100
1000
2002
0000
3003
0000
,  // measure 6
0100
0001
0100
1000
0220
0000
0330
0000
,  // measure 7
0001
0010
0100
1000
1000
0100
0010
0001
,  // measure 8
0100
0010
1000
0001
0220
0000
0000
0000
,  // measure 9
0330
0000
0000
0000
0000
0000
0000
0000
0000
0000
0000
0000
0000
0000
1000
0001
,  // measure 10
0010
0000
0100
0000
1000
0000
0100
0010
0001
0000
1000
0000
0010
0000
0100
0000
,  // measure 11
1000
0000
0100
0000
0001
0000
1000
0000
0100
0010
0100
0010
0001
0100
0001
0100
,  // measure 12
0010
0000
1000
0100
0001
0000
0100
0000
1000
0000
0010
0000
0100
0000
0001
0000
,  // measure 13
0010
0000
0100
1000
1000
0000
0001
0000
0100
0010
0100
0010
1000
0100
1000
0001
,  // measure 14
0010
0000
0100
1000
0100
0000
0001
0000
1000
0100
1000
0000
0010
0000
0100
0000
,  // measure 15
0001
0000
1000
0100
0010
0000
0001
0000
0100
0010
1000
0000
0001
0000
0100
0000
,  // measure 16
0010
1000
0100
0010
0001
0100
0001
0010
0100
1000
0001
0100
1000
0100
0010
1000
,  // measure 17
0010
0001
0010
0100
0001
1000
0100
0010
0001
0100
0010
1000
0001
0010
0100
1000
,  // measure 18
2002
0000
0000
0000
,  // measure 19
3003
0000
0000
0000
0000
0000
0000
0000
0010
0000
0000
0010
0000
0000
0010
0000
,  // measure 20
0101
0000
0100
0010
1000
0100
0001
0100
1000
0010
0100
0001
0010
0100
1000
0000
,  // measure 21
0001
0000
0100
0010
1000
0100
1000
0001
0010
1000
0010
0001
0100
0010
0010
0000
,  // measure 22
1000
0000
0100
0001
0100
1000
0010
0100
0001
0010
1000
0010
0100
1000
0100
0000
,  // measure 23
0010
0000
0001
0100
0001
1000
0100
0001
0100
1000
0010
0100
0001
0010
0010
0000
,  // measure 24
0100
0000
1000
0001
0100
1000
0100
0010
1000
0001
0010
0100
1000
0100
1000
0000
,  // measure 25
0001
0000
0100
0010
0001
0010
1000
0100
0001
0100
0010
0001
0100
0010
1000
0000
,  // measure 26
0001
0000
0010
0100
1000
0100
1000
0001
0100
0010
0001
0010
1000
0100
0001
0000
,  // measure 27
0100
0000
0010
1000
0001
0010
0100
1000
0010
0001
0010
0100
0001
1000
0100
0000
,  // measure 28
0110
0000
0001
0000
1000
0000
1100
0000
0000
1000
0100
0010
0001
0000
1001
0000
,  // measure 29
0100
0000
0010
0000
0001
0000
0101
0000
0000
0001
0010
0100
1000
0000
1001
0000
,  // measure 30
0100
0000
0010
0000
0001
0000
1001
0000
0000
1000
0010
0100
0001
0000
0011
0000
,  // measure 31
0100
0000
1000
0000
0001
0000
0101
0000
0000
0100
0001
1000
0100
0000
0110
0000
,  // measure 32
0001
0000
1000
0000
0010
0000
0011
0000
0000
0001
0100
0010
1000
0000
1100
0000
,  // measure 33
0001
0000
0010
0000
0100
0000
0101
0000
0000
1000
0100
0010
0001
0000
1001
0000
,  // measure 34
0100
0000
0010
0000
1000
0000
1100
0000
0000
0001
0010
0100
1000
0000
0101
0000
,  // measure 35
1000
0100
1000
0010
1000
0100
1000
0010
0001
0100
0001
0010
0001
0100
0001
0010
,  // measure 36
0100
1000
0001
0100
0110
0000
1110
0000
,  // measure 37
1000
0000
0000
0000
0100
0000
0000
0000
0010
0000
0000
0000
0001
0000
0000
0000
0100
0000
1000
0000
0010
0000
1000
0000
0010
0000
0000
0000
1000
0001
0000
0000
,  // measure 38
0100
0010
0001
0100
0110
0000
1110
0000
,  // measure 39
0001
0000
0010
0000
0100
0000
1000
0000
0001
0000
0100
0000
0100
0001
0010
0100
,  // measure 40
1000
0010
0001
1000
1010
0000
1110
0000
,  // measure 41
0001
0000
0000
0000
0010
0000
0000
0000
0100
0000
0000
0000
1000
0000
0000
0000
0010
0000
0000
0000
0100
0001
0000
0000
0100
0001
0000
0000
0000
0000
0000
0000
,  // measure 42
1000
0010
0001
0100
0110
0000
1101
0000
,  // measure 43
1000
0000
0000
0000
0001
0000
0000
0000
0010
0000
0000
0000
0100
0000
0000
0000
1000
0000
0000
0000
0001
0100
0000
0000
0001
0100
0000
0000
0001
0000
0100
0000
,  // measure 44
1000
0100
1000
0000
1000
0001
1000
0000
0010
0100
0010
0000
0010
0001
0010
0000
,  // measure 45
0100
1000
0100
0000
0100
0001
0100
0000
0001
0010
0100
0000
1000
0010
0100
0000
,  // measure 46
0001
1000
0100
0000
0010
0001
1000
0000
0010
0100
0001
0000
1000
0100
0010
0000
,  // measure 47
0001
0100
1000
0000
1000
0100
0010
0000
1000
0001
0010
0000
0100
1000
0001
0000
,  // measure 48
0100
0010
1000
0000
0100
0001
0100
0000
0010
1000
0010
0000
0001
0100
0010
0000
,  // measure 49
1000
0001
0100
0000
0010
1000
0100
0000
0010
0001
1000
0000
0001
0100
1000
0000
,  // measure 50
0100
0010
1000
0000
0100
0010
0001
0000
0010
0100
1000
0000
0001
0100
0010
0000
,  // measure 51
1001
0000
1000
1000
0100
0100
0010
0010
0001
0001
0010
0010
0100
0100
1000
1000
,  // measure 52
0001
0000
0100
0010
1000
0000
0001
0000
0010
0000
0100
0000
1000
0000
0001
0100
,  // measure 53
0010
0000
1000
0000
0100
0000
0010
0000
0001
1000
0001
0010
0100
1000
0100
1000
,  // measure 54
0010
0000
0100
0001
0001
0000
0010
0000
0100
0000
1000
0000
0001
0000
0100
0010
,  // measure 55
1000
0000
0001
0000
0010
0000
0100
0000
1000
0001
1000
0001
0100
0010
0100
1000
,  // measure 56
0100
0000
0001
1000
1000
0000
0100
0000
0010
0001
0010
0100
1000
0100
0010
0001
,  // measure 57
0100
0000
0001
0000
1000
0000
0010
0000
0100
0001
0100
0001
0100
0000
1000
0000
,  // measure 58
0001
0010
0100
1000
0001
0010
0100
1000
1000
0100
0010
0001
1000
0100
0010
0001
,  // measure 59
0100
0010
1000
0001
0100
0010
1000
0001
0001
1000
0010
0100
0001
1000
0010
0100
,  // measure 60
0010
0000
1000
0001
1000
0000
0100
0000
0010
0000
0001
0000
0100
0000
0010
0000
,  // measure 61
1000
0000
0100
1000
0100
0000
0010
0000
0001
0100
0001
0100
0010
1000
0100
1000
,  // measure 62
0001
0000
1000
0100
0010
0000
0010
0000
0001
0000
0100
0000
0010
0000
1000
0000
,  // measure 63
0100
0010
0001
0000
0100
0000
0010
0000
0001
1000
0001
1000
0100
0010
0001
0010
,  // measure 64
0001
0000
0100
0000
0010
0000
1000
0000
0001
0100
0001
0100
0010
1000
0100
0000
,  // measure 65
1000
0000
0010
0000
0100
0000
0001
0000
0010
0100
1000
0100
0001
0100
1000
0000
,  // measure 66
0010
1000
0001
0100
0010
1000
0001
0100
0100
0001
1000
0010
0100
0001
1000
0010
,  // measure 67
0010
0100
0001
1000
0010
0100
0001
1000
1000
0100
0010
0001
1000
0100
0010
0001
,  // measure 68
0202
0000
0000
0000
0000
0000
0000
0303
,  // measure 69
0000
0000
0000
0000
,  // measure 70
0001
0100
0000
0000
0100
1000
0000
0000
1000
0010
0000
0000
0010
0001
0000
0000
,  // measure 71
0001
0100
0000
0000
0010
1000
0000
0000
0100
0001
0000
0000
0100
1000
0000
0000
,  // measure 72
0010
0100
0000
0000
0001
0010
0000
0000
0100
1000
0000
0000
1000
0010
0000
0000
,  // measure 73
0100
0001
0000
0000
0100
1000
0000
0000
0010
0001
0000
0000
0010
0100
0000
0000
,  // measure 74
0100
1000
0000
0000
1000
0001
0000
0000
0100
1000
0000
0000
0010
0001
0000
0000
,  // measure 75
1000
1000
0000
0000
0001
0001
0000
0000
0010
0100
0000
0000
1000
0010
0000
0000
,  // measure 76
0100
0001
0000
0000
0010
1000
0000
0000
1000
0001
0000
0000
0100
1000
0000
0000
,  // measure 77
0010
0100
0000
0000
0001
0010
0000
0000
0100
1000
0000
0000
0001
0100
0000
0000
,  // measure 78
1001
1000
0100
0100
0010
0010
1000
1000
,  // measure 79
0001
0001
0010
0010
0100
0100
0001
0001
,  // measure 80
1000
1000
0100
0100
0010
0010
1000
1000
,  // measure 81
0001
0001
0010
0010
0100
0100
1000
1000
,  // measure 82
0010
0010
0001
0001
0100
0100
0010
0010
,  // measure 83
1000
0000
1000
0000
0100
0000
0100
0000
0001
0000
0001
0000
0010
0000
0010
0100
,  // measure 84
2002
0000
0000
0000
,  // measure 85
0000
0000
0000
3003
0000
0000
0000
0000
,  // measure 86
0000
0000
0000
0000
0000
0000
0000
0000
1000
0000
0000
1000
0000
0000
1000
0000
,  // measure 87
0100
0010
0001
0001
0010
0100
1000
0001
0100
0010
1000
0100
0001
0100
0010
0000
,  // measure 88
0100
1000
0001
0010
0100
1000
0001
0100
0010
1000
0100
0001
0100
0010
1000
0000
,  // measure 89
0001
0001
0100
0010
1000
0100
0001
0100
0010
1000
0010
0001
0100
0010
1000
0000
,  // measure 90
0001
0010
0001
0100
0100
0010
1000
0100
1000
0001
0010
0100
1000
0010
0100
0000
,  // measure 91
0001
0100
1000
0100
0001
0100
0010
1000
0010
0001
0100
0010
1000
0001
0010
0000
,  // measure 92
0100
0010
1000
1000
0001
0100
1000
0100
0010
1000
0001
0010
0100
1000
0010
0000
,  // measure 93
0100
0001
0100
0100
0001
1000
0100
0010
0001
0100
1000
0100
0010
1000
0001
0000
,  // measure 94
0010
0100
0010
0100
1000
0010
1000
0010
0100
0001
0100
0001
0001
0010
0100
1000
,  // measure 95
1000
0010
1000
0100
0010
0001
0100
0010
1000
0001
0010
0100
1000
0010
0100
0001
,  // measure 96
0001
0100
1000
0100
0010
1000
0001
0010
0100
1000
0010
0100
0001
1000
0100
0100
,  // measure 97
0010
0001
0010
0100
1000
0001
0100
0100
0010
1000
0100
1000
0001
0010
0100
1000
,  // measure 98
1000
0001
0001
0100
0010
1000
0100
0001
0100
0010
0001
0100
1000
0100
0010
0001
,  // measure 99
1000
1000
0001
0010
0100
1000
0001
0100
0010
1000
0100
0001
0100
0010
0010
1000
,  // measure 100
0001
0001
0100
0010
1000
0100
0001
0001
0100
1000
0010
0100
0001
0010
0100
0010
,  // measure 101
1210
0300
0000
0000
0121
0030
0000
0000
,  // measure 102
1201
0300
0000
0000
1021
0030
0000
0000
,  // measure 103
1221
0000
0000
0330
,  // measure 104
1111
0000
0000
0000
;

//---------------dance-single - ----------------
#NOTES:
     dance-single:
     :
     Challenge:
     20:
     1.000,1.000,1.000,0.888,1.000,1740.000,608.000,156.000,0.000,139.000:  // measure 1
0000
0000
0000
0000
0000
0000
0000
0000
2202
0000
0000
0000
3303
0000
0110
0101
,  // measure 2
1010
0000
0110
0000
1001
0010
1100
0000
2022
0000
0000
0000
3033
1100
0110
0011
,  // measure 3
1010
0000
1100
0000
0011
1000
0110
0000
2022
0000
0000
0000
3033
1100
0011
0110
,  // measure 4
1100
0001
1010
0000
0011
0000
1100
0000
0222
0000
0333
0000
1001
1100
0110
0011
,  // measure 5
1001
0100
1010
0000
0110
0001
1001
0000
2022
0000
0000
0000
3033
0000
1100
0110
,  // measure 6
0101
0000
0011
0000
1100
0001
1010
0000
0222
0000
0000
0000
0333
1100
0110
0011
,  // measure 7
1001
0000
0011
0000
0110
0000
1001
0110
1100
0000
0101
0000
1010
0000
0011
1001
,  // measure 8
1100
0000
0011
0100
1010
0000
0101
1000
2222
0000
0000
0000
0000
0000
0000
0000
,  // measure 9
3333
0000
0000
0000
2222
0000
3333
0000
0000
0000
0000
0000
0000
0000
1001
0101
,  // measure 10
0110
1000
1100
0010
1001
0100
0110
1000
0011
0100
1001
0000
0110
0001
1100
0000
,  // measure 11
1001
0010
1100
0010
0101
0010
1001
0000
1100
0110
0011
0101
1100
1010
0101
1100
,  // measure 12
0011
0000
1010
0100
1001
1000
0110
0000
1100
0000
0011
0100
1100
0010
1001
0010
,  // measure 13
0110
0000
0101
1000
1010
0000
0011
0000
1100
0011
0101
0110
1010
1100
0101
1001
,  // measure 14
0110
0000
1100
1000
0101
1000
0011
0100
1001
0100
1100
0000
1010
0001
0110
0000
,  // measure 15
0101
0000
1010
0100
0011
0100
1001
0010
1100
0010
1001
0000
0101
0010
1100
1000
,  // measure 16
0011
1100
0101
1010
0101
0110
1001
0011
0110
1100
0011
0101
1100
1010
0110
0101
,  // measure 17
1001
0011
0110
0101
1001
1100
0110
0011
1001
1100
0110
1010
0101
0011
0110
1100
,  // measure 18
2222
0000
0000
0000
,  // measure 19
3333
0000
0000
0000
0000
0000
0000
0000
0022
1133
0000
0220
1331
0000
2200
3311
,  // measure 20
1001
0000
0000
0000
0000
0000
0000
0000
0000
0000
0000
0000
0100
0000
0000
0000
0000
0000
0000
0000
0000
0000
0000
0000
0010
0000
0000
0000
0000
0000
0000
0000
0100
0000
0000
0000
0001
0000
0000
0000
0000
0000
0000
0000
0000
0000
0000
0000
1010
0000
0000
0000
0000
0000
0000
0000
0000
0000
0000
0000
0100
0000
0000
0000
0000
0000
0000
0000
0000
0000
0000
0000
1010
0000
0000
0000
0000
0000
0000
0000
0000
0000
0000
0000
0001
0000
0000
0000
0000
0000
0000
0000
0000
0000
0000
0000
0101
0000
0000
0000
0000
0000
0010
0000
0000
0000
0000
0000
0000
0000
0000
0000
0000
0000
1000
0000
0000
0000
0000
0000
0100
0000
0000
0000
0000
0000
0010
0000
0000
0000
0000
0000
0001
0000
0000
0000
0000
0000
0100
0000
0000
0000
0000
0000
0001
0000
0000
0000
0000
0000
0010
0000
0000
0000
0000
0000
0100
0000
0000
0000
0000
0000
0001
0000
0000
0000
0000
0000
1000
0000
0000
0000
0000
0000
0100
0000
0000
0000
0000
0000
0010
0000
0000
0000
0000
0000
0001
0000
0000
0000
0000
0000
,  // measure 21
1100
0000
0000
0000
0000
0000
0000
0000
0000
0000
0000
0000
0001
0000
0000
0000
0000
0000
0000
0000
0000
0000
0000
0000
0010
0000
0000
0000
0000
0000
0000
0000
0001
0000
0000
0000
0100
0000
0000
0000
0000
0000
0000
0000
0000
0000
0000
0000
1001
0000
0000
0000
0000
0000
0000
0000
0010
0000
0000
0000
1000
0000
0000
0000
0000
0000
0000
0000
0000
0000
0000
0000
0100
0000
0000
0000
0000
0000
0000
0000
0000
0000
0000
0000
0010
0000
0000
0000
0000
0000
0000
0000
0000
0000
0000
0000
1001
0000
0000
0000
0000
0000
0100
0000
0000
0000
0000
0000
0010
0000
0000
0000
0000
0000
1000
0000
0000
0000
0000
0000
0100
0000
0000
0000
0000
0000
0001
0000
0000
0000
0000
0000
0100
0000
0000
0000
0000
0000
0010
0000
0000
0000
0000
0000
1000
0000
0000
0000
0000
0000
0001
0000
0000
0000
0000
0000
0010
0000
0000
0000
0000
0000
0100
0000
0000
0000
0000
0000
1000
0000
0000
0000
0000
0000
0001
0000
0000
0000
0000
0000
0100
0000
0000
0000
0000
0000
0010
0000
0000
0000
0000
0000
,  // measure 22
1001
0000
0000
0000
0000
0000
0000
0000
0000
0000
0000
0000
0010
0000
0000
0000
0000
0000
0000
0000
0000
0000
0000
0000
0100
0000
0000
0000
0000
0000
0000
0000
1000
0000
0000
0000
0001
0000
0000
0000
0000
0000
0000
0000
0000
0000
0000
0000
0011
0000
0000
0000
0000
0000
0000
0000
0000
0000
0000
0000
1000
0000
0000
0000
0000
0000
0000
0000
0000
0000
0000
0000
0110
0000
0000
0000
0000
0000
0000
0000
0000
0000
0000
0000
0001
0000
0000
0000
0000
0000
0000
0000
0000
0000
0000
0000
1001
0000
0000
0000
0000
0000
0010
0000
0000
0000
0000
0000
0100
0000
0000
0000
0000
0000
1000
0000
0000
0000
0000
0000
0001
0000
0000
0000
0000
0000
0100
0000
0000
0000
0000
0000
0010
0000
0000
0000
0000
0000
1000
0000
0000
0000
0000
0000
0100
0000
0000
0000
0000
0000
0001
0000
0000
0000
0000
0000
0100
0000
0000
0000
0000
0000
0010
0000
0000
0000
0000
0000
1000
0000
0000
0000
0000
0000
0010
0000
0000
0000
0000
0000
0001
0000
0000
0000
0000
0000
0100
0000
0000
0000
0000
0000
,  // measure 23
1001
0000
0000
0000
0000
0000
0000
0000
0000
0000
0000
0000
0010
0000
0000
0000
0000
0000
0000
0000
0000
0000
0000
0000
0100
0000
0000
0000
0000
0000
0000
0000
0010
0000
0000
0000
0001
0000
0000
0000
0000
0000
0000
0000
0000
0000
0000
0000
1100
0000
0000
0000
0000
0000
0000
0000
0000
0000
0000
0000
1000
0000
0000
0000
0001
0000
0000
0000
0000
0000
0000
0000
0010
0000
0000
0000
0000
0000
0000
0000
0000
0000
0000
0000
0100
0000
0000
0000
0000
0000
0000
0000
0000
0000
0000
0000
1001
0000
0000
0000
0000
0000
0010
0000
0000
0000
0000
0000
0100
0000
0000
0000
0000
0000
0001
0000
0000
0000
0000
0000
1000
0000
0000
0000
0000
0000
0100
0000
0000
0000
0000
0000
0010
0000
0000
0000
0000
0000
0001
0000
0000
0000
0000
0000
0100
0000
0000
0000
0000
0000
1000
0000
0000
0000
0000
0000
0100
0000
0000
0000
0000
0000
0010
0000
0000
0000
0000
0000
1000
0000
0000
0000
0000
0000
0001
0000
0000
0000
0000
0000
0010
0000
0000
0000
0000
0000
0100
0000
0000
0000
0000
0000
,  // measure 24
1001
0000
0000
0000
0000
0000
0000
0000
0000
0000
0000
0000
1000
0000
0000
0000
0000
0000
0000
0000
0000
0000
0000
0000
0100
0000
0000
0000
0000
0000
0000
0000
0001
0000
0000
0000
0010
0000
0000
0000
0000
0000
0000
0000
0000
0000
0000
0000
1001
0000
0000
0000
0000
0000
0000
0000
0000
0000
0000
0000
0100
0000
0000
0000
0010
0000
0000
0000
0000
0000
0000
0000
1000
0000
0000
0000
0000
0000
0000
0000
0000
0000
0000
0000
0010
0000
0000
0000
0000
0000
0000
0000
0000
0000
0000
0000
0101
0000
0000
0000
0000
0000
1000
0000
0000
0000
0000
0000
0100
0000
0000
0000
0000
0000
0010
0000
0000
0000
0000
0000
1000
0000
0000
0000
0000
0000
0001
0000
0000
0000
0000
0000
0010
0000
0000
0000
0000
0000
0100
0000
0000
0000
0000
0000
0001
0000
0000
0000
0000
0000
1000
0000
0000
0000
0000
0000
0100
0000
0000
0000
0000
0000
0010
0000
0000
0000
0000
0000
1000
0000
0000
0000
0000
0000
0001
0000
0000
0000
0000
0000
0010
0000
0000
0000
0000
0000
0100
0000
0000
0000
0000
0000
,  // measure 25
1010
0000
0000
0000
0000
0000
0000
0000
0000
0000
0000
0000
0001
0000
0000
0000
0000
0000
0000
0000
0000
0000
0000
0000
0010
0000
0000
0000
0000
0000
0000
0000
0001
0000
0000
0000
0100
0000
0000
0000
0000
0000
0000
0000
0000
0000
0000
0000
1001
0000
0000
0000
0000
0000
0000
0000
0010
0000
0000
0000
1000
0000
0000
0000
0000
0000
0000
0000
0000
0000
0000
0000
0100
0000
0000
0000
0000
0000
0000
0000
0000
0000
0000
0000
0010
0000
0000
0000
0000
0000
0000
0000
0000
0000
0000
0000
0011
0000
0000
0000
0000
0000
1000
0000
0000
0000
0000
0000
0100
0000
0000
0000
0000
0000
0010
0000
0000
0000
0000
0000
1000
0000
0000
0000
0000
0000
0001
0000
0000
0000
0000
0000
0010
0000
0000
0000
0000
0000
0100
0000
0000
0000
0000
0000
1000
0000
0000
0000
0000
0000
0001
0000
0000
0000
0000
0000
0100
0000
0000
0000
0000
0000
0010
0000
0000
0000
0000
0000
0001
0000
0000
0000
0000
0000
0100
0000
0000
0000
0000
0000
1000
0000
0000
0000
0000
0000
0010
0000
0000
0000
0000
0000
,  // measure 26
1001
0000
0000
0000
0000
0000
0000
0000
0000
0000
0000
0000
0010
0000
0000
0000
0000
0000
0000
0000
0000
0000
0000
0000
0100
0000
0000
0000
0000
0000
0000
0000
0010
0000
0000
0000
0001
0000
0000
0000
0000
0000
0000
0000
0000
0000
0000
0000
1100
0000
0000
0000
0000
0000
0000
0000
0000
0000
0000
0000
1001
0000
0000
0000
0000
0000
0000
0000
0000
0000
0000
0000
0010
0000
0000
0000
0000
0000
0000
0000
0000
0000
0000
0000
0100
0000
0000
0000
0000
0000
0000
0000
0000
0000
0000
0000
1001
0000
0000
0000
0000
0000
0010
0000
0000
0000
0000
0000
0100
0000
0000
0000
0000
0000
0001
0000
0000
0000
0000
0000
0100
0000
0000
0000
0000
0000
0010
0000
0000
0000
0000
0000
1000
0000
0000
0000
0000
0000
0100
0000
0000
0000
0000
0000
0001
0000
0000
0000
0000
0000
0100
0000
0000
0000
0000
0000
0010
0000
0000
0000
0000
0000
1000
0000
0000
0000
0000
0000
0001
0000
0000
0000
0000
0000
0010
0000
0000
0000
0000
0000
0100
0000
0000
0000
0000
0000
1000
0000
0000
0000
0000
0000
,  // measure 27
0110
0000
0000
0000
0000
0000
0000
0000
0000
0000
0000
0000
0001
0000
0000
0000
0000
0000
0000
0000
0000
0000
0000
0000
0100
0000
0000
0000
0000
0000
0000
0000
0001
0000
0000
0000
1000
0000
0000
0000
0000
0000
0000
0000
0000
0000
0000
0000
0011
0000
0000
0000
0000
0000
0000
0000
0000
0000
0000
0000
0001
0000
0000
0000
1000
0000
0000
0000
0000
0000
0000
0000
0100
0000
0000
0000
0000
0000
0000
0000
0000
0000
0000
0000
0010
0000
0000
0000
0000
0000
0000
0000
0000
0000
0000
0000
1001
0000
0000
0000
0000
0000
0100
0000
0000
0000
0000
0000
0010
0000
0000
0000
0000
0000
0001
0000
0000
0000
0000
0000
0100
0000
0000
0000
0000
0000
1000
0000
0000
0000
0000
0000
0100
0000
0000
0000
0000
0000
0010
0000
0000
0000
0000
0000
1000
0000
0000
0000
0000
0000
0001
0000
0000
0000
0000
0000
0010
0000
0000
0000
0000
0000
0100
0000
0000
0000
0000
0000
1000
0000
0000
0000
0000
0000
0001
0000
0000
0000
0000
0000
0100
0000
0000
0000
0000
0000
0010
0000
0000
0000
0000
0000
,  // measure 28
1001
0000
0000
0000
0000
0000
0000
0000
0000
0000
0000
0000
1000
0000
0000
0000
0000
0000
0000
0000
0000
0000
0000
0000
0100
0000
0000
0000
0000
0000
0000
0000
1000
0000
0000
0000
0010
0000
0000
0000
0000
0000
0000
0000
0000
0000
0000
0000
0011
0000
0000
0000
0000
0000
0000
0000
0000
0000
0000
0000
0100
0000
0000
0000
0000
0000
0000
0000
0000
0000
0000
0000
1000
0000
0000
0000
0000
0000
0000
0000
0010
0000
0000
0000
0001
0000
0000
0000
0000
0000
0000
0000
0000
0000
0000
0000
0101
0000
0000
0000
0000
0000
1000
0000
0000
0000
0000
0000
0100
0000
0000
0000
0000
0000
0010
0000
0000
0000
0000
0000
1000
0000
0000
0000
0000
0000
0001
0000
0000
0000
0000
0000
0010
0000
0000
0000
0000
0000
0100
0000
0000
0000
0000
0000
1000
0000
0000
0000
0000
0000
0001
0000
0000
0000
0000
0000
0010
0000
0000
0000
0000
0000
0100
0000
0000
0000
0000
0000
1000
0000
0000
0000
0000
0000
0010
0000
0000
0000
0000
0000
0100
0000
0000
0000
0000
0000
0001
0000
0000
0000
0000
0000
,  // measure 29
1100
0000
0000
0000
0000
0000
0000
0000
0000
0000
0000
0000
1000
0000
0000
0000
0000
0000
0000
0000
0000
0000
0000
0000
0010
0000
0000
0000
0000
0000
0000
0000
0001
0000
0000
0000
0100
0000
0000
0000
0000
0000
0000
0000
0000
0000
0000
0000
1001
0000
0000
0000
0000
0000
0000
0000
0000
0000
0000
0000
0010
0000
0000
0000
0000
0000
0000
0000
0000
0000
0000
0000
0001
0000
0000
0000
0000
0000
0000
0000
0000
0000
0000
0000
0100
0000
0000
0000
0000
0000
0000
0000
0000
0000
0000
0000
0110
0000
0000
0000
0000
0000
1000
0000
0000
0000
0000
0000
0001
0000
0000
0000
0000
0000
0010
0000
0000
0000
0000
0000
0100
0000
0000
0000
0000
0000
1000
0000
0000
0000
0000
0000
0001
0000
0000
0000
0000
0000
0100
0000
0000
0000
0000
0000
0010
0000
0000
0000
0000
0000
1000
0000
0000
0000
0000
0000
0100
0000
0000
0000
0000
0000
0010
0000
0000
0000
0000
0000
0001
0000
0000
0000
0000
0000
0100
0000
0000
0000
0000
0000
0010
0000
0000
0000
0000
0000
1000
0000
0000
0000
0000
0000
,  // measure 30
1001
0000
0000
0000
0000
0000
0000
0000
0000
0000
0000
0000
0100
0000
0000
0000
0000
0000
0000
0000
0000
0000
0000
0000
0010
0000
0000
0000
0000
0000
0000
0000
0001
0000
0000
0000
1000
0000
0000
0000
0000
0000
0000
0000
0000
0000
0000
0000
0101
0000
0000
0000
0000
0000
0000
0000
0000
0000
0000
0000
0010
0000
0000
0000
0000
0000
0000
0000
0000
0000
0000
0000
1000
0000
0000
0000
0000
0000
0000
0000
0000
0000
0000
0000
0100
0000
0000
0000
0000
0000
0000
0000
0000
0000
0000
0000
0110
0000
0000
0000
0000
0000
0001
0000
0000
0000
0000
0000
0010
0000
0000
0000
0000
0000
0100
0000
0000
0000
0000
0000
1000
0000
0000
0000
0000
0000
0001
0000
0000
0000
0000
0000
0100
0000
0000
0000
0000
0000
0010
0000
0000
0000
0000
0000
0001
0000
0000
0000
0000
0000
0100
0000
0000
0000
0000
0000
1000
0000
0000
0000
0000
0000
0100
0000
0000
0000
0000
0000
0010
0000
0000
0000
0000
0000
1000
0000
0000
0000
0000
0000
0001
0000
0000
0000
0000
0000
0010
0000
0000
0000
0000
0000
,  // measure 31
1100
0000
0000
0000
0000
0000
0000
0000
0000
0000
0000
0000
0100
0000
0000
0000
0000
0000
0000
0000
0000
0000
0000
0000
0001
0000
0000
0000
0000
0000
0000
0000
1000
0000
0000
0000
0100
0000
0000
0000
0000
0000
0000
0000
0000
0000
0000
0000
1010
0000
0000
0000
0000
0000
0000
0000
0000
0000
0000
0000
0001
0000
0000
0000
0000
0000
0000
0000
0000
0000
0000
0000
0100
0000
0000
0000
0000
0000
0000
0000
0000
0000
0000
0000
1000
0000
0000
0000
0000
0000
0000
0000
0000
0000
0000
0000
1001
0000
0000
0000
0000
0000
0100
0000
0000
0000
0000
0000
0010
0000
0000
0000
0000
0000
0001
0000
0000
0000
0000
0000
0010
0000
0000
0000
0000
0000
0100
0000
0000
0000
0000
0000
1000
0000
0000
0000
0000
0000
0001
0000
0000
0000
0000
0000
0100
0000
0000
0000
0000
0000
0010
0000
0000
0000
0000
0000
1000
0000
0000
0000
0000
0000
0100
0000
0000
0000
0000
0000
0001
0000
0000
0000
0000
0000
0100
0000
0000
0000
0000
0000
0010
0000
0000
0000
0000
0000
1000
0000
0000
0000
0000
0000
,  // measure 32
0011
0000
0000
0000
0000
0000
0000
0000
0000
0000
0000
0000
0100
0000
0000
0000
0000
0000
0000
0000
0000
0000
0000
0000
1000
0000
0000
0000
0000
0000
0000
0000
0010
0000
0000
0000
0001
0000
0000
0000
0000
0000
0000
0000
0000
0000
0000
0000
0101
0000
0000
0000
0000
0000
0000
0000
0000
0000
0000
0000
0010
0000
0000
0000
0000
0000
0000
0000
0000
0000
0000
0000
0001
0000
0000
0000
0000
0000
0000
0000
0000
0000
0000
0000
1000
0000
0000
0000
0000
0000
0000
0000
0000
0000
0000
0000
1100
0000
0000
0000
0000
0000
0010
0000
0000
0000
0000
0000
0001
0000
0000
0000
0000
0000
0100
0000
0000
0000
0000
0000
0010
0000
0000
0000
0000
0000
1000
0000
0000
0000
0000
0000
0001
0000
0000
0000
0000
0000
0010
0000
0000
0000
0000
0000
0100
0000
0000
0000
0000
0000
1000
0000
0000
0000
0000
0000
0001
0000
0000
0000
0000
0000
0100
0000
0000
0000
0000
0000
0010
0000
0000
0000
0000
0000
1000
0000
0000
0000
0000
0000
0100
0000
0000
0000
0000
0000
0001
0000
0000
0000
0000
0000
,  // measure 33
1100
0000
0000
0000
0000
0000
0000
0000
0000
0000
0000
0000
0010
0000
0000
0000
0000
0000
0000
0000
0000
0000
0000
0000
1000
0000
0000
0000
0000
0000
0000
0000
0000
0000
0000
0000
0001
0000
0000
0000
0000
0000
0000
0000
0000
0000
0000
0000
0110
0000
0000
0000
0000
0000
0000
0000
0000
0000
0000
0000
0100
0000
0000
0000
0000
0000
0000
0000
0000
0000
0000
0000
1000
0000
0000
0000
0000
0000
0000
0000
0010
0000
0000
0000
0001
0000
0000
0000
0000
0000
0000
0000
0000
0000
0000
0000
0101
0000
0000
0000
0000
0000
1000
0000
0000
0000
0000
0000
0100
0000
0000
0000
0000
0000
0010
0000
0000
0000
0000
0000
1000
0000
0000
0000
0000
0000
0010
0000
0000
0000
0000
0000
0001
0000
0000
0000
0000
0000
0100
0000
0000
0000
0000
0000
0001
0000
0000
0000
0000
0000
0010
0000
0000
0000
0000
0000
0100
0000
0000
0000
0000
0000
1000
0000
0000
0000
0000
0000
0001
0000
0000
0000
0000
0000
0100
0000
0000
0000
0000
0000
0010
0000
0000
0000
0000
0000
1000
0000
0000
0000
0000
0000
,  // measure 34
1100
0000
0000
0000
0000
0000
0000
0000
0000
0000
0000
0000
0001
0000
0000
0000
0000
0000
0000
0000
0000
0000
0000
0000
0010
0000
0000
0000
0000
0000
0000
0000
0000
0000
0000
0000
0100
0000
0000
0000
0000
0000
0000
0000
0000
0000
0000
0000
1001
0000
0000
0000
0000
0000
0000
0000
0010
0000
0000
0000
1000
0000
0000
0000
0000
0000
0000
0000
0000
0000
0000
0000
0100
0000
0000
0000
0000
0000
0000
0000
0000
0000
0000
0000
0010
0000
0000
0000
0000
0000
0000
0000
0000
0000
0000
0000
1001
0000
0000
0000
0000
0000
0010
0000
0000
0000
0000
0000
0100
0000
0000
0000
0000
0000
1000
0000
0000
0000
0000
0000
0001
0000
0000
0000
0000
0000
0100
0000
0000
0000
0000
0000
0010
0000
0000
0000
0000
0000
0001
0000
0000
0000
0000
0000
0100
0000
0000
0000
0000
0000
1000
0000
0000
0000
0000
0000
0100
0000
0000
0000
0000
0000
0010
0000
0000
0000
0000
0000
1000
0000
0000
0000
0000
0000
0001
0000
0000
0000
0000
0000
0110
0000
0000
0000
0000
0000
0000
0000
0000
0000
0000
0000
,  // measure 35
1100
0010
0001
1100
0010
0001
1100
0010
0001
1100
0010
0001
1100
0010
0001
1100
0011
0100
1000
0011
0100
1000
0011
0100
1000
0011
0100
1000
0011
0100
1000
0011
,  // measure 36
2200
0000
0010
0000
0301
0010
3110
0000
0111
0000
1000
0000
1110
0001
0010
0100
,  // measure 37
2001
0000
0100
0001
0010
0000
3001
0000
0200
0000
0011
0011
0311
0100
1000
0001
,  // measure 38
2200
0000
0010
0000
3001
0010
1310
0000
0111
0000
1000
0000
2110
0001
3010
0100
,  // measure 39
1002
0000
0010
1000
0100
0000
1003
0010
0002
0000
1100
1100
1103
0001
0010
0100
,  // measure 40
2002
0000
0010
0000
3100
0010
1103
0000
1110
0000
0001
0000
0111
1000
0100
0010
,  // measure 41
2002
0000
0010
0000
0103
0010
3001
0000
0020
0000
1100
0000
1130
0001
0010
0100
,  // measure 42
2020
0000
0100
0000
3001
1000
1130
0000
0111
0000
1000
0000
2101
0010
3001
0100
,  // measure 43
2010
0000
0001
0100
0010
0000
3110
0000
2002
0000
3110
0110
0113
1000
0100
0010
,  // measure 44
1001
0100
1000
0000
0010
0001
0100
0000
0001
0000
0010
0000
0100
0000
1000
0000
0011
0000
0100
0000
1001
0000
0010
0000
1100
0000
0001
0000
0101
0000
1000
0000
,  // measure 45
1010
0000
0100
0001
0100
1000
0001
0000
0010
0000
0100
0000
1000
0000
0001
0000
0101
0000
1000
0000
0110
0000
0001
0000
1001
0000
0100
0000
1010
0000
0001
0000
,  // measure 46
0011
0000
0100
1000
0100
0001
1000
0000
0010
0000
0100
0000
0001
0000
0010
0000
1100
0000
1000
0000
0110
0000
0001
0000
1010
0000
0100
0000
1001
0000
0010
0000
,  // measure 47
0110
0000
1000
0001
1000
0010
0100
0000
0010
0000
0001
0000
0100
0000
1000
0000
0110
0000
0001
0000
0011
0000
0100
0000
1001
0000
0010
0000
1100
0000
0001
0000
,  // measure 48
0101
0000
0010
1000
0010
0001
0100
0000
1000
0000
0001
0000
0100
0000
0010
0000
1001
0000
0100
0000
1100
0000
0010
0000
0101
0000
1000
0000
1010
0000
0100
0000
,  // measure 49
1001
0000
0010
0100
0010
1000
0001
0000
0100
0000
0010
0000
1000
0000
0100
0000
1001
0000
0010
0000
1100
0000
0001
0000
0101
0000
1000
0000
1010
0000
0100
0000
,  // measure 50
1001
0000
0010
0100
0010
0001
1000
0000
0100
0000
0001
0000
0010
0000
0100
0000
1001
0000
0010
0000
0011
0000
0100
0000
1001
0000
0010
0000
0110
0000
1000
0000
,  // measure 51
1001
0000
0110
0000
1001
0000
0110
0000
1001
0000
0110
0000
1001
0000
0110
0000
0110
0000
1001
0000
0110
0000
1001
0000
0110
0000
1001
0000
0110
0000
1001
0010
,  // measure 52
0101
0010
1100
0010
1001
0100
0011
1000
0110
0001
1100
0001
1010
0010
0101
1000
,  // measure 53
0110
0100
1001
0001
0110
1000
1010
0001
0011
1100
1001
0110
0101
1001
0110
1100
,  // measure 54
1010
0001
0101
0010
1100
0001
1010
1000
0110
0001
0011
1000
0101
0010
1100
0001
,  // measure 55
1010
0001
0110
1000
0101
0010
1100
0001
1010
0011
1100
1001
0110
1010
1001
0101
,  // measure 56
1100
0010
0011
0100
1001
0000
1100
0010
0011
0101
0110
1010
1100
0001
0101
1000
,  // measure 57
1010
0100
0011
0100
1001
0010
1100
0001
0101
0110
1010
1100
0101
0010
1001
0001
,  // measure 58
2100
0110
3012
0110
2103
0110
3012
0110
2103
0110
3012
0110
2103
0110
3012
0110
,  // measure 59
2013
0110
3102
0110
2013
0110
3102
0110
2013
0110
3102
0110
2013
0110
3102
0110
,  // measure 60
1013
0100
1100
0001
1010
1000
0101
1000
0110
0010
1001
0010
0101
1000
0110
0001
,  // measure 61
1001
0010
1100
0001
0110
1000
1010
0100
0101
0011
0110
1100
1010
0110
0101
1001
,  // measure 62
0011
1000
0110
0001
1100
0001
1010
1000
0110
0001
0101
0010
1100
0001
1010
0100
,  // measure 63
0011
1000
0101
0010
1100
0001
0110
1000
1001
0110
0011
0101
1100
1010
0110
0101
,  // measure 64
1001
0010
1100
0001
0110
1000
1001
0100
0011
0110
1100
1010
0110
0001
0101
1000
,  // measure 65
1010
0001
0110
1000
0101
0010
1001
1000
0110
0101
1100
1010
0011
1000
0110
0100
,  // measure 66
1010
1001
0101
1001
2010
0110
3101
0110
1010
1001
0102
0110
1013
1100
1110
0011
,  // measure 67
0102
1100
1013
0110
0102
1100
1013
0110
0101
1101
1010
0110
0111
1001
1100
0111
,  // measure 68
2222
0000
0000
0000
,  // measure 69
0000
3333
0000
0000
,  // measure 70
2100
0010
0001
0001
0100
0010
0100
0001
0001
0010
0100
0001
0100
0010
0100
0100
,  // measure 71
0001
0010
0100
0001
0100
0010
0001
0100
0001
0010
0001
0100
0010
0100
3001
0010
,  // measure 72
1200
0001
1000
0010
0010
0001
1000
0001
0010
1000
1000
0001
0010
0001
1000
0010
,  // measure 73
1000
0001
1000
0010
0001
1000
0010
0001
1000
0001
0010
1000
0001
0010
1300
0010
,  // measure 74
0102
1000
0100
0010
1000
1000
0010
0100
1000
0100
0100
0010
1000
0100
1000
0010
,  // measure 75
0100
0010
1000
0100
0010
1000
0010
0100
1000
0010
1000
0100
0100
0010
1003
0100
,  // measure 76
0021
1000
1000
0001
0100
1000
0001
0001
0100
1000
0100
0001
1000
0001
0130
1000
,  // measure 77
0210
0001
0010
1000
0001
0001
0310
0100
2001
0100
0010
0010
0001
0100
3001
0010
,  // measure 78
1020
0100
0001
0001
0100
1000
0100
0001
1000
0001
0100
1000
0001
0100
1000
0001
,  // measure 79
0001
0100
1000
0100
0001
1000
0100
0001
1000
0100
1000
0001
0100
1000
0130
0010
,  // measure 80
1002
0100
0010
1000
0100
0010
1000
0100
0010
1000
0100
0010
0010
1000
0100
0010
,  // measure 81
1000
0100
0010
1000
0100
0010
1000
0100
0010
0010
1000
0100
0010
1000
0103
0010
,  // measure 82
1200
0001
0010
1000
0001
0010
1000
1000
0001
0010
1000
0001
0010
1000
0301
0010
,  // measure 83
1020
0100
0001
1000
0100
0001
1000
0100
0001
1000
0100
0001
1000
0100
0031
1000
,  // measure 84
2222
0000
0000
0000
,  // measure 85
0000
0000
0000
3333
,  // measure 86
0000
0000
0000
0000
0000
0000
0000
0000
2200
3311
0000
0220
1331
0000
0022
1133
,  // measure 87
1001
0000
0100
0010
1100
0010
0100
0000
1001
0000
0010
0000
0110
0000
1000
0000
1001
0010
0100
0001
0100
0010
1001
0100
0001
0100
0010
1000
0001
0010
0100
1000
,  // measure 88
0101
0000
0010
0001
1010
0001
0010
0000
1100
0000
0001
0000
0110
0000
0100
0000
1001
0010
0100
0001
1000
0100
0101
0010
1000
0001
0010
0100
1000
0001
0100
0010
,  // measure 89
0011
0000
1000
0100
1011
0100
1000
0000
0110
0000
0001
0000
1100
0000
0010
0000
1001
0100
1001
0010
0100
0001
0010
0100
1000
0001
0100
0010
0001
0100
1000
0100
,  // measure 90
1001
0000
0010
1000
0110
1000
0010
0000
1001
0000
0100
0000
0110
0000
0001
0000
1100
0010
1000
0001
0010
0100
1000
0001
0100
1010
0001
0100
1000
0101
0010
1000
,  // measure 91
1001
0000
0100
0010
0101
0010
0100
0000
1001
0000
0010
0000
1100
0000
0100
0000
0011
1000
0100
0010
1000
0001
0010
0100
1000
0001
0100
0010
1000
0100
0011
0100
,  // measure 92
1001
0000
0001
0010
1100
0010
0100
0000
0011
0000
1000
0000
0110
0000
0001
0000
1100
0010
1000
0001
0010
0100
1000
0001
0100
0010
1001
0100
0001
0100
0010
1000
,  // measure 93
1001
0000
0100
0010
1100
0010
0001
0000
0101
0000
1000
0000
1010
0000
0100
0000
1001
0010
0100
0001
1000
0100
0011
1000
0001
0010
0100
1000
0001
0100
0010
1000
,  // measure 94
1001
0000
0000
0000
0000
0000
0000
0000
0000
0000
0000
0000
1000
0000
0000
0000
0000
0000
0100
0000
0000
0000
0000
0000
1010
0000
0000
0000
0000
0000
0100
0000
0000
0000
0000
0000
0010
0000
0000
0000
0000
0000
0000
0000
0000
0000
0000
0000
1001
0000
0000
0000
0000
0000
0000
0000
0000
0000
0000
0000
0010
0000
0000
0000
0000
0000
0000
0000
0000
0000
0000
0000
1100
0000
0000
0000
0000
0000
0000
0000
0001
0000
0000
0000
1000
0000
0000
0000
0000
0000
0000
0000
0000
0000
0000
0000
0110
0000
0000
0000
0000
0000
0001
0000
0000
0000
0000
0000
0010
0000
0000
0000
0000
0000
0100
0000
0000
0000
0000
0000
1000
0000
0000
0000
0000
0000
0001
0000
0000
0000
0000
0000
0100
0000
0000
0000
0000
0000
0010
0000
0000
0000
0000
0000
1000
0000
0000
0000
0000
0000
0100
0000
0000
0000
0000
0000
0011
0000
0000
0000
0000
0000
0100
0000
0000
0000
0000
0000
1001
0000
0000
0000
0000
0000
0010
0000
0000
0000
0000
0000
0100
0000
0000
0000
0000
0000
0001
0000
0000
0000
0000
0000
,  // measure 95
1001
0000
0010
0100
1010
0100
1000
0000
0101
0000
0010
0000
1001
0000
0100
0000
1100
0010
1000
0001
0010
0100
1010
0001
0100
0010
1001
0100
1010
0001
0100
1000
,  // measure 96
1001
0000
0010
0100
0011
0100
1000
0000
1001
0000
0100
0000
0110
0000
1000
0000
0101
0010
1000
0100
0001
0100
0010
1000
0001
0010
0100
1000
0011
0100
0001
1000
,  // measure 97
0110
0000
1000
0001
1100
0001
0010
0000
0101
0000
1000
0000
0110
0000
0001
0000
1001
0100
0010
0001
0010
0100
1000
0001
0100
0010
1001
0100
1000
0010
0100
0001
,  // measure 98
1001
0000
0010
0100
1010
0001
0010
0000
1100
0000
0001
0000
0101
0000
1010
0000
1010
0100
0001
0010
0100
1000
0001
0100
0010
1000
0101
0010
1001
0010
0100
1000
,  // measure 99
1001
0000
0000
0000
0000
0000
0000
0000
0000
0000
0000
0000
0010
0000
0000
0000
0000
0000
0100
0000
0000
0000
0000
0000
0011
0000
0000
0000
0000
0000
0100
0000
0000
0000
0000
0000
1000
0000
0000
0000
0000
0000
0000
0000
0000
0000
0000
0000
0110
0000
0000
0000
0000
0000
0000
0000
0000
0000
0000
0000
0001
0000
0000
0000
0000
0000
0000
0000
0000
0000
0000
0000
1100
0000
0000
0000
0000
0000
0000
0000
0010
0000
0000
0000
1000
0000
0000
0000
0000
0000
0000
0000
0000
0000
0000
0000
0101
0000
0000
0000
0000
0000
0010
0000
0000
0000
0000
0000
1000
0000
0000
0000
0000
0000
0100
0000
0000
0000
0000
0000
0001
0000
0000
0000
0000
0000
0010
0000
0000
0000
0000
0000
0100
0000
0000
0000
0000
0000
1000
0000
0000
0000
0000
0000
0011
0000
0000
0000
0000
0000
0100
0000
0000
0000
0000
0000
1001
0000
0000
0000
0000
0000
0010
0000
0000
0000
0000
0000
0100
0000
0000
0000
0000
0000
1000
0000
0000
0000
0000
0000
0011
0000
0000
0000
0000
0000
0000
0000
0000
0000
0000
0000
,  // measure 100
1100
0000
0010
0000
0001
0000
1100
0000
0010
0000
0001
0000
1100
0000
0010
0000
0001
0000
1100
0000
0010
0000
0001
0000
1100
0000
0010
0000
0001
0000
1100
0000
1001
0000
0000
0000
0011
0000
0000
0000
0110
0000
0000
0000
1100
0000
0000
0000
0011
0000
0100
0000
1000
0000
0011
0000
0100
0000
1000
0000
0011
0000
0100
1000
,  // measure 101
0022
0200
2330
0200
3320
0200
2333
3200
2320
0002
0233
0002
0323
0002
3233
0302
,  // measure 102
2203
0020
3032
0020
2033
0020
3332
0020
2233
0002
0323
0002
0233
0002
3323
0031
,  // measure 103
0222
2003
3002
2003
3002
2003
3002
2003
3002
2003
3002
2003
3002
2003
3332
1003
,  // measure 104
2222
0000
0000
0000
0000
0000
0000
3333
;

//---------------dance-single - ----------------
#NOTES:
     dance-single:
     :
     Medium:
     10:
     0.748,0.879,0.290,0.262,0.512,823.000,51.000,46.000,0.000,0.000:  // measure 1
0000
0000
0000
0000
,  // measure 2
1000
0100
0010
0001
2002
0000
3003
0000
,  // measure 3
0001
0010
0100
1000
2002
0000
3003
0000
,  // measure 4
0100
0010
0001
1000
2002
3003
0220
0330
,  // measure 5
0001
0010
0100
1000
2002
0000
3003
0000
,  // measure 6
1000
0100
0010
0001
0202
0000
0303
0000
,  // measure 7
0001
0010
0100
1000
1000
0100
0010
0001
,  // measure 8
0100
0010
1000
0001
0202
0000
0000
0000
,  // measure 9
0303
0000
0000
0000
0000
0000
0000
0000
0000
0000
0000
0000
0000
0000
1000
0100
,  // measure 10
0010
0001
0010
0100
1000
0001
0100
0010
,  // measure 11
1000
0000
0100
0000
0010
0000
0001
0000
0100
0010
0100
0010
0100
0000
1000
0000
,  // measure 12
0001
0100
0001
0010
0100
1000
0010
0100
,  // measure 13
0001
0000
1000
0000
0100
0000
0010
0000
0001
1000
0001
1000
0001
0000
0100
0000
,  // measure 14
0010
0000
0001
0000
1000
0000
0010
0000
0100
0001
0100
0000
0001
0000
0010
0000
,  // measure 15
0100
0000
1000
0000
0010
0000
0100
0000
0001
1000
0001
0000
0010
0000
0100
0000
,  // measure 16
1000
0100
1000
0100
1000
0100
1000
0100
0010
0001
0010
0001
0010
0001
0010
0001
,  // measure 17
0100
0010
0100
0010
0100
0010
0100
0010
1000
0001
1000
0001
1000
0001
1000
0001
,  // measure 18
2002
0000
0000
0000
,  // measure 19
3003
0000
0000
0000
0000
0000
0000
0000
0010
0000
0000
0010
0000
0000
0010
0000
,  // measure 20
0001
0000
0100
0000
0010
0000
1000
0100
0000
1000
0001
0000
0010
0000
0100
0000
,  // measure 21
1000
0000
0010
0000
0100
0000
0001
1000
0000
0001
0010
0000
0100
0000
1000
0000
,  // measure 22
0010
0000
0100
0000
0001
0000
1000
0100
0000
1000
0010
0000
0100
0000
1000
0000
,  // measure 23
0100
0000
0001
0000
0010
0000
0100
1000
0000
0100
0010
0000
0001
0000
0001
0000
,  // measure 24
0100
0000
0010
0000
1000
0000
0001
0100
0000
0001
0010
0000
0100
0000
1000
0000
,  // measure 25
0010
0000
0100
0000
0001
0000
1000
0100
0000
1000
0010
0000
0100
0000
0001
0000
,  // measure 26
0010
0000
0100
0000
1000
0000
0001
0100
0000
0001
0010
0000
0100
0000
1000
0000
,  // measure 27
0010
0000
0100
0000
0001
0000
1000
0100
0000
1000
0010
0000
0100
0000
0001
0000
,  // measure 28
1000
0000
0100
0000
0010
0000
0011
0000
0000
0001
0100
0000
0110
0000
0000
0000
,  // measure 29
1000
0000
0001
0000
0100
0000
0110
0000
0000
0010
1000
0000
1100
0000
0000
0000
,  // measure 30
0010
0000
0001
0000
1000
0000
1010
0000
0000
0010
0100
0000
0101
0000
0000
0000
,  // measure 31
0001
0000
0010
0000
0100
0000
1100
0000
0000
1000
0010
0000
0110
0000
0000
0000
,  // measure 32
0001
0000
1000
0000
0100
0000
0110
0000
0000
0010
0001
0000
1001
0000
0000
0000
,  // measure 33
1000
0000
0010
0000
0001
0000
0101
0000
0000
0100
0010
0000
1010
0000
0000
0000
,  // measure 34
1000
0000
0100
0000
0010
0000
0011
0000
0000
0001
0100
0000
0110
0000
0000
0000
,  // measure 35
1000
0100
1000
0000
0001
0010
0001
0000
0100
0010
0100
0000
0001
1000
0001
0000
,  // measure 36
0202
0000
0303
1000
1100
0000
0110
0000
,  // measure 37
0022
0000
0033
1000
1000
0001
0101
0000
,  // measure 38
0220
0000
0330
1000
1010
0000
0101
0000
,  // measure 39
0022
0000
0033
0100
0100
1000
1001
0000
,  // measure 40
0202
0000
0303
1000
1001
0000
0011
0000
,  // measure 41
0220
0000
0330
1000
1000
0001
0011
0000
,  // measure 42
2020
0000
3030
0001
0101
0000
0110
0000
,  // measure 43
2200
0000
3300
0001
0001
0010
0110
0000
,  // measure 44
1000
0100
1000
0000
0001
0000
0010
0000
0100
1000
0001
0000
0100
0000
0010
0000
,  // measure 45
1000
0100
0010
0000
0001
0000
0010
0000
0100
1000
0001
0000
0100
0000
0010
0000
,  // measure 46
1000
0100
1000
0000
0001
0000
0010
0000
0100
1000
0100
0000
1000
0000
0010
0000
,  // measure 47
0100
0001
1000
0000
0100
0000
0010
0000
0001
0100
1000
0000
0100
0000
0001
0000
,  // measure 48
1000
0100
0010
0000
0001
0000
0100
0000
0010
1000
0100
0000
0010
0000
0001
0000
,  // measure 49
0100
0010
1000
0000
0001
0000
0010
0000
0100
1000
0100
0000
1000
0000
0010
0000
,  // measure 50
0100
0001
0100
0000
0001
0000
0010
0000
0100
1000
0001
0000
0100
0000
0010
0000
,  // measure 51
1001
0000
1000
0100
1000
0100
1000
0100
1000
0100
1000
0100
1000
0100
1000
0000
,  // measure 52
0010
0100
0001
0010
0100
1000
0010
0100
,  // measure 53
0001
0000
1000
0000
0100
0000
0010
0000
0001
0100
0001
0100
0001
0000
0010
0000
,  // measure 54
0100
1000
0100
0010
0001
0100
0010
1000
,  // measure 55
0100
0000
0001
0000
0010
0000
0100
0000
1000
0001
1000
0001
1000
0000
0100
0000
,  // measure 56
0010
0000
0001
0000
1000
0000
0010
0000
0100
0001
0100
0000
0001
0000
0010
0000
,  // measure 57
0100
0000
1000
0000
0010
0000
0100
0000
0001
1000
0001
0000
0010
0000
0100
0000
,  // measure 58
1000
0001
1000
0000
0100
0000
0010
0000
0001
1000
0001
0000
0010
0000
0100
0000
,  // measure 59
1000
0100
0010
0000
0001
0010
0100
0000
1000
0100
0010
0000
0001
0010
0100
0000
,  // measure 60
1000
0001
0010
0100
1000
0010
0100
0001
,  // measure 61
1000
0000
0100
0000
0001
0000
0100
0000
1000
0010
1000
0010
1000
0000
0001
0000
,  // measure 62
0010
0100
1000
0010
0100
0001
1000
0100
,  // measure 63
0010
0000
0001
0000
0100
0000
0010
0000
1000
0100
1000
0100
1000
0000
0001
0000
,  // measure 64
0100
0000
1000
0000
0100
0000
0010
0000
1000
0001
1000
0000
0100
0000
0010
0000
,  // measure 65
0001
0000
0100
0000
0010
0000
1000
0000
0100
0010
0001
0000
0010
0000
0100
0000
,  // measure 66
1000
0100
0010
0000
0001
0010
0100
0000
1000
0100
0010
0000
0001
0010
0100
0000
,  // measure 67
1000
0010
0100
0000
0001
0100
0010
0000
1000
0010
0100
0000
0001
0100
0010
0000
,  // measure 68
0220
0000
0000
0000
0000
0000
0000
0330
,  // measure 69
0000
0000
0000
0000
,  // measure 70
1000
0100
0000
0000
1000
0100
0000
0000
1000
0100
0000
0000
1000
0100
0000
0000
,  // measure 71
0010
0001
0000
0000
0010
0001
0000
0000
0010
0001
0000
0000
0010
0001
0000
0000
,  // measure 72
0100
0010
0000
0000
0100
0010
0000
0000
0100
0010
0000
0000
0100
0010
0000
0000
,  // measure 73
1000
0001
0000
0000
1000
0001
0000
0000
1000
0001
0000
0000
1000
0001
0000
0000
,  // measure 74
0001
0100
0000
0000
0001
0100
0000
0000
0001
0100
0000
0000
0001
0100
0000
0000
,  // measure 75
0010
1000
0000
0000
0010
1000
0000
0000
0010
1000
0000
0000
0010
1000
0000
0000
,  // measure 76
1000
0001
0000
0000
0001
1000
0000
0000
1000
0001
0000
0000
0001
1000
0000
0000
,  // measure 77
1000
0100
0000
0000
0100
0010
0000
0000
0010
0001
0000
0000
0001
1000
0000
0000
,  // measure 78
1000
0100
1000
0100
0010
0001
0010
0001
,  // measure 79
0100
0010
0100
0010
1000
0001
1000
0001
,  // measure 80
0010
0100
0010
0100
1000
0010
0100
0001
,  // measure 81
0010
0100
1000
0001
0100
1000
0100
0001
,  // measure 82
0100
1000
0100
0001
0100
1000
0100
0001
,  // measure 83
1000
0010
0001
0010
1000
0010
0001
0010
,  // measure 84
2002
0000
0000
0000
,  // measure 85
0000
0000
0000
3003
0000
0000
0000
0000
,  // measure 86
0000
0000
0000
0000
0000
0000
0000
0000
1000
0000
0000
1000
0000
0000
1000
0000
,  // measure 87
0010
0000
0100
0000
0001
0000
1000
0100
1000
0010
0100
0000
0001
0000
0010
0000
,  // measure 88
0100
0000
1000
0000
0001
0000
0100
0010
0100
0010
1000
0000
0100
0000
0010
0000
,  // measure 89
0001
0000
1000
0000
0010
0000
0100
0001
0100
0010
1000
0000
0001
0000
0010
0000
,  // measure 90
0100
0000
1000
0000
0010
0000
0100
0001
1000
0100
1000
0000
0001
0000
0010
0000
,  // measure 91
0100
0000
1000
0000
1000
0000
0010
0100
0001
0010
0001
0000
0100
0000
0010
0000
,  // measure 92
1000
0000
0100
0000
0001
0000
0100
1000
0100
0010
0001
0000
1000
0000
0010
0000
,  // measure 93
0100
0000
0001
0000
0010
0000
0100
1000
0100
0010
0001
0000
1000
0000
0010
0000
,  // measure 94
0100
0001
0100
0001
0100
0001
0100
0001
1000
0010
1000
0010
1000
0010
1000
0010
,  // measure 95
1000
0100
0010
0000
0001
0010
0100
0000
1000
0100
0010
0000
0001
0010
0100
0000
,  // measure 96
1000
0010
0100
0000
0001
0100
0010
0000
1000
0010
0100
0000
0001
0100
0010
0000
,  // measure 97
1000
0001
1000
0000
0001
0010
0100
0000
1000
0001
1000
0000
0100
0010
0001
0000
,  // measure 98
0001
0100
0001
0000
1000
0010
1000
0000
0100
0010
0001
0000
0001
0100
0001
0000
,  // measure 99
1000
0100
0010
0000
0001
0010
0100
0000
1000
0001
0100
0000
0001
0010
0100
0000
,  // measure 100
1000
0100
1000
0100
0010
0001
0010
0001
1000
0001
1000
0001
0010
0100
0010
0100
,  // measure 101
2200
3300
0022
0033
,  // measure 102
0202
0303
2020
3030
,  // measure 103
0220
0000
0000
0330
,  // measure 104
1001
0000
0000
0000
;

//---------------dance-single - ----------------
#NOTES:
     dance-single:
     :
     Easy:
     9:
     0.632,0.791,0.182,0.137,0.285,722.000,32.000,24.000,0.000,0.000:  // measure 1
0000
0000
0000
0000
,  // measure 2
1000
0100
0010
0001
0200
0000
0300
0000
,  // measure 3
0001
0010
0100
1000
0020
0000
0030
0000
,  // measure 4
1000
0100
0010
0001
0200
0000
0320
0000
,  // measure 5
1030
0100
0010
0001
2000
0000
3000
0000
,  // measure 6
0001
0010
0100
1000
0002
0000
0003
0000
,  // measure 7
0100
0010
1000
0100
0010
0001
0100
0010
,  // measure 8
1000
0100
0010
0001
0202
0000
0000
0000
,  // measure 9
0303
0000
0000
0000
0000
0000
0000
0000
0000
0000
0000
0000
0000
0000
1000
0100
,  // measure 10
0010
0001
1000
0010
1000
0100
0010
0001
,  // measure 11
0100
0000
0010
0000
1000
0000
0100
0000
0010
0001
0010
0001
0010
0000
0000
0000
,  // measure 12
0100
1000
0001
0100
0010
1000
0100
0010
,  // measure 13
0001
0000
0100
0000
0010
0000
1000
0000
0100
0010
0100
0010
0100
0000
0000
0000
,  // measure 14
1000
0001
0100
0010
1000
0100
0010
0001
,  // measure 15
0100
0010
1000
0010
0100
0001
0010
0100
,  // measure 16
1000
0010
0000
1000
0100
0000
0010
0000
0001
0100
0000
0001
0010
0000
0100
0000
,  // measure 17
1100
0000
1000
0001
0010
0001
0010
0000
0100
0000
1000
0000
0001
0000
0100
0000
,  // measure 18
2002
0000
0000
0000
,  // measure 19
3003
0000
0000
0000
0000
0000
0000
0000
0010
0000
0000
0010
0000
0000
0010
0000
,  // measure 20
0100
0000
0001
0000
1000
0000
0100
1000
0000
0000
0001
0000
0010
0000
0100
0000
,  // measure 21
1000
0000
0010
0000
0100
0000
0001
0100
0000
0000
0010
0000
1000
0000
0100
0000
,  // measure 22
0010
0000
0001
0000
1000
0000
0010
1000
0000
0000
0100
0000
0010
0000
0001
0000
,  // measure 23
0100
0000
0010
0000
1000
0000
0100
1000
0000
0000
0001
0000
0010
0000
0100
0000
,  // measure 24
1000
0000
0001
0000
0100
0000
0010
0100
0000
0000
1000
0000
0100
0000
0010
0000
,  // measure 25
0001
0000
0100
0000
0010
0000
1000
0010
0000
0000
0100
0000
0001
0000
0010
0000
,  // measure 26
0100
0000
1000
0000
0001
0000
0100
0001
0000
0000
0010
0000
0100
0000
1000
0000
,  // measure 27
0001
0000
0100
0000
0010
0000
1000
0100
0000
0000
1000
0000
0001
0000
0010
0000
,  // measure 28
0100
0000
1000
0000
0001
0000
0100
0001
0000
0000
1000
0000
1000
0000
0000
0000
,  // measure 29
0001
0000
0010
0000
0100
0000
1000
0100
0000
0000
0010
0000
0010
0000
0000
0000
,  // measure 30
0001
0000
0100
0000
0010
0000
1000
0100
0000
0000
0010
0000
0010
0000
0000
0000
,  // measure 31
0001
0000
0100
0000
0010
0000
1000
0010
0000
0000
0001
0000
0001
0000
0000
0000
,  // measure 32
0010
0000
0100
0000
1000
0000
0001
1000
0000
0000
0100
0000
0100
0000
0000
0000
,  // measure 33
0010
0000
0001
0000
1000
0000
0010
1000
0000
0000
0100
0000
0100
0000
0000
0000
,  // measure 34
0010
0000
0001
0000
0010
0000
0100
1000
0000
0000
0001
0000
0001
0000
0000
0000
,  // measure 35
0100
0001
0100
1000
0010
0100
0001
0010
,  // measure 36
0110
0000
0000
1000
1000
0000
0101
0000
,  // measure 37
0011
0000
0000
1000
1000
0001
0101
0000
,  // measure 38
0110
0000
0000
1000
1000
0000
0110
0000
,  // measure 39
0011
0000
0000
0100
0100
1000
1001
0000
,  // measure 40
0101
0000
0000
0010
0010
0000
0110
0000
,  // measure 41
1100
0000
0000
1000
1000
0001
0011
0000
,  // measure 42
0110
0000
0000
1000
1001
0000
0101
0000
,  // measure 43
0110
0000
0000
0001
0001
0010
0110
0000
,  // measure 44
1000
0100
0001
0100
1000
0010
0100
0001
,  // measure 45
0010
1000
0010
0010
0100
0001
0100
0010
,  // measure 46
0001
0100
1000
0100
0010
1000
0001
0010
,  // measure 47
0100
1000
1000
0100
0010
1000
0010
0001
,  // measure 48
0100
1000
0100
0010
1000
0001
0010
0100
,  // measure 49
0001
0100
0010
0001
1000
0100
0010
1000
,  // measure 50
0010
0001
0100
0010
1000
0001
0010
0100
,  // measure 51
1001
0000
1000
0100
1000
0100
1000
0100
1000
0100
1000
0100
1000
0100
1000
0000
,  // measure 52
0010
0100
0001
0010
0100
1000
0010
0100
,  // measure 53
0001
0000
1000
0000
0100
0000
0010
0000
0001
1000
0001
1000
0001
0000
0000
0000
,  // measure 54
0010
0100
1000
0001
0100
0010
1000
0100
,  // measure 55
0010
0000
0001
0000
0100
0000
0010
0000
1000
0100
1000
0100
1000
0000
0000
0000
,  // measure 56
0001
0000
0010
0000
0100
0000
1000
0000
0001
0010
0001
0000
0100
0000
0000
0000
,  // measure 57
1000
0000
0010
0000
0100
0000
0001
0000
0010
0100
0010
0000
0001
0000
0000
0000
,  // measure 58
0100
0010
1000
0000
0001
0000
0001
0000
0010
0100
1000
0000
1000
0000
0001
0000
,  // measure 59
0100
0010
1000
0000
1000
0000
0001
0000
0010
0100
1000
0000
0100
0000
0010
0000
,  // measure 60
0001
1000
0001
0010
0100
1000
0010
0100
,  // measure 61
0001
0000
1000
0000
0100
0000
0010
0000
0001
1000
0001
1000
0001
0000
0000
0000
,  // measure 62
0100
0010
0100
1000
0001
0010
0100
1000
,  // measure 63
0001
0000
0100
0000
0010
0000
1000
0000
0100
0010
0100
0010
0100
0000
0000
0000
,  // measure 64
1000
0000
0001
0000
0010
0000
0100
0000
1000
0001
1000
0000
0001
0000
0000
0000
,  // measure 65
0100
0000
0010
0000
1000
0000
0100
0000
0010
0001
0010
0000
0001
0000
0000
0000
,  // measure 66
1000
0010
1000
0000
0001
0000
0010
0000
0100
1000
0100
0000
0010
0000
0001
0000
,  // measure 67
1000
0010
0100
0000
0001
0000
0010
0000
0100
1000
0001
0000
0100
0000
0010
0000
,  // measure 68
2020
0000
0000
0000
,  // measure 69
3030
0000
0000
0000
,  // measure 70
1000
0000
0000
1000
0100
0000
0000
0000
0010
0000
0000
0010
0001
0000
0000
0000
,  // measure 71
0100
0000
0000
0100
0010
0000
0000
0000
0001
0000
0000
0001
1000
0000
0000
0000
,  // measure 72
0010
0000
0000
0010
0100
0000
0000
0000
1000
0000
0000
1000
0100
0000
0000
0000
,  // measure 73
0001
0000
0000
0001
0100
0000
0000
0000
0010
0000
0000
0010
1000
0000
0000
0000
,  // measure 74
0100
0000
0000
0100
0001
0000
0000
0000
1000
0000
0000
1000
0100
0000
0000
0000
,  // measure 75
0010
0000
0000
0010
0001
0000
0000
0000
0100
0000
0000
0100
0010
0000
0000
0000
,  // measure 76
1000
0000
0000
1000
0001
0000
0000
0000
0010
0000
0000
0010
0100
0000
0000
0000
,  // measure 77
1000
0000
0000
1000
0010
0000
0000
0000
0100
0000
0000
0100
0001
0000
0000
0000
,  // measure 78
1000
0100
1000
0010
0100
0001
0010
0100
,  // measure 79
1000
0010
0010
0100
0001
1000
0100
0000
,  // measure 80
0010
0001
0010
0100
1000
0001
0100
0010
,  // measure 81
1000
0100
0001
0100
1000
0010
0100
0000
,  // measure 82
0001
0010
0100
1000
0010
0100
0001
1000
,  // measure 83
0100
0001
0100
1000
0010
0100
0001
1000
,  // measure 84
2002
0000
0000
0000
,  // measure 85
0000
0000
0000
3003
0000
0000
0000
0000
,  // measure 86
0000
0000
0000
0000
0000
0000
0000
0000
1000
0000
0000
1000
0000
0000
1000
0000
,  // measure 87
0100
0000
0010
0000
0001
0000
1000
0010
0000
1000
0100
0000
0100
0000
0010
0000
,  // measure 88
0001
0000
0100
0000
0001
0000
0010
0100
0000
0100
1000
0000
0010
0000
0100
0000
,  // measure 89
0001
0000
1000
0000
0001
0000
0100
0010
0000
0100
0010
0000
1000
0000
0100
0000
,  // measure 90
0010
0000
0001
0000
0010
0000
0100
1000
0000
1000
0001
0000
0100
0000
0010
0000
,  // measure 91
1000
0000
0100
0000
1000
0000
0001
0100
0000
0001
0010
0000
0100
0000
1000
0000
,  // measure 92
0010
0000
0100
0000
0001
0000
1000
0100
0000
1000
0001
0000
0010
0000
0100
0000
,  // measure 93
1000
0000
0001
0000
0100
0000
0100
0010
0000
1000
0010
0000
1000
0000
0001
0000
,  // measure 94
0010
0100
1000
0001
0100
0010
1001
1100
,  // measure 95
0100
0000
0010
0000
0001
0000
0010
0000
0100
1000
0100
0000
0100
1000
0100
0000
,  // measure 96
1000
0000
0001
0000
0100
0000
0010
0000
1000
0100
1000
0000
1000
0001
1000
0000
,  // measure 97
0001
0000
0010
0000
0100
0000
1000
0000
0001
0010
0001
0000
0001
0100
0001
0000
,  // measure 98
0100
0000
0010
0000
1000
0000
0001
0000
0010
0100
0010
0000
0010
0001
0010
0000
,  // measure 99
0100
0000
1000
0000
0001
0000
0100
0000
0010
1000
0010
0000
0010
0100
0010
0000
,  // measure 100
1001
0000
0001
0100
0001
0100
0001
0100
0001
0100
0001
0100
0001
0100
0010
0000
,  // measure 101
0220
0330
0022
0033
,  // measure 102
0202
0303
2020
3030
,  // measure 103
0220
0000
0000
0330
,  // measure 104
1001
0000
0000
0000
;
