#TITLE:We'll Never Fight Alone;
#SUBTITLE:;
#ARTIST:Xi;
#TITLETRANSLIT:;
#SUBTITLETRANSLIT:;
#ARTISTTRANSLIT:;
#CREDIT:Arvin;
#BANNER:../Tachyon Gamma-bn.png;
#BACKGROUND:../Tachyon Gamma-bg.png;
#LYRICSPATH:;
#CDTITLE:;
#MUSIC:We'll Never Fight Alone.ogg;
#OFFSET:-0.614;
#SAMPLESTART:117.370;
#SAMPLELENGTH:20.000;
#SELECTABLE:YES;
#DISPLAYBPM:185.000;
#BPMS:0.000=185.000;
#STOPS:;
#BGCHANGES:;
// cache tags:
#FIRSTBEAT:16.000;
#LASTBEAT:523.750;
#SONGFILENAME:Songs/Tachyon Gamma/We'll Never Fight Alone - [Arvin]/We'll Never Fight Alone.sm;
#HASMUSIC:1;
#HASBANNER:1;
#MUSICLENGTH:171.873;
// end cache tags

//---------------dance-single - Arvin----------------
#NOTES:
     dance-single:
     Arvin:
     Challenge:
     14:
     1.000,1.000,0.111,0.809,1.000,1305.000,19.000,139.000,10.000,0.000:

0000
0000
0000
0000
,
0000
0000
0000
0000
,
0000
0000
0000
0000
,
0000
0000
0000
0000
,
1000
0010
1000
0001
0010
0001
0100
0010
1000
0100
1000
0001
0100
0001
0010
0100
,
1000
0010
1000
0001
0010
0001
0100
0010
1000
0100
0010
0001
0100
0010
1000
0100
,
0010
0001
0100
0001
0010
0001
0100
0010
1000
0100
1000
0001
0100
0001
0010
0100
,
1000
0010
1000
0001
0010
0001
0100
0010
1000
0100
0010
0001
0100
0010
1000
0100
,
0010
0001
1000
0010
1000
0100
1000
0010
0100
0001
1000
0001
0100
0001
0010
0001
,
1000
0010
1000
0100
1000
0010
1000
0001
0100
0001
0010
0100
1000
0010
0100
0001
,
0010
0100
1000
0010
1000
0001
1000
0100
0010
0001
0100
0001
1000
0001
0010
0100
,
1000
0010
1000
0001
1000
0010
0100
0001
0010
0100
1000
0010
0100
0001
0010
0400
,
0000
0000
0000
0000
,
2300
0000
0000
0000
0000
0000
3010
0100
0002
0000
0000
0000
0000
0000
0000
0000
,
1003
0000
0000
0100
0000
0000
1000
0000
2020
3030
0000
0000
0202
0303
0000
0000
,
0001
0000
0000
1000
0000
0000
0100
0000
0000
0000
0010
0000
0001
0000
1000
0000
,
0010
0000
0000
1000
0000
0000
0001
0000
0202
0303
0000
0000
2020
3030
0000
0000
,
0002
0000
0000
0000
0000
0000
0013
0100
2000
0000
0000
0000
0000
0000
0000
0000
,
3100
0000
0000
0010
0000
0000
0001
0000
0100
0000
0000
0001
0000
0000
1000
0000
,
0200
0000
0000
0000
0000
0000
1300
0000
0001
0000
0000
0100
0000
0000
0001
0000
,
0010
0000
0000
0100
0000
0000
0010
0000
0022
0033
0000
0000
2200
3300
0000
0000
,
0001
0100
0001
0010
0100
0010
0001
0100
0010
1000
0010
0100
0001
1000
0100
0010
,
0001
1000
0001
0100
0001
0010
0001
0100
0001
1000
0100
0010
0001
0100
0010
1000
,
0100
1000
0001
0010
0001
0100
0010
0100
0001
0010
0001
0100
0010
1000
0100
1000
,
0010
0100
0001
0100
0010
0100
0001
0010
0100
1000
0010
0100
0001
0010
0100
0010
,
0002
0000
0000
0000
0000
0000
0103
0010
2000
0000
0000
0000
0000
0000
0000
0000
,
3001
0000
0000
0100
0000
0000
0001
0000
1000
0000
0001
0000
0010
0000
0100
0000
,
1000
0000
0000
0010
0000
0000
0100
0000
0001
0000
0000
0010
0000
0000
0100
0000
,
1000
0000
0001
0100
0010
0100
0001
0100
0010
1000
0001
0100
0001
0010
0001
0100
,
0001
1000
0100
0010
0100
1000
0001
0100
0010
1000
0001
0010
0100
0010
0001
1000
,
0100
1000
0001
0100
0010
0100
0001
1000
0010
1000
0001
0010
0100
0010
0001
1000
,
0100
1000
0001
0100
0010
0100
0001
1000
0100
0010
0001
0100
0010
0100
0001
1000
,
0100
0000
1000
0000
1100
0000
0100
0010
0001
0000
0001
0000
1000
0100
1000
0100
,
0020
0000
0000
0000
0000
0000
0230
0000
0000
0000
0000
0000
1300
0100
0010
0100
,
1000
0000
0000
0010
0000
0000
0100
0000
0001
0000
0000
0010
0000
0000
0100
0000
,
2000
0000
0000
0000
0000
0000
3200
0000
0000
0000
0000
0000
0310
0001
1000
0010
,
0200
0000
0302
0000
,
1003
0010
1000
0010
0100
0001
0100
0001
0010
0100
0010
0100
1000
0001
1000
0001
,
0200
0000
0000
0000
0000
0000
0310
1000
0002
0000
0000
0103
0000
0000
0010
0000
,
1000
0000
0000
0001
0000
0000
0010
0100
2000
0000
0000
3001
0000
0000
0100
0010
,
2000
0000
0000
0000
0000
0000
0000
3000
0001
0000
0000
0100
0000
0000
0010
0000
,
1000
0000
0000
0100
0000
0000
0010
0001
2000
0000
0000
0000
0000
0000
0000
0000
,
3002
0000
0000
0000
0000
0000
0013
0100
2000
0000
0000
3100
0000
0000
0010
0000
,
0001
0000
0000
0100
0000
0000
0010
1000
0002
0000
0000
0013
0000
0000
0100
1000
,
0002
0000
0000
0000
0000
0000
0000
0000
1003
0000
0000
0010
0000
0000
0100
0000
,
0010
0000
0000
1000
0000
0000
0100
0010
0002
0000
0000
1003
0000
0000
0010
0100
,
0001
0010
0001
1000
0010
1000
0100
0010
0001
0100
0001
1000
0100
1000
0010
0100
,
0001
0010
0001
1000
0010
1000
0100
0010
0001
0100
0010
1000
0100
0010
0001
0100
,
0010
1000
0100
1000
0010
1000
0100
0010
0001
0100
0001
1000
0100
1000
0010
0100
,
0001
0010
0001
1000
0010
1000
0100
0010
0001
0100
0010
1000
0100
0010
0001
0100
,
M002
0000
0003
0000
0000
0000
0010
0100
2000
0000
0000
3010
0000
0000
0100
0000
,
0002
0023
0230
2300
,
3020
0030
0000
0000
0200
0300
0000
0000
0002
0003
0000
0000
0000
0000
0000
0000
0000
0000
0000
0000
0000
0000
0000
0000
0000
0000
0000
0000
0000
0000
0000
0000
1000
0000
0000
0000
0010
0000
0000
0000
0100
0000
0000
0000
0000
0000
0000
0000
0000
0000
0000
0000
0000
0000
0000
0000
0000
0000
0000
0000
0000
0000
0000
0000
,
0002
0003
0000
0000
0020
0030
0000
0000
0200
0300
0000
0000
0000
0000
0000
0000
0000
0000
0000
0000
0000
0000
0000
0000
0000
0000
0000
0000
0000
0000
0000
0000
1000
0000
0000
0000
0100
0000
0000
0000
0010
0000
0000
0000
0000
0000
0000
0000
0000
0000
0000
0000
0000
0000
0000
0000
0000
0000
0000
0000
0000
0000
0000
0000
,
0002
0000
0000
0000
0000
0000
0103
0010
1000
0000
0000
0100
0000
0000
1000
0000
,
0002
0203
0320
2030
,
3002
0003
0020
0230
,
2300
0000
0000
3000
0000
0000
0001
0100
0010
0000
1000
0000
0100
0000
0010
0000
,
M002
0000
0003
2000
0000
0000
3001
0100
0020
0000
0000
2030
0000
0000
3001
0010
,
0200
0000
0000
2300
0000
3000
0010
0100
0001
0000
0010
0000
0100
0000
1000
0000
,
0002
0000
0003
2000
0000
0000
3001
0010
0200
0000
0000
2300
0000
0000
3001
0100
,
0020
0000
1030
0000
0000
0000
0100
0010
0001
0000
1000
0000
0010
0000
0100
0000
,
0002
0000
0003
2000
0000
0000
3001
0100
0020
0000
0000
2030
0000
0000
3001
0010
,
0200
0000
0000
2300
0000
3000
0010
0100
0001
0000
0010
0000
0100
0000
1000
0000
,
0002
0000
0000
0023
0000
0000
0130
0000
0200
0000
0000
2300
0000
0000
3001
0000
,
0002
0000
0000
0203
0000
0000
0310
0000
0020
0000
0000
1030
0000
0000
0001
0000
,
1000
0100
0010
0100
1000
0001
0100
0001
0010
0100
0010
0001
1000
0010
0100
0001
,
1000
0100
1000
0010
0100
0001
0010
0001
0100
0010
1000
0100
1000
0010
0100
0001
,
0010
0001
0100
0010
1000
0100
0010
0001
0100
0010
1000
0100
0010
0001
0100
0010
,
1000
0100
1000
0010
0100
0001
0010
0100
1000
0010
0100
0001
0010
0100
1000
0010
,
0200
0001
0001
0320
,
2030
0100
0100
3002
,
2003
0000
3200
0000
1300
0100
0010
0001
2000
0000
3200
0000
1300
0100
0010
0001
,
0200
0000
0320
0000
0130
0010
1000
0001
0200
0000
0320
0000
0130
0001
1000
0100
,
0010
0001
0010
0100
1000
0010
M00M
0010
0001
1000
0100
0010
0100
1000
0001
0100
,
0010
1000
0100
0010
0001
0100
M00M
0100
1000
0010
1000
0001
0100
0001
1000
0001
,
0010
0100
1000
0001
1000
0010
M00M
0010
0001
1000
0100
1000
0010
0100
0001
1000
,
0100
1000
0010
1000
0001
0100
M00M
0100
0010
0001
1000
0100
0010
0100
1000
0001
,
0200
0000
0301
0200
0000
0301
0200
0000
0301
0200
0000
0301
0100
0010
1000
0100
,
0020
0000
0130
0020
0000
0130
0020
0000
0130
0020
0000
0130
0010
0001
1000
0010
,
0100
0000
0010
1000
0000
0001
0010
0100
1000
0000
0001
0100
0000
0010
1000
0001
,
0010
0100
0010
0001
1000
0010
1000
0010
0100
0001
0100
0001
1000
0100
1000
0100
,
0020
0000
0031
1000
1010
0000
0002
0000
,
1003
0100
1000
0001
0101
0000
2000
0000
,
3020
0000
0130
0001
1001
0000
1000
0001
,
1000
0000
0100
0000
0000
0000
0010
0100
1000
0000
0001
0000
0000
0000
0100
0000
,
0020
0000
0000
0000
0130
0000
0001
0000
0011
0000
0000
0000
2000
0000
0000
3000
,
0100
0000
0010
0000
0001
0000
1000
0010
0100
0000
0000
0000
0001
0000
0100
0000
,
0101
1010
0002
0023
,
0230
0000
0000
0000
0000
0000
1300
0001
0100
0000
0010
0000
1000
0000
0001
0000
,
1000
0000
0000
0100
0000
0000
0010
0000
0000
0001
0000
0000
1000
0000
0000
0010
0000
0000
0100
0000
0000
0001
0000
0000
1000
0000
0100
0000
0010
0000
0001
0000
1000
0000
0100
0000
1000
0000
0001
0000
0010
0000
0001
0000
1000
0000
0100
0000
,
0010
0000
0000
0001
0000
0000
1000
0000
0000
0100
0000
0000
1000
0000
0000
0001
0000
0000
0100
0000
0000
0001
0000
0000
1000
0000
0010
0000
0100
0000
0001
0000
1000
0000
0010
0000
1000
0000
0001
0000
0100
0000
0010
0000
1000
0000
0001
0000
,
0200
0000
0000
0310
1000
0000
0001
0100
0000
0010
1000
0000
0001
1000
0100
1000
,
0001
0010
0100
1000
0001
0010
0001
1000
0100
1000
0001
0010
0100
1000
0001
0010
0001
1000
0100
1000
0001
0010
0100
1000
,
0002
0000
0000
0000
0000
0000
0013
0200
0000
0000
0000
0000
0000
0000
0000
0000
,
2300
0000
3100
0010
0100
0010
0001
1000
0001
1000
0010
0100
0010
0100
0001
0010
,
0001
0100
0001
1000
0100
1000
0010
0100
0001
0010
0001
1000
0010
1000
0100
0010
,
0001
0100
0001
1000
0100
1000
0010
0100
0001
0010
0100
1000
0010
0100
0001
0010
,
0100
1000
0010
1000
0100
1000
0010
0100
0001
0010
0001
1000
0010
1000
0100
0010
,
0001
0100
0001
1000
0100
1000
0010
0100
0001
0010
0100
1000
0010
0100
0001
0010
,
0100
1000
0001
0100
0001
0010
0001
0100
0010
1000
0001
1000
0010
1000
0100
1000
,
0001
0100
0001
0010
0001
0100
0001
1000
0010
1000
0100
0010
0001
0100
0010
1000
,
0100
0010
0001
0100
0001
1000
0001
0010
0100
1000
0010
1000
0001
1000
0100
0010
,
0001
0100
0001
1000
0001
0100
0010
1000
0100
0010
0001
0100
0010
1000
0100
0010
,
0002
0000
0000
0000
0000
0000
0103
0010
2000
0000
0000
0000
0000
0000
0000
0000
,
3001
0000
0000
0010
0000
0000
0001
0000
0202
0303
0000
0000
2020
3030
0000
0000
,
1000
0000
0000
0001
0000
0000
0010
0000
0000
0000
0100
0000
1000
0000
0001
0000
,
0100
0000
0000
0001
0000
0000
1000
0000
2020
3030
0000
0000
0202
0303
0000
0000
,
2000
0000
0000
0000
0000
0000
3100
0010
0002
0000
0000
0000
0000
0000
0000
0000
,
0013
0000
0000
0100
0000
0000
1000
0000
0010
0000
0100
0000
0001
0000
1000
0000
,
0100
0000
0000
0010
0000
0000
0100
0000
1000
0000
0000
0010
0000
0000
1000
0000
,
0200
0000
0000
1300
0020
0000
0000
0000
,
1030
0100
1000
0010
0100
0010
1000
0100
1000
0010
0100
0010
1000
0100
1000
0010
,
0100
0001
0100
0010
0100
0001
1000
0001
0100
0001
1000
0001
0010
0001
0100
0001
,
2000
0000
0000
0000
0000
0000
3010
0100
0002
0000
0000
1003
0000
0000
0100
0000
,
1000
0000
0000
0001
0000
0000
0100
0010
2000
0000
0000
3001
0000
0000
0010
0100
,
2000
0000
0000
0000
0000
0000
3001
0000
0100
0000
0000
0001
0000
0000
1000
0000
,
0100
0000
0000
0010
0000
0000
0001
0100
0020
0000
0000
0000
0000
0000
0000
0000
,
2030
0000
0000
0000
0000
0000
3100
0010
0002
0000
0000
0013
0000
0000
0100
0000
,
1000
0000
0000
0010
0000
0000
0100
0001
2000
0000
0000
3100
0000
0000
0010
0001
,
2000
0000
0000
0000
0000
0000
3001
0000
0100
0000
0000
0010
0000
0000
1000
0000
,
0100
0000
0000
1000
0000
0000
0010
0100
0002
0000
0000
1003
0000
0000
0010
0100
,
0001
0100
0010
1000
0100
0010
0100
0010
0001
0100
0010
1000
0100
0010
0100
0010
,
0001
0100
0010
1000
0001
0010
0100
1000
0001
0010
0100
1000
0001
0100
0010
1000
,
0001
0010
0001
1000
0010
1000
0001
0100
0001
1000
0100
1000
0001
0010
0100
1000
,
0001
0100
0010
1000
0001
0100
0010
1000
0001
0010
0100
1000
0001
0100
0001
1000
,
0100
1000
0001
0010
0001
1000
0010
1000
0001
0100
0010
1000
0001
0010
0100
1000
,
0001
0010
0100
1000
0001
0100
0010
1000
0001
0010
0001
1000
0010
1000
0001
0100
,
0001
1000
0100
1000
0001
0010
0100
1000
0001
0100
0010
1000
0001
0100
0010
1000
,
0001
0010
0100
1000
0001
0100
0001
1000
0100
1000
0001
0010
0001
1000
0010
1000
,
0000
0000
0000
0000
0000
0000
2002
0000
0000
0000
0000
0000
3003
1000
0010
0100
;
