#TITLE:MAX 300;
#SUBTITLE:(Super-Max-Me Mix);
#ARTIST:Jondi & Spesh;
#TITLETRANSLIT:;
#SUBTITLETRANSLIT:;
#ARTISTTRANSLIT:;
#CREDIT:;
#BANNER:MAX 300 (Super-Max-Me Mix)-bn.png;
#BACKGROUND:MAX 300 (Super-Max-Me Mix)-bg.png;
#LYRICSPATH:;
#CDTITLE:;
#MUSIC:MAX 300 (Super-Max-Me Mix).ogg;
#OFFSET:-1.055;
#SAMPLESTART:12.950;
#SAMPLELENGTH:12.000;
#SELECTABLE:YES;
#DISPLAYBPM:140.000:320.000;
#BPMS:0.000=300.000,124.000=320.000,252.000=140.000,268.000=300.000,396.000=320.000;
#STOPS:;
#BGCHANGES:0.000=MAX 300 (Super-Max-Me Mix)-bg.png=1.000=0=0=1,
28.000=jb_072.mpg=1.000=0=0=1,
58.000=MAX 300 (Super-Max-Me Mix)-bg.png=1.000=0=0=1,
61.000=EV01452N.mpg=1.000=0=0=1,
92.000=EV01453N.mpg=1.000=0=0=1,
124.000=vol3-24-ntsc.mpg=1.000=0=0=1,
156.000=jb_053.mpg=1.000=0=0=1,
184.000=VOL1-13-NTSC.mpg=1.000=0=0=1,
216.000=739_JumpBack.mpg=1.000=0=0=1,
252.000=669_JumpBack.mpg=1.000=0=0=1,
268.000=EV01442N.mpg=1.000=0=0=1,
284.000=675_JumpBack.mpg=1.000=0=0=1,
300.000=vol4-21-ntsc.mpg=1.000=0=0=1,
332.000=669_JumpBack.mpg=1.000=0=0=1,
348.000=VOL1-15-NTSC.mpg=1.000=0=0=1,
364.000=VOL1-19-NTSC.mpg=1.000=0=0=1,
380.000=vol4-07-ntsc.mpg=1.000=0=0=1,
394.000=MAX 300 (Super-Max-Me Mix)-bg.png=1.000=0=0=1,
396.000=669_JumpBack.mpg=1.000=0=0=1,
412.000=675_JumpBack.mpg=1.000=0=0=1,
428.000=669_JumpBack.mpg=1.000=0=0=1,
444.000=EV01445N.mpg=1.000=0=0=1,
460.000=vol4-04-ntsc.mpg=1.000=0=0=1,
476.000=EV01455N.mpg=1.000=0=0=1,
492.000=vol3-18-ntsc.mpg=1.000=0=0=1,
508.000=VOL1-19-NTSC.mpg=1.000=0=0=1,
517.500=MAX 300 (Super-Max-Me Mix)-bg.png=1.000=0=0=1,
99999=-nosongbg-=1.000=0=0=0 // don't automatically add -songbackground-
;
// cache tags:
#FIRSTBEAT:28.000;
#LASTBEAT:523.000;
#SONGFILENAME:Songs/DDR 4 ITG/MAX 300 (Super-Max-Me Mix)/MAX 300 (Super-Max-Me Mix).sm;
#HASMUSIC:1;
#HASBANNER:1;
#MUSICLENGTH:108.068;
// end cache tags

//---------------dance-single - ----------------
#NOTES:
     dance-single:
     :
     Beginner:
     2:
     0.189,0.358,0.213,0.000,0.000,120.000,23.000,0.000,0.000,0.000:


0000
0000
0000
0000
,
0000
0000
0000
0000
,
0000
0000
0000
0000
,
0000
0000
0000
0000
,
0000
0000
0000
0000
,
0000
0000
0000
0000
,
0000
0000
0000
0000
,
1000
0000
0000
0000
,
0100
0000
0000
0000
,
1000
0000
0000
0000
,
1000
0000
0000
0000
,
0010
0000
0000
0000
,
1000
0000
0000
0000
,
0010
0000
0000
0000
,
1000
0000
0000
0000
,
0000
1001
0000
0000
,
0000
0000
0000
0100
,
0000
0000
0000
0000
,
0001
0000
0000
0000
,
0000
1001
0000
0000
,
0000
0000
0000
0010
,
0000
0000
0000
0000
,
0001
0000
0000
0000
,
0000
0110
0000
0000
,
0000
0000
0000
0010
,
0000
0000
0000
0000
,
0010
0000
0000
0000
,
0000
1001
0000
0000
,
0000
0000
0000
1000
,
0000
0000
0000
0000
,
0010
0000
0000
0000
,
0001
0000
0000
0000
,
0010
0000
0000
0000
,
1000
0000
0000
0000
,
0010
0000
0000
0000
,
0001
0000
0000
0000
,
1000
0000
0000
0000
,
0110
0000
0000
0000
,
0100
0000
0000
0000
,
0110
0000
0000
0000
,
0110
0000
0000
0000
,
0100
0000
0000
0000
,
0010
0000
0000
0000
,
1000
0000
0000
0000
,
0100
0000
0000
0000
,
1000
0000
0000
0000
,
0100
0000
0000
0000
,
0001
0000
0000
0000
,
0010
0000
0000
0000
,
0110
0000
0000
0000
,
0110
0000
0000
0000
,
1000
0000
0000
0000
,
0100
0000
0000
0000
,
1001
0000
0000
0000
,
0110
0000
0000
0000
,
0000
0110
0000
0000
,
0000
0000
0000
0100
,
0000
0000
0000
0000
,
1000
0000
0000
0000
,
0000
0110
0000
0000
,
0000
0000
0000
0001
,
0000
0000
0000
0000
,
0010
0000
0000
0000
,
0110
0000
0001
0000
,
0001
0000
0100
0000
,
0110
0000
1000
0000
,
1000
0000
0100
0000
,
0110
0000
0000
0000
,
0110
0000
0000
0000
,
1001
0000
0000
0000
,
0001
0000
0000
0000
,
1001
0000
0000
0000
,
0110
0000
0000
0000
,
0110
0000
0000
0000
,
1000
0000
0000
0000
,
0010
0000
0000
0000
,
0001
0000
0000
0000
,
0100
0000
0000
0000
,
0001
0000
0000
0000
,
0010
0000
0000
0000
,
0001
0000
0000
0000
,
0010
0000
0000
0000
,
0001
0000
0000
0000
,
1000
0000
0000
0000
,
0100
0000
0000
0000
,
0010
0000
0000
0000
,
1000
0000
0000
0000
,
0100
0000
0000
0000
,
1000
0000
0000
0000
,
0010
0000
0000
0000
,
1000
0000
0000
0000
,
1000
0000
0000
0000
,
0100
0000
0000
0000
,
1000
0000
0000
0000
,
0010
0000
0000
0000
,
0100
0000
0000
0000
,
1000
0000
0000
0000
,
1001
0000
0000
0000
,
0000
0000
0000
0000
,
1000
0000
0000
0000
,
0100
0000
0000
0000
,
0100
0000
0000
0000
,
1000
0000
0000
0000
,
1000
0000
0000
0000
,
1000
0000
0000
0000
,
0100
0000
0000
0000
,
1000
0000
0000
0000
,
1000
0000
0000
0000
,
0100
0000
0000
0000
,
1000
0000
0000
0000
,
0001
0000
0000
0000
,
1000
0000
0000
0000
,
0100
0000
0000
0000
,
0100
0000
0000
0000
,
1000
0000
0000
0000
,
1000
0000
0000
0000
,
0010
0000
0000
0000
,
0100
0000
0000
0000
,
1000
0000
0000
0000
,
1000
0000
0000
0000
,
1000
0000
0000
0000
,
0010
0000
0000
0000
,
0100
0000
0000
0000
,
0100
0000
0000
0000
,
0010
0000
0000
0000
,
0010
0000
0000
0000
,
1000
0000
0000
0000
,
0010
0000
0000
0000
,
0100
0000
0000
0000
,
0110
0000
0000
0000
;

//---------------dance-single - ----------------
#NOTES:
     dance-single:
     :
     Easy:
     6:
     0.549,0.540,0.352,0.296,0.000,345.000,38.000,32.000,0.000,0.000:


0000
0000
0000
0000
,
0000
0000
0000
0000
,
0000
0000
0000
0000
,
0000
0000
0000
0000
,
0000
0000
0000
0000
,
0000
0000
0000
0000
,
0000
0000
0000
0000
,
1000
0000
0001
0000
,
0100
0000
0001
0000
,
1000
0000
0100
0000
,
1000
0000
0001
0000
,
0010
0000
0100
0000
,
1000
0000
0100
0000
,
0010
0000
0100
0000
,
1000
0000
0001
0000
,
0000
0000
1001
0000
0000
1000
0000
0000
,
0010
0000
0000
1000
0000
0000
0100
0000
,
0000
0000
1100
0000
0000
1000
0000
0000
,
0001
0000
0000
0100
0000
0000
0010
0000
,
0000
0000
1010
0000
0000
0100
0000
0000
,
0001
0000
0000
1000
0000
0000
0010
0000
,
0000
0000
0110
0000
0000
0100
0000
0000
,
0001
0000
0000
1000
0000
0000
0100
0000
,
0000
0000
1100
0000
0000
0010
0000
0000
,
0001
0000
0000
0100
0000
0000
0010
0000
,
0000
0000
0101
0000
0000
1000
0000
0000
,
0010
0000
0000
1000
0000
0000
0001
0000
,
0000
0000
0011
0000
0000
0100
0000
0000
,
1000
0000
0000
0100
0000
0000
1000
0000
,
0000
0000
1001
0000
0000
0100
0000
0000
,
0010
0000
0000
1000
0000
0000
0000
0000
,
0001
0100
0001
0000
,
0010
1000
0010
0000
,
1000
0100
1000
0000
,
0010
0001
0010
0000
,
0001
1000
0100
0000
,
1000
0001
0100
0000
,
0101
0000
1100
0000
,
0100
1000
0010
0000
,
0110
0000
0110
0000
,
0110
0000
0110
0000
,
0100
0001
0010
0000
,
0010
0001
1000
0000
,
1000
0010
0100
0000
,
0100
0001
1000
0000
,
1000
0001
0100
0000
,
0100
0010
1000
0000
,
0001
0001
1000
1000
,
0010
0010
0100
0000
,
0101
0000
1100
0000
,
0101
0000
1100
0000
,
1000
1000
0010
0010
,
0100
0100
0001
0000
,
1010
0000
0110
0000
,
0101
0000
1001
0000
,
0000
0000
0110
0000
0000
0100
0000
0000
,
0001
0000
0000
0010
0000
0000
0100
0000
,
0000
0000
1100
0000
0000
0100
0000
0000
,
1000
0000
0000
0001
0000
0000
0100
0000
,
0000
0000
0110
0000
0000
1000
0000
0000
,
0100
0000
0000
1000
0000
0000
0001
0000
,
0000
0000
0101
0000
0000
0100
0000
0000
,
0010
0000
0000
1000
0000
0000
0100
0000
,
0110
1000
0001
0100
,
0001
0001
0100
0001
,
1100
0000
1000
0010
,
1000
0001
0100
0010
,
0110
0000
0100
0000
,
0101
0000
0001
0000
,
1001
0000
1000
0000
,
0001
0100
0001
0000
,
1010
0000
0010
0000
,
0110
0000
0100
0000
,
0101
0000
1100
0000
,
1000
0001
1000
0000
,
0010
0000
0100
0000
,
0001
0000
1000
0000
,
0100
0000
1000
0000
,
0001
0010
0100
1000
,
0010
0000
1000
0000
,
0001
0000
0100
0000
,
0010
0000
0100
0000
,
0001
1000
0010
0010
,
2000
0000
3020
0000
,
0230
0000
0302
0000
,
0023
0000
0230
0000
,
2300
0000
3020
0000
,
0230
0000
0302
0000
,
2003
0000
3002
0000
,
0023
0000
0230
0000
,
2300
0000
3020
0000
,
2030
0000
3002
0000
,
0203
0000
0320
0000
,
2030
0000
3200
0000
,
0320
0000
0032
0000
,
0203
0000
0320
0000
,
2030
0000
3002
0003
,
2002
0000
0000
0000
,
0000
0000
0000
3003
,
1000
0001
1000
0001
,
0100
0001
0100
0001
,
0100
0010
0100
0010
,
1000
0010
1000
0010
,
1000
0001
0100
0001
,
1000
0010
1000
0001
,
0100
0010
0100
0001
,
1000
0100
0010
0100
,
1000
1000
0001
0001
,
0100
0100
0010
0010
,
1000
1000
0010
0010
,
0001
0001
0010
0010
,
1000
1000
0001
0001
,
0100
0100
0010
0010
,
0100
0100
0010
0010
,
1000
1000
0001
0001
,
1000
0010
0100
0001
,
0010
0100
1000
0010
,
0100
0001
0010
0100
,
1000
0010
0100
0001
,
1000
0010
0100
0001
,
1000
0010
0100
0001
,
0010
0100
1000
0001
,
0100
0010
1000
0010
,
0100
0001
1000
0001
,
0010
0100
1000
0100
,
0010
0001
1000
0001
,
1000
0010
0100
0001
,
0010
0100
1000
0010
,
0100
0001
0010
0000
,
1100
0000
0000
0202
0000
0000
0303
0000
;

//---------------dance-single - ----------------
#NOTES:
     dance-single:
     :
     Medium:
     8:
     0.743,0.958,1.000,0.315,0.019,409.000,119.000,34.000,0.000,0.000:


0000
0000
0000
0000
,
0000
0000
0000
0000
,
0000
0000
0000
0000
,
0000
0000
0000
0000
,
0000
0000
0000
0000
,
0000
0000
0000
0000
,
0000
0000
0000
0000
,
1001
0001
0100
1000
,
0100
0001
0101
0000
,
1001
1000
0100
0001
,
0100
1000
1100
0000
,
0110
0010
0001
0100
,
0001
0010
0011
0000
,
0110
0100
1000
0010
,
1000
0100
1010
0000
,
0000
0000
0010
0000
0000
0001
0000
0000
,
0100
0000
0000
1000
0000
0000
1010
0000
,
0000
0000
0010
0000
0000
1000
0000
0000
,
0100
0000
0000
0001
0000
0000
0011
0000
,
0000
0000
1000
0000
0000
0010
0000
0000
,
0001
0000
0000
1000
0000
0000
0110
0000
,
0000
0000
0001
0000
0000
0100
0000
0000
,
1000
0000
0000
0001
0000
0000
0110
0000
,
0000
0000
1001
0000
0000
1100
0000
0000
,
1010
0000
0000
1001
0000
0000
1100
0000
,
0000
0000
1001
0000
0000
0101
0000
0000
,
0011
0000
0000
1001
0000
0000
0101
0000
,
0000
0000
0110
0000
0000
1100
0000
0000
,
0101
0000
0000
0110
0000
0000
1100
0000
,
0000
0000
0110
0000
0000
0011
0000
0000
,
1010
0000
0000
0110
0000
0000
0011
0000
,
1000
0100
1100
0000
,
0001
0100
0101
0000
,
1100
0000
0101
0000
,
1100
0001
0101
0000
,
0001
0100
0101
0000
,
1000
0100
1100
0000
,
0101
0000
1100
0000
,
0101
1000
1100
0000
,
1001
0000
0110
0000
,
1000
0010
1010
0000
,
1001
0000
0110
0000
,
0001
0010
0011
0000
,
0110
0000
1001
0000
,
1010
1000
1100
0000
,
0110
0000
1001
0000
,
0011
0001
0101
0000
,
0001
0100
0001
0100
,
0010
1000
0010
1000
,
0100
1000
0100
1000
,
0001
0100
0101
0001
,
1000
0100
1000
0100
,
0010
0001
0010
0001
,
0100
0001
0100
0001
,
1000
0100
1100
0000
,
2001
0000
0001
0000
0000
0010
0000
0000
,
0001
0000
0000
0100
3000
0000
1001
0000
,
0000
0000
1002
0000
0000
0010
0000
0000
,
1000
0000
0000
0100
0003
0000
1001
0000
,
0000
0000
0210
0000
0000
1000
0000
0000
,
0010
0000
0000
0001
0300
0000
0110
0000
,
0000
0000
0120
0000
0000
1000
0000
0000
,
0100
0000
0000
0001
0030
0000
0110
0000
,
0000
0000
0000
0000
0012
0000
0010
0000
1000
0000
0000
0103
0000
0000
0101
0000
,
0000
0000
0000
0000
2010
0000
0010
0000
0001
0000
0000
3100
0000
0000
1100
0000
,
0000
0000
0000
0000
0021
0000
0001
0000
0100
0000
0000
1030
0000
0000
0011
0000
,
0000
0000
0000
0000
1200
0000
1000
0000
0010
0000
0000
0301
0000
0000
1100
0000
,
2000
0000
3000
1000
0020
0000
0030
0020
,
1000
1000
1030
0000
,
0002
0000
0003
0001
0200
0000
0300
0200
,
0001
0001
0301
0000
,
2000
0000
3000
1000
0200
0000
0300
0200
,
1000
1000
1300
0000
,
0002
0000
0003
0001
0020
0000
0030
0020
,
0001
0001
0031
0000
,
1000
0001
0010
0100
,
1000
0100
0010
0001
,
1000
0001
0010
0100
,
0010
0001
1000
0100
0020
0000
0000
0000
,
0031
1000
0100
0010
,
0001
0010
0100
1000
,
0001
1000
0100
0010
,
0100
1000
0001
0010
0200
0000
0000
0000
,
0300
0000
1020
0000
0000
2030
0000
0000
,
3200
0000
0300
1000
0000
0000
1100
0000
,
0100
0000
0120
0000
0000
0032
0000
0000
,
0203
0000
0300
0010
0000
0000
0110
0000
,
0010
0000
0020
0000
0000
0230
0000
0000
,
2300
0000
3000
0100
0000
0000
0110
0000
,
0010
0000
0020
0000
0000
0032
0000
0000
,
0023
0000
0000
1030
0000
0000
1010
0000
,
1000
0000
1010
0000
0000
0001
0000
0000
,
0100
0000
0000
0001
0000
0000
0101
0000
,
0001
0000
0101
0000
0000
1001
0000
0000
,
0001
0000
0000
0101
0000
0000
1001
0000
,
1000
0000
1001
0000
0000
1100
0000
0000
,
0100
0000
0000
1100
0000
0000
1100
0000
,
0110
0000
0000
0011
0000
0000
0101
0000
,
0000
1001
0000
0000
0110
0000
0000
0000
,
0100
1000
0100
1000
,
0001
0100
0001
0100
,
0010
1000
0010
1000
,
0001
0010
0011
0000
,
0010
0001
0010
0001
,
1000
0010
1000
0010
,
0100
0001
0100
0001
,
1000
0100
1100
0000
,
1000
0010
0001
1000
,
0100
0001
0001
0010
,
1000
0001
0100
1000
,
0001
0100
0101
0000
,
0010
0001
1000
0100
,
0001
0100
1000
0000
,
1001
0000
0110
0000
,
1001
0000
0110
0000
,
1100
0101
1000
0100
,
0001
0000
0100
0000
1000
0100
1000
0000
,
1100
0000
0000
0011
0000
0000
0010
0000
,
1000
0000
0010
0000
0001
0010
0001
0000
,
1010
0000
0000
0110
0000
0000
0001
0000
,
0100
0000
1000
0000
0100
0001
0100
0000
,
0101
0000
0000
1001
0000
0000
0010
0000
,
0100
0000
1000
0000
0001
0100
0001
0000
,
1001
0000
0000
0101
0000
0000
0010
0000
,
0100
0000
0001
0000
1000
0100
1000
0000
,
1100
0000
0000
1001
0000
0000
0010
0000
,
1000
0000
0100
0000
0010
0001
0100
0000
,
1100
0000
0000
0000
0010
1000
0001
0100
,
1000
0100
0001
0010
0001
1000
0100
0000
,
0110
0000
0000
1001
0000
0000
0000
0000
;

//---------------dance-single - ----------------
#NOTES:
     dance-single:
     :
     Hard:
     10:
     0.946,1.000,0.638,0.564,0.019,586.000,69.000,61.000,0.000,0.000:


0000
0000
0000
0000
,
0000
0000
0000
0000
,
0000
0000
0000
0000
,
0000
0000
0000
0000
,
0000
0000
0000
0000
,
0000
0000
0000
0000
,
0000
0000
0000
0000
,
1000
0100
1000
0001
,
1000
0100
1000
0010
,
0100
0001
1000
0001
,
0100
0001
1000
0100
,
0010
0100
1000
0100
,
0010
0100
1000
0001
,
0100
0010
0100
0001
,
0100
0010
1001
0000
,
0000
0000
0020
0000
0000
1030
0000
0000
,
0002
0000
0000
0103
0000
0000
0010
0000
,
0000
0000
0200
0000
0000
0310
0000
0000
,
2000
0000
0000
3100
0000
0000
0010
0000
,
0000
0000
0200
0000
0000
0301
0000
0000
,
0200
0000
0000
1300
0000
0000
0001
0000
,
0000
0000
0200
0000
0000
1300
0000
0000
,
0200
0000
0000
0301
0000
0000
1000
0000
,
0000
0000
1001
0000
0000
1100
0000
0000
,
0101
0000
0000
1100
0000
0000
1001
0000
,
0100
0000
0110
0000
0000
0011
0000
0000
,
0101
0000
0000
0011
0000
0000
0110
0000
,
0100
0000
1001
0000
0000
0011
0000
0000
,
1010
0000
0000
0011
0000
0000
1001
0000
,
0010
0000
0110
0000
0000
1100
0000
0000
,
1010
0000
0000
1100
0000
0000
0110
0000
,
0001
1000
0100
0000
0010
0000
0100
0000
,
1000
0001
0100
0000
1001
0000
0000
0000
,
1000
0001
0010
0000
0100
0000
0010
0000
,
0001
1000
0010
0000
1001
0000
0000
0000
,
1000
0001
0100
0000
0010
0000
0100
0000
,
0001
1000
0100
0000
0010
0000
0100
0000
,
1000
0001
0010
0000
0100
0000
0010
0000
,
0001
1000
0010
0000
1001
0000
0000
0000
,
0200
1300
1100
0100
,
0020
0031
0101
0100
,
0020
1030
1010
0010
,
0200
0301
1001
1000
,
0200
0310
0110
0100
,
2000
3100
1100
1000
,
0002
0013
0011
0001
,
1001
0100
1001
0000
,
0101
0000
0010
0000
0100
0001
0200
0000
,
0301
0100
0002
0000
1003
0000
0010
0000
,
1010
0000
0100
0000
0010
1000
0020
0000
,
1030
0010
2000
0000
3010
0000
1000
0000
,
1100
0000
0010
0000
0100
1000
0200
0000
,
1300
0100
2000
0000
3100
0000
0010
0000
,
0011
0000
0100
0000
0010
0001
0020
0000
,
0031
0010
0002
0000
0013
0000
1001
0000
,
0100
1000
0100
0000
0010
0001
0010
0000
,
0001
1000
0001
0000
1000
0000
0110
0000
,
0100
0001
0100
0000
0010
1000
0010
0000
,
1000
0001
1000
0000
0001
0000
0110
0000
,
0010
0100
0001
0000
0010
0100
1000
0000
,
0010
1000
0100
0000
0010
0001
0100
0000
,
0010
1000
0100
0000
0010
0100
1000
0010
,
0100
0001
0010
0000
0100
0000
0001
1000
,
0110
0000
0000
0000
0001
0000
1000
0000
1001
0000
0000
0011
0000
0000
1100
0000
,
0000
0000
0000
0000
1000
0000
0001
0000
1001
0000
0000
1010
0000
0000
0101
0000
,
0000
0000
0000
0000
0010
0000
0001
0000
0101
0000
0000
1010
0000
0000
1001
0000
,
0000
0000
0000
0000
0010
0000
1000
0000
1100
0000
0000
0011
0000
0000
1001
0000
,
1000
0000
0001
0000
0010
0100
0000
0010
,
0200
0000
1300
0000
0010
0100
0000
0010
,
0200
0000
0301
0000
0100
0010
0000
1000
,
0020
0100
0130
0000
,
0001
0000
1000
0000
0100
0010
0000
0100
,
0020
0000
0031
0000
0100
0010
0000
0100
,
0020
0000
1030
0000
0010
0100
0000
0001
,
0200
0010
0310
0000
,
0100
0001
0100
0000
0001
0000
0100
0000
,
0010
0100
0010
0000
0100
0000
0010
0000
,
1000
0010
1000
0000
0001
0000
0010
0000
,
0100
0010
0100
0010
0002
0000
1003
0000
,
0100
1000
0100
0000
1000
0000
0100
0000
,
0010
0100
0010
0000
0100
0000
0010
0000
,
0001
0010
0001
0000
1000
0000
0010
0000
,
0100
0010
0100
0010
2000
0000
3001
0000
,
0010
0002
0000
0103
0020
0000
1030
0002
,
0000
0013
0200
0000
1000
0000
1300
0000
,
0010
2000
0000
3100
0020
0000
0031
2000
,
0000
3010
0200
0000
0001
0000
0301
0000
,
0100
2000
0000
3100
0020
0000
0130
0002
,
0000
0013
0200
0000
0001
0000
0301
0000
,
0100
0002
0000
0103
0020
0000
0130
2000
,
0000
3010
0200
0000
1000
0000
1300
0000
,
0100
0002
0000
0013
2000
0000
3010
0002
,
0000
0103
0020
0000
1000
0000
1030
0000
,
0001
2000
0000
3010
0002
0000
0013
2000
,
0000
3100
0020
0000
0001
0000
0031
0000
,
1000
0002
0000
0103
0020
0000
1030
0002
,
0000
0103
0020
0000
0100
0000
0130
0000
,
1001
0000
0000
0110
0000
0000
0011
0000
,
0000
1100
0000
0000
1001
0000
0000
0000
,
0100
1000
0100
0000
0010
0001
0010
0000
,
0001
0100
0001
0000
1000
0100
1000
0000
,
0001
1000
0001
0000
0010
0100
0010
0000
,
0001
1000
0100
0000
1000
0001
0100
0000
,
0101
0100
0110
0010
,
1010
1000
1001
0001
,
0101
0100
0001
0100
,
1000
0100
0001
0000
,
0100
0001
0100
0000
0010
1000
0010
0000
,
1000
0100
1000
0000
0001
0100
0001
0000
,
1000
0001
1000
0000
0100
0010
0100
0000
,
1000
0001
0100
0000
0001
1000
0100
0000
,
1000
0100
0001
0100
,
1000
0100
0001
0100
,
1100
0100
0110
0010
,
0011
0001
1001
0000
,
0100
0001
0100
0001
0100
0001
0100
0000
,
0010
1000
0010
1000
0010
1000
0010
0000
,
1000
0100
1000
0100
1000
0100
1000
0000
,
0001
0010
0001
0010
0001
0010
0001
0000
,
0100
0001
1000
0001
1000
0100
0010
0000
,
0010
0100
1000
0001
1000
0001
0100
0000
,
0001
1000
0100
0001
0100
0001
0100
0000
,
1000
0001
0100
1000
0100
1000
0100
0000
,
0001
1000
0001
1000
0001
1000
0001
0100
,
0010
0100
0010
0100
0010
0100
0010
0100
,
0010
1000
0010
1000
0001
0100
0001
0100
,
0001
0010
0001
0010
0100
1000
0100
1000
,
0010
0100
0001
0010
0100
1000
0001
1000
,
0100
0010
0001
0100
0010
1000
0100
0000
,
0110
0000
0000
2002
0000
0000
3003
0000
;

//---------------dance-double - ----------------
#NOTES:
     dance-double:
     :
     Beginner:
     3:
     0.176,0.418,0.130,0.000,0.000,119.000,14.000,0.000,0.000,0.000:


00000000
00000000
00000000
00000000
,
00000000
00000000
00000000
00000000
,
00000000
00000000
00000000
00000000
,
00000000
00000000
00000000
00000000
,
00000000
00000000
00000000
00000000
,
00000000
00000000
00000000
00000000
,
00000000
00000000
00000000
00000000
,
10000000
00000000
00000000
00000000
,
00010000
00000000
00000000
00000000
,
00000100
00000000
00000000
00000000
,
00001000
00000000
00000000
00000000
,
00000010
00000000
00000000
00000000
,
00000100
00000000
00000000
00000000
,
01000000
00000000
00000000
00000000
,
00010000
00000000
00000000
00000000
,
00000000
11000000
00000000
00000000
,
00000000
00000000
00000000
00001000
,
00000000
00000000
00000000
00000000
,
00001000
00000000
00000000
00000000
,
00000000
10010000
00000000
00000000
,
00000000
00000000
00000000
00010000
,
00000000
00000000
00000000
00000000
,
00001000
00000000
00000000
00000000
,
00000000
00001001
00000000
00000000
,
00000000
00000000
00000000
00001000
,
00000000
00000000
00000000
00000000
,
00010000
00000000
00000000
00000000
,
00000000
00101000
00000000
00000000
,
00000000
00000000
00000000
00000001
,
00000000
00000000
00000000
00000000
,
00000100
00000000
00000000
00000000
,
00100000
00000000
00000000
00000000
,
10000000
00000000
00000000
00000000
,
10000000
00000000
00000000
00000000
,
00001000
00000000
00000000
00000000
,
00000100
00000000
00000000
00000000
,
00000100
00000000
00000000
00000000
,
01000000
00000000
00000000
00000000
,
01000000
00000000
00000000
00000000
,
10000000
00000000
00000000
00000000
,
00001000
00000000
00000000
00000000
,
00001000
00000000
00000000
00000000
,
00000100
00000000
00000000
00000000
,
00000001
00000000
00000000
00000000
,
00010000
00000000
00000000
00000000
,
10000000
00000000
00000000
00000000
,
00010000
00000000
00000000
00000000
,
10000000
00000000
00000000
00000000
,
00100000
00000000
00000000
00000000
,
00010000
00000000
00000000
00000000
,
00000100
00000000
00000000
00000000
,
00001000
00000000
00000000
00000000
,
00000010
00000000
00000000
00000000
,
00010000
00000000
00000000
00000000
,
00001000
00000000
00000000
00000000
,
00010000
00000000
00000000
00000000
,
01000000
00000000
00000000
00000000
,
00100000
00000000
00000000
00000000
,
00001000
00000000
00000000
00000000
,
00000100
00000000
00000000
00000000
,
00000010
00000000
00000000
00000000
,
00000100
00000000
00000000
00000000
,
00010000
00000000
00000000
00000000
,
00100000
00000000
01000000
00000000
,
00001000
00000000
00000001
00000000
,
00000110
00000000
00001000
00000000
,
00000110
00000000
00000001
00000000
,
00000100
00000000
00000000
00000000
,
00001000
00000000
00000000
00000000
,
00010000
00000000
00000000
00000000
,
00100000
00000000
00000000
00000000
,
01000000
00000000
00000000
00000000
,
00010000
00000000
00000000
00000000
,
10000000
00000000
00000000
00000000
,
00100000
00000000
00000000
00000000
,
01000000
00000000
00000000
00000000
,
00001000
00000000
00000000
00000000
,
00010000
00000000
00000000
00000000
,
00000010
00000000
00000000
00000000
,
00000100
00000000
00000000
00000000
,
00001000
00000000
00000000
00000000
,
01000000
00000000
00000000
00000000
,
00100000
00000000
00000000
00000000
,
00000000
01000000
00000000
00000000
,
00000000
00000000
00000000
00000110
,
00000000
00000000
00000000
00000000
,
00000100
00000000
00000000
00000000
,
00000000
00010000
00000000
00000000
,
00000000
00000000
00000000
00011000
,
00000000
00000000
00000000
00000000
,
00000001
00000000
00000000
00000000
,
00000000
00000100
00000000
00000000
,
00000000
00000000
00000000
10010000
,
00000000
00000000
00000000
00000000
,
01000000
00000000
00000000
00000000
,
00000000
10000000
00000000
00000000
,
00000000
00000000
00000000
00000110
,
00000000
00000000
00000000
00000000
,
00100000
00000000
00000000
00000000
,
01000000
00000000
00000000
00000000
,
00010000
00000000
00000000
00000000
,
00000001
00000000
00000000
00000000
,
00001000
00000000
00000000
00000000
,
00100000
00000000
00000000
00000000
,
00100000
00000000
00000000
00000000
,
00100000
00000000
00000000
00000000
,
00001000
00000000
00000000
00000000
,
00000010
00000000
00000000
00000000
,
00000010
00000000
00000000
00000000
,
00000010
00000000
00000000
00000000
,
01000000
00000000
00000000
00000000
,
10000000
00000000
00000000
00000000
,
00010000
00000000
00000000
00000000
,
01000000
00000000
00000000
00000000
,
00001000
00000000
00000000
00000000
,
00010000
00000000
00000000
00000000
,
00000010
00000000
00000000
00000000
,
00000001
00000000
00000000
00000000
,
00000100
00000000
00000000
00000000
,
00001000
00000000
00000000
00000000
,
01000000
00000000
00000000
00000000
,
00100000
00000000
00000000
00000000
,
01000000
00000000
00000000
00000000
,
10010000
00000000
00000000
00000000
,
00010000
00000000
00000000
00000000
,
00000110
00000000
00000000
00000000
,
00000001
00000000
00000000
00000000
,
00001001
00000000
00000000
00000000
,
00000100
00000000
00000000
00000000
,
00011000
00000000
00000000
00000000
;

//---------------dance-double - ----------------
#NOTES:
     dance-double:
     :
     Easy:
     6:
     0.508,0.599,0.231,0.000,0.000,359.000,25.000,0.000,0.000,0.000:


00000000
00000000
00000000
00000000
,
00000000
00000000
00000000
00000000
,
00000000
00000000
00000000
00000000
,
00000000
00000000
00000000
00000000
,
00000000
00000000
00000000
00000000
,
00000000
00000000
00000000
00000000
,
00000000
00000000
00000000
00000000
,
10000000
00000000
01000000
00000000
,
00010000
00000000
00001000
00000000
,
00000100
00000000
00000010
00000000
,
00001000
00000100
00000100
00000000
,
00000010
00000000
00000001
00000000
,
00000100
00000000
00010000
00000000
,
01000000
00000000
10000000
00000000
,
00010000
00100000
00100000
00000000
,
00000000
00000000
11000000
00000000
00000000
10000000
00000000
00000000
,
00100000
00000000
00000000
00010000
00000000
00000000
00001000
00000000
,
00000000
00000000
00000110
00000000
00000000
00000001
00000000
00000000
,
00001000
00000000
00000000
00100000
00000000
00000000
10000000
00000000
,
00000000
00000000
10100000
00000000
00000000
10000000
00000000
00000000
,
01000000
00000000
00000000
00100000
00000000
00000000
00010000
00000000
,
00000000
00000000
10010000
00000000
00000000
00100000
00000000
00000000
,
00001000
00000000
00000000
00010000
00000000
00000000
00000100
00000000
,
00000000
00000000
00001001
00000000
00000000
00000100
00000000
00000000
,
00000001
00000000
00000000
00000010
00000000
00000000
00001000
00000000
,
00000000
00000000
00011000
00000000
00000000
01000000
00000000
00000000
,
00010000
00000000
00000000
00100000
00000000
00000000
00010000
00000000
,
00000000
00000000
00101000
00000000
00000000
00010000
00000000
00000000
,
00000100
00000000
00000000
00000010
00000000
00000000
00000001
00000000
,
00000000
00000000
00000110
00000000
00000000
00000001
00000000
00000000
,
00000100
00000000
00000000
00001000
00000000
00000000
01000000
00000000
,
00100000
01000000
00100000
00000000
,
10000000
00010000
10000000
00000000
,
10000000
01000000
00010000
00000000
,
00001000
00000100
00000001
00000000
,
00000100
00000010
00000001
00000000
,
00000100
00001000
00010000
00000000
,
01000000
10000000
00100000
00000000
,
01000000
00010000
10000000
00000000
,
10000000
01000000
00100000
00000000
,
00001000
00010000
00000010
00000000
,
00001000
00000001
00000010
00000000
,
00000100
00001000
00000001
00000000
,
00000001
00000010
00001000
00000000
,
00010000
00100000
10000000
00000000
,
10000000
01000000
10000000
00100000
,
00010000
00001000
00010000
01000000
,
10000000
01000000
10000000
00000000
,
00100000
00010000
00100000
00000000
,
00010000
00001000
00010000
00000000
,
00000100
00000010
00000100
00000000
,
00001000
00000001
00001000
00000000
,
00000010
00010000
00000010
00000000
,
00010000
00000100
00010000
00000000
,
00001000
01000000
00001000
00000000
,
00010000
01000000
00010000
00000000
,
01000000
00100000
01000000
00000000
,
00100000
00001000
00100000
00000000
,
00001000
00010000
00001000
00000000
,
00000100
00000001
00000100
00000000
,
00000010
00001000
00000010
00000000
,
00000100
00000001
00000100
00001000
,
00010000
01000000
10000000
00100000
,
00100000
10000000
01000000
00010000
,
00001000
00000100
00000001
00000010
,
00001100
00000100
00001000
00000000
,
00000101
00000100
00000001
00000000
,
00000100
00001000
00010000
00000000
,
00001000
00010000
00100000
00000000
,
00010000
00100000
01000000
00000000
,
00100000
01000000
00010000
00000000
,
01000000
00010000
10000000
00000000
,
00010000
10000000
00100000
00000000
,
10000000
00100000
01000000
00000000
,
00100000
01000000
00001000
00000000
,
01000000
00001000
00010000
00000000
,
00001000
00010000
00000010
00000000
,
00010000
00000010
00000100
00000000
,
00000010
00000100
00001000
00000000
,
00000100
00001000
00010000
00000000
,
00001000
00010000
01000000
00000000
,
01000000
00010000
00001000
00010000
,
00100000
10000000
01000000
10000000
,
00000000
00000000
01000000
00000000
00000000
00001000
00000000
00000000
,
00000100
00000000
00000000
00000001
00000000
00000000
00000110
00000000
,
00000000
00000000
00000001
00000000
00000000
00000010
00000000
00000000
,
00000100
00000000
00000000
00010000
00000000
00000000
00101000
00000000
,
00000000
00000000
00010000
00000000
00000000
00100000
00000000
00000000
,
00010000
00000000
00000000
01000000
00000000
00000000
00011000
00000000
,
00000000
00000000
00001000
00000000
00000000
00000010
00000000
00000000
,
00000001
00000000
00000000
00000100
00000000
00000000
00001001
00000000
,
00000000
00000000
00000100
00000000
00000000
00010000
00000000
00000000
,
00001000
00000000
00000000
00100000
00000000
00000000
10010000
00000000
,
00000000
00000000
00010000
00000000
00000000
00100000
00000000
00000000
,
01000000
00000000
00000000
10000000
00000000
00000000
10100000
00000000
,
00000000
00000000
10000000
00000000
00000000
00100000
00000000
00000000
,
00001000
00000000
00000000
00000010
00000000
00000000
00000110
00000000
,
00000000
00000000
00001000
00000000
00000000
00010000
00000000
00000000
,
00100000
00000000
00000000
10000000
00000000
00000000
00000000
00000000
,
01000000
00010000
00001000
00000000
,
00010000
00001000
00000010
00000000
,
00000001
00000100
00001000
00010000
,
00001000
00010000
01000000
00000000
,
00100000
10000000
01000000
00000000
,
00100000
00010000
01000000
00000000
,
00100000
10000000
01000000
00010000
,
00001000
00000100
00000001
00000000
,
00000010
00001000
00000001
00000000
,
00000010
00000001
00001000
00000000
,
00000010
00010000
00001000
00010000
,
01000000
10000000
00100000
00000000
,
10000000
01000000
00010000
00000000
,
00010000
01000000
00100000
00000000
,
01000000
10000000
00010000
01000000
,
00001000
00010000
00001000
00000000
,
00010000
00001000
00000010
00000000
,
00000010
00000001
00000100
00000000
,
00000001
00000100
00000010
00001000
,
00000100
00010000
00001000
00000000
,
00001000
00010000
01000000
00000000
,
01000000
10000000
00010000
00000000
,
00100000
10000000
01000000
00010000
,
01000000
10000000
00010000
00000000
,
10010000
00000000
00000000
10010000
00000000
00000000
01000000
00000000
,
00010000
00001000
00000100
00000000
,
00000110
00000000
00000000
00000110
00000000
00000000
00000100
00000000
,
00000001
00001000
00000100
00000000
,
00001001
00000000
00000000
00001001
00000000
00000000
00000010
00000000
,
00000100
00010000
00001000
00000000
,
00011000
00000000
00000000
00011000
00000000
00000000
00000000
00000000
;

//---------------dance-double - ----------------
#NOTES:
     dance-double:
     :
     Medium:
     9:
     0.621,0.720,0.611,0.093,0.037,394.000,66.000,10.000,0.000,0.000:


00000000
00000000
00000000
00000000
,
00000000
00000000
00000000
00000000
,
00000000
00000000
00000000
00000000
,
00000000
00000000
00000000
00000000
,
00000000
00000000
00000000
00000000
,
00000000
00000000
00000000
00000000
,
00000000
00000000
00000000
00000000
,
10000000
00100000
10000000
00000000
,
00010000
01000000
00010000
00000000
,
00100000
00010000
01000000
00001000
,
00010000
00000100
00001000
00000000
,
00000010
00001000
00000100
00000000
,
00001000
00000001
00000100
00000000
,
00001000
00010000
00100000
00010000
,
00001000
00010000
01000000
10000000
,
00000000
00000000
12000000
00000000
00000000
10000000
00000000
00000000
,
03100000
00000000
00000000
00001000
00000000
00000000
00010000
00000000
,
00000000
00000000
00002010
00000000
00000000
00000001
00000000
00000000
,
00003100
00000000
00000000
00010000
00000000
00000000
00001000
00000000
,
00000000
00000000
00120000
00000000
00000000
10000000
00000000
00000000
,
01030000
00000000
00000000
00100000
00000000
00000000
01000000
00000000
,
00000000
00000000
20100000
00000000
00000000
01000000
00000000
00000000
,
30010000
00000000
00000000
01000000
00000000
00000000
00001000
00000000
,
00000000
00000000
00010020
00000000
00000000
00001000
00000000
00000000
,
00000130
00000000
00000000
00000010
00000000
00000000
00000100
00000000
,
00000000
00000000
00000201
00000000
00000000
00000010
00000000
00000000
,
00001300
00000000
00000000
00010000
00000000
00000000
00100000
00000000
,
00000000
00000000
21000000
00000000
00000000
00100000
00000000
00000000
,
30010000
00000000
00000000
00100000
00000000
00000000
00001000
00000000
,
00000000
00000000
00020100
00000000
00000000
00001000
00000000
00000000
,
00030010
00000000
00000000
00000100
00000000
00000000
00001000
00000000
,
01000000
00100000
01000000
00000000
,
10000000
00010000
10000000
00000000
,
10000000
01000000
00010000
00001000
,
00000100
00000001
00000010
00000000
,
00000100
00001000
00000010
00000000
,
00001000
00000001
00000100
00000000
,
00000010
00010000
00001000
00010000
,
00100000
00010000
00001000
00000000
,
00010000
01000000
10000000
00000000
,
10000000
01000000
00100000
00000000
,
10000000
01000000
00100000
00010000
,
01000000
00010000
10000000
00000000
,
00100000
00010000
00001000
00000000
,
00010000
00001000
00000100
00000000
,
00000100
00001000
00000010
00001000
,
00010000
00001000
00010000
01000000
,
00010000
01000000
01010000
00000000
,
00100000
00010000
00110000
00000000
,
00001000
00010000
00011000
00000000
,
00000100
00000010
00000110
00000000
,
00000001
00001000
00001001
00000000
,
00000010
00010000
00010010
00000000
,
00010000
00000100
00010100
00000000
,
00001000
01000000
01001000
00000000
,
00010000
10000000
10010000
00000000
,
01000000
00100000
01100000
00000000
,
00100000
00001000
00101000
00000000
,
00010000
00000100
00010100
00000000
,
00001000
00000100
00001100
00000000
,
00000001
00000100
00000101
00000000
,
00000010
00000001
00000100
00001000
,
00010000
01000000
10000000
00100000
,
00100000
00000000
00000000
00000000
10000000
00000000
10000000
00000000
01000000
00000000
00000000
00010000
00000000
00000000
00000000
00001000
,
00000000
00000000
00000000
00000000
00000100
00000000
00000100
00000000
00000001
00000000
00000000
00000010
00000000
00000000
00000000
00001000
,
00000000
00000000
00000000
00000000
00010000
00000000
00010000
00000000
00100000
00000000
00000000
10000000
00000000
00000000
00000000
01000000
,
00000000
00000000
00000000
00000000
00010000
00000000
00010000
00000000
00001000
00000000
00000000
00000010
00000000
00000000
00000000
00000010
,
00000001
00000000
00000001
00000000
00000001
00000100
00000000
00000000
,
00000001
00000000
00000001
00000000
00000001
00000010
00000000
00000000
,
00000100
00000000
00000100
00000000
00000100
00001000
00000000
00000000
,
00000010
00010000
00010000
00000000
,
00001000
00000000
00001000
00000000
00001000
00010000
00000000
00000000
,
01000000
00000000
01000000
00000000
01000000
00100000
00000000
00000000
,
00010000
00000000
00010000
00000000
00010000
01000000
00000000
00000000
,
10000000
10000000
10000000
00000000
,
10000000
00100000
00010000
00001000
,
00010000
01000000
10000000
00000000
,
00100000
00001000
00010000
00001000
,
00000010
00000001
00001000
00000000
,
00000001
00000100
00000010
00001000
,
00000100
00010000
00001000
00000000
,
00000100
00010000
00001000
00000100
,
00000001
00001000
00000010
00000000
,
00000000
00000000
00001001
00000000
00000000
00011000
00000000
00000000
,
00010100
00000000
00000000
00011000
00000000
00000000
01001000
00000000
,
00000000
00000000
01010000
00000000
00000000
11000000
00000000
00000000
,
00110000
00000000
00000000
00101000
00000000
00000000
00011000
00000000
,
00000000
00000000
00010010
00000000
00000000
00001010
00000000
00000000
,
00001001
00000000
00000000
00001100
00000000
00000000
00000101
00000000
,
00000000
00000000
00001001
00000000
00000000
00001010
00000000
00000000
,
00001001
00000000
00000000
00010010
00000000
00000000
00011000
00000000
,
00000000
00000000
00101000
00000000
00000000
00110000
00000000
00000000
,
01100000
00000000
00000000
11000000
00000000
00000000
10010000
00000000
,
00000000
00000000
01010000
00000000
00000000
01001000
00000000
00000000
,
00011000
00000000
00000000
10000000
00000000
00000000
00011000
00000000
,
00000000
00000000
00000001
00000000
00000000
00011000
00000000
00000000
,
00010010
00000000
00000000
00011000
00000000
00000000
00101000
00000000
,
00000000
00000000
00011000
00000000
00000000
01001000
00000000
00000000
,
00110000
00000000
00000000
10000000
00000000
00000000
00000000
00000000
,
01000000
00010000
00001000
00010000
,
00001000
00010000
01000000
00000000
,
01000000
00010000
00001000
00000010
,
00001000
00010000
00001000
00000000
,
00010000
00001000
00000100
00000001
,
00000100
00000010
00001000
00000000
,
00000010
00000001
00000100
00001000
,
00010000
01000000
10000000
00000000
,
00100000
10000000
01000000
10000000
,
00100000
00010000
00001000
00000000
,
00010000
00001000
00010000
00001000
,
00000100
00001000
00010000
00000000
,
00001000
00000100
00000001
00000100
,
00000010
00001000
00000100
00000000
,
00000001
00000100
00001000
00010000
,
01000000
10000000
00010000
00000000
,
00100000
00001000
00010000
00000010
,
00010000
00000100
00010000
00000000
,
00001000
01000000
00001000
00010000
,
00000010
00010000
00001000
00000000
,
00010000
01000000
10000000
01000000
,
00100000
10000000
00010000
00000000
,
00100000
10000000
01000000
00010000
,
01000000
10000000
00010000
00000000
,
10010000
00000000
00000000
01100000
00000000
00000000
00100000
00000000
,
00010000
01000000
00001000
00000000
,
00011000
00000000
00000000
00001001
00000000
00000000
00000100
00000000
,
00001000
00000001
00000100
00000010
,
00000110
00000000
00000000
00001010
00000000
00000000
00000010
00000000
,
00010000
00001000
00010000
00001000
,
00011000
00000000
00000000
00022000
00000000
00000000
00033000
00000000
;

//---------------dance-double - ----------------
#NOTES:
     dance-double:
     :
     Hard:
     10:
     0.932,1.000,0.990,0.509,0.019,543.000,107.000,55.000,0.000,0.000:


00000000
00000000
00000000
00000000
,
00000000
00000000
00000000
00000000
,
00000000
00000000
00000000
00000000
,
00000000
00000000
00000000
00000000
,
00000000
00000000
00000000
00000000
,
00000000
00000000
00000000
00000000
,
00000000
00000000
00000000
00000000
,
00011000
00010000
00001000
00010000
,
01000000
00010000
01000000
10000000
,
01000000
10000000
00100000
00010000
,
00100000
00010000
00001000
00011000
,
00001000
00010000
00001000
00000100
,
00001000
00000100
00000001
00000100
,
00000001
00000010
00001000
00000010
,
00001000
00010000
00001000
00011000
,
00000000
00000000
00001100
00000000
00000000
00001001
00000000
00000000
,
00000101
00000000
00000000
00001001
00000000
00000000
00001001
00000000
,
00000000
00000000
00000110
00000000
00000000
00001001
00000000
00000000
,
00000011
00000000
00000000
00001010
00000000
00000000
00011000
00000000
,
00000000
00000000
00011000
00000000
00000000
00110000
00000000
00000000
,
10100000
00000000
00000000
10010000
00000000
00000000
01100000
00000000
,
00000000
00000000
10010000
00000000
00000000
10010000
00000000
00000000
,
11000000
00000000
00000000
10010000
00000000
00000000
01010000
00000000
,
00000000
00000000
01010000
00000000
00000000
10010000
00000000
00000000
,
11000000
00000000
00000000
10010000
00000000
00000000
10010000
00000000
,
00000000
00000000
01100000
00000000
00000000
10010000
00000000
00000000
,
10100000
00000000
00000000
00110000
00000000
00000000
00011000
00000000
,
00000000
00000000
00011000
00000000
00000000
00001010
00000000
00000000
,
00000011
00000000
00000000
00001001
00000000
00000000
00000110
00000000
,
00000000
00000000
00001001
00000000
00000000
00001001
00000000
00000000
,
00000101
00000000
00000000
00001001
00000000
00000000
00001100
00000000
,
00001000
00000001
00000101
00000001
,
00000010
00000100
00001100
00001000
,
00000100
00010000
00011000
00001000
,
01000000
00010000
01010000
01000000
,
00100000
10000000
10100000
00100000
,
01000000
00010000
01010000
01000000
,
00001000
00010000
00011000
00001000
,
00010000
00000100
00001100
00001000
,
00001001
00000000
00000100
00000000
00000010
00000001
00000010
00000000
,
00000100
00000000
00001000
00000000
00000010
00001000
00000010
00000000
,
00001000
00000000
00000100
00000000
00010000
00001000
00010000
00000000
,
00001000
00000000
01000000
00000000
00010000
00100000
00010000
00000000
,
10000000
01000000
10000000
00000000
00010000
01000000
00010000
00000000
,
10000000
00100000
10000000
00000000
00010000
00100000
00010000
00000000
,
00100000
01000000
00100000
00000000
00001000
00010000
00001000
00000000
,
00010000
00001000
00010000
00000000
00000010
00000100
00000010
00000100
,
00000001
00001000
00001001
00000001
,
00000100
00000000
00001000
00000000
00010000
00001000
00010000
00000000
,
01000000
00100000
10010000
10000000
,
01000000
00000000
00010000
00000000
00001000
00010000
00001000
00000000
,
00000100
00000010
00001001
00000001
,
00000010
00000000
00001000
00000000
00010000
00001000
00010000
00000000
,
01000000
00100000
10010000
10000000
,
00100000
00000000
00010000
00000000
00001000
00010000
00001000
00000000
,
00000000
00000000
00011000
00000000
00010000
01000000
00000000
01000000
,
10000000
00000000
10000000
00100000
00000000
00000000
20020000
00000000
,
30030000
00000000
10010000
00000000
00100000
00010000
00000000
00010000
,
00001000
00000000
00001000
00010000
00000000
00000000
00022000
00000000
,
00033000
00000000
00011000
00000000
00001000
00010000
00000000
00010000
,
00001000
00000000
00001000
00000010
00000000
00000000
00002002
00000000
,
00003003
00000000
00001001
00000000
00000010
00000001
00000000
00000001
,
00000100
00000000
00000100
00001000
00000000
00000000
00011000
00000000
,
00000000
00000000
00000000
00000000
00010000
00000000
01000000
00000000
11000000
00000000
00000000
10100000
00000000
00000000
00110000
00000000
,
00000000
00000000
00000000
00000000
00010000
00000000
00100000
00000000
10100000
00000000
00000000
11000000
00000000
00000000
01010000
00000000
,
00000000
00000000
00000000
00000000
00001000
00000000
00000100
00000000
00000101
00000000
00000000
00000011
00000000
00000000
00001010
00000000
,
00000000
00000000
00000000
00000000
00001000
00000000
00000010
00000000
00000011
00000000
00000000
00000101
00000000
00000000
00001100
00000000
,
00001001
00000000
00000000
00000001
00000100
00000000
00000000
00000100
,
00000001
00000101
00002002
00003003
,
00001001
00000000
00000000
00001000
00000100
00000000
00000000
00000100
,
00001000
00001100
00022000
00033000
,
00011000
00000000
00000000
00010000
01000000
00000000
00000000
01000000
,
00010000
01010000
20020000
30030000
,
10010000
00000000
00000000
10000000
01000000
00000000
00000000
01000000
,
10000000
11000000
20020000
30030000
,
10000000
00000000
01000000
00000000
00100000
00010000
00100000
00000000
,
00010000
00000000
01000000
00000000
00100000
10000000
00100000
00000000
,
10000000
00000000
00010000
00000000
10000000
01000000
10000000
00010000
,
01000000
00001000
00010000
00001000
00000200
00000000
00000300
00000000
,
00000001
00000000
00000100
00000000
00000010
00001000
00000010
00000000
,
00001000
00000000
00000100
00000000
00000010
00000001
00000010
00000000
,
00000001
00000000
00001000
00000000
00000001
00000100
00000001
00001000
,
00000100
00010000
00001000
00010000
02000000
00000000
03000000
00000000
,
20010000
00000000
00000000
32000000
00000000
00000000
03020000
00000000
,
00000000
00032000
00000000
00000000
00003200
00000000
00000301
00000000
,
00001002
00000000
00000000
00000203
00000000
00000000
00002300
00000000
,
00000000
00023000
00000000
00000000
02030000
00000000
13000000
00000000
,
20010000
00000000
00000000
30200000
00000000
00000000
00320000
00000000
,
00000000
00032000
00000000
00000000
00003020
00000000
00000031
00000000
,
00001002
00000000
00000000
00000023
00000000
00000000
00002030
00000000
,
00000000
00023000
00000000
00000000
00230000
00000000
10300000
00000000
,
02100000
00000000
00000000
03002000
00000000
00000000
00023000
00000000
,
00000000
00032000
00000000
00000000
00003020
00000000
00000130
00000000
,
00000210
00000000
00000000
00020300
00000000
00000000
00032000
00000000
,
00000000
00023000
00000000
00000000
00230000
00000000
01300000
00000000
,
20100000
00000000
00000000
32000000
00000000
00000000
03020000
00000000
,
00000000
00032000
00000000
00000000
00023000
00000000
00031000
00000000
,
00011000
00000000
00000000
00011000
00000000
00000000
00011000
00000000
,
00000000
00011000
00000000
00000000
00010000
00000000
00001000
00000000
,
00011000
00000000
00010000
00000000
01000000
10000000
01000000
00000000
,
10000000
00000000
00100000
00000000
01000000
00010000
01000000
00000000
,
00001000
00000000
00010000
00000000
00001000
00000100
00001000
00000000
,
00000100
00000000
00000001
00000000
00000010
00000001
00000010
00000000
,
00001001
00000000
00000010
00000000
00000001
00000100
00001000
00000000
,
00010000
00000000
00001000
00000000
00010000
01000000
10000000
00000000
,
01000000
00000000
01000000
00000000
10000000
00100000
00010000
00000000
,
00001000
00000000
00010000
00000000
00001000
00000010
00000001
00000000
,
00000010
00000100
00001000
00000000
00000100
00010000
00001000
00000000
,
00010000
00001000
01000000
00000000
00010000
01000000
00100000
00000000
,
01000000
00100000
10000000
00000000
00010000
01000000
00001000
00000000
,
00010000
00000010
00001000
00000000
00000001
00000100
00001000
00000000
,
00010000
00001000
00010000
00000100
00010000
00001000
00010000
00000000
,
00001000
00010000
00001000
01000000
00001000
00010000
00001000
00000000
,
02001000
03001000
00012000
00013000
,
00020100
00030100
00012000
00013000
,
00010000
01000000
10000000
00000000
10000000
01000000
10000000
00000000
,
00100000
10000000
01000000
00000000
00100000
00010000
01000000
00000000
,
00010000
10000000
01000000
00000000
00100000
00001000
00010000
00000000
,
00001000
00010000
00000010
00000000
00001000
00000001
00000100
00000000
,
00000010
00001000
00000010
00001000
00000001
00000100
00000001
00000000
,
00000010
00000001
00001000
00000100
00010000
00001000
00010000
00000000
,
00001000
00010000
00001000
01000000
00010000
10000000
00100000
00000000
,
10000000
01000000
10000000
00010000
00100000
00010000
10000000
00000000
,
00010000
10000000
00010000
10000000
01000000
10000000
01000000
00100000
,
00010000
00100000
00010000
00100000
00001000
00010000
00001000
00010000
,
00000010
00001000
00000010
00001000
00000001
00000010
00000001
00001000
,
00000100
00001000
00000001
00000100
00000001
00000100
00000010
00001000
,
00000010
00001000
00000100
00010000
00001000
00010000
00001000
01000000
,
00010000
01000000
00001000
00010000
00000100
00001000
00000100
00010000
,
00010100
00000000
00000000
00011000
00000000
00000000
00000000
00000000
;

//---------------dance-single - retard_gamer----------------
#NOTES:
     dance-single:
     retard_gamer:
     Challenge:
     12:
     1.000,1.000,0.500,0.259,0.093,732.000,54.000,28.000,148.000,11.000:

0000
0000
0000
0000
,
0000
0000
0000
0000
,
0000
0000
0000
0000
,
0000
0000
0000
0000
,
0000
0000
0000
0000
,
0000
0000
0000
0000
,
0000
0000
0000
0000
,
1100
0000
0100
1000
0000
0100
1000
0000
,
0010
0000
0001
0000
0010
1000
0010
1000
,
0001
0000
1000
0100
0000
1000
0100
0000
,
0010
0000
0001
0000
1000
0010
1000
0010
,
1000
0000
0001
0100
0000
0010
1000
0000
,
0001
0000
0010
0000
0100
0010
0001
0010
,
0100
0000
1000
0010
0000
1000
0010
0000
,
0100
0000
0000
0000
0102
0000
0003
0000
2010
0000
3000
0000
0M0M
M0M0
0000
0000
,
0000
0000
0010
0000
0010
1000
0000
1000
,
0100
0000
0100
0001
0000
0001
0100
0010
,
0001
0000
1000
0000
1000
0010
0000
0010
,
0001
0000
0001
0010
0000
0010
0100
0001
,
1000
0000
0100
1000
0000
0010
0100
0000
,
0001
0010
0000
0001
0100
0010
1000
0001
,
0010
0000
0100
1000
0000
0001
0100
0000
,
1000
0100
0000
0010
1000
0001
0010
0001
,
0100
0000
0010
0000
0010
1000
0000
1000
,
0100
0000
0100
0010
0000
0010
1000
0010
,
0001
0000
1000
0000
1000
0010
0000
0010
,
0001
0000
0001
0010
0000
0010
0100
0001
,
1000
0100
0010
0000
0010
0100
0000
0100
,
1000
0000
1000
0001
0000
0001
0100
0010
,
1000
0000
0001
0100
0000
1000
0100
0000
,
0001
0010
0000
1000
0010
0000
0001
0000
,
1000
0010
0100
0001
1000
0010
0100
0001
,
1000
0100
0010
0100
1000
0001
0100
0001
,
0010
0001
1000
0100
0010
0100
1000
0001
,
0100
0010
1000
0001
0010
0001
0100
0010
,
1000
0001
0100
0010
1000
0001
0010
0100
,
1000
0001
0010
0100
1000
0100
0010
0001
,
1000
0010
1000
0001
0100
0001
1000
0100
,
1000
0001
0010
0001
1000
0100
0010
0001
,
1000
0010
1000
0MMM
1000
0010
1000
0MMM
,
1000
0100
1000
0MMM
1000
0100
1000
0MM0
,
0001
0100
0001
MMM0
0001
0100
0001
MMM0
,
0001
0010
0001
MMM0
0001
0010
0001
M0M0
,
0100
0010
0100
M0MM
0100
1000
0100
M0MM
,
0100
0001
0100
M0MM
0100
0010
0100
M00M
,
0010
0100
0010
MM0M
0010
0001
0010
MM0M
,
0010
0100
0010
MM0M
0010
1000
0010
0000
,
1M1M
0000
1000
0010
0100
0000
0101
0000
,
0001
0010
0001
0000
1000
0100
0010
0100
,
1000
0100
0010
0100
1000
0010
0100
0010
,
1000
0010
0100
0001
0010
0001
0100
0010
,
0100
0000
0001
0100
0001
0000
0011
0000
,
1000
0100
1000
0000
0010
0100
0001
1000
,
0010
1000
0010
1000
0001
0010
0001
1000
,
0100
1000
0001
0100
0010
0100
0001
1000
,
0100
0000
0000
0000
1100
0000
0000
MM00
0000
0000
1010
0000
0000
M0M0
0000
0000
,
0101
0000
0000
00MM
0000
0000
0011
0000
0000
00MM
0000
0000
0110
0000
0000
0000
,
1100
0000
0000
0000
1010
0000
0000
M0M0
0000
0000
0110
0000
0000
0MM0
0000
0000
,
0101
0000
0000
0M0M
0000
0000
0011
0000
0000
00MM
0000
0000
0101
0000
0000
0000
,
0110
0000
0000
0000
1010
0000
0000
M0M0
0000
0000
1100
0000
0000
MM00
0000
0000
,
1010
0000
0000
M0M0
0000
0000
0110
0000
0000
0MM0
0000
0000
0101
0000
0000
0000
,
1001
0000
0000
0000
1010
0000
0000
M0M0
0000
0000
1100
0000
0000
MM00
0000
0000
,
0011
0000
0000
00MM
0000
0000
0101
0000
0000
0000
0000
0000
001M
0000
1M00
0000
,
1010
0000
0000
0000
M1M0
0000
0002
0000
0200
0000
0000
M010
0000
0000
10M0
0000
,
0000
0303
0000
0000
0M1M
0000
2000
0000
0200
0000
0000
001M
0000
0000
00M1
0000
,
0000
3300
0000
0000
M100
0000
0020
0000
0200
0000
0000
100M
0000
0000
M001
0000
,
0000
0000
0000
0330
0000
0000
0000
0000
0000
0000
0000
0000
0M10
0000
0000
0000
0000
0000
0002
0000
0000
0000
0000
0000
2000
0000
0000
0000
0000
0000
0000
0000
0000
01M0
0000
0000
0000
0000
0000
0000
0000
0000
0M10
0000
0000
0000
0000
0003
,
3001
0000
1000
0000
0100
1000
0000
0100
,
1000
0000
0010
0000
0100
0001
0000
0100
,
0001
0000
1000
0000
0100
0010
0000
0100
,
0010
0001
0011
00MM
,
1100
0000
0100
0000
1000
0010
0000
1000
,
0010
0000
0100
0000
0001
0010
0000
0001
,
0010
0000
0100
0000
1000
0001
0000
1000
,
0001
0101
1010
M0M0
,
0001
0000
0100
0000
0010
1000
0010
0000
,
0010
0100
0010
0001
0010
0100
0010
1000
,
0010
0000
1010
0000
1000
0001
1000
0000
,
0002
0003
0020
0030
0200
0300
0020
0030
0002
0003
0000
0000
1000
0000
0000
0000
,
0010
1001
0100
1001
,
0010
1000
0010
0100
1000
0100
0010
0100
,
0001
0101
0010
1010
,
0002
0003
0200
0300
0020
0030
2000
3000
0002
0003
0000
0000
MMMM
0000
0000
0000
,
1000
0000
1000
0010
M000
0010
0001
00M0
,
0001
0010
000M
0010
0100
00M0
0001
0000
,
1M1M
0000
0100
0001
00M0
1000
0100
0000
,
M010
0001
0000
0010
010M
0000
0010
0000
,
MM11
0000
0001
0010
000M
0010
0100
00M0
,
0100
0001
0M00
0001
0100
0000
001M
0000
,
M011
0000
1000
0010
0000
1000
0001
0000
,
0100
0001
0000
0010
0100
0000
1000
0000
,
11MM
0000
MM00
0000
1010
0000
0000
M2M0
,
0001
0000
0002
0000
10M0
0000
0000
0303
,
1M1M
0000
0000
0000
11MM
0000
0000
0200
,
10MM
0000
2000
0000
00M1
0000
0000
3300
,
11MM
0000
0000
0000
MM11
0000
0000
0010
,
M200
0000
200M
0000
00M1
0000
0000
3300
,
1100
0000
1000
1100
0000
0100
M110
0000
,
0010
0M11
0000
0001
10M1
0000
MMMM
0000
,
0100
0010
1000
0001
0100
0010
1000
0001
,
0100
0010
1000
0001
0100
0010
1000
0001
,
0100
0010
1000
0001
0100
0010
1000
0001
,
0100
0010
1000
0001
0100
0010
1000
0001
,
1000
0100
0010
0001
1000
0100
0010
0001
,
1000
0100
0010
0001
1000
0100
0010
0001
,
1000
0100
0010
0001
1000
0100
0010
0001
,
1000
0100
0010
0001
1000
0100
0010
0001
,
1000
0010
0100
0001
1000
0010
0100
0001
,
1000
0010
0100
0001
1000
0010
0100
0001
,
1000
0010
0100
0001
1000
0010
0100
0001
,
1000
0010
0100
0001
1000
0010
0100
0001
,
1000
0100
0010
0001
1000
0100
0010
0100
,
1000
0010
0100
0001
1000
0010
1000
0001
,
0100
0001
1000
0100
0010
0001
0010
0001
,
1000
0010
1000
0001
0100
0000
1010
0000
,
1000
0010
1000
0001
0100
0001
1000
0100
,
1000
0001
0010
0001
1000
0010
1000
0001
,
0100
0001
1000
0100
1000
0001
0010
0001
,
1000
0100
0010
0100
1000
0010
0100
0010
,
1000
0100
0010
0100
1000
0010
0100
0010
,
0001
0010
0100
0010
0001
0010
1000
0010
,
0100
0001
1000
0010
0100
0001
0010
0001
,
0100
0010
0100
0001
0010
0001
0100
0010
,
0100
0010
1000
0001
1000
0100
1000
0001
,
0100
0001
1000
0010
1000
0001
0010
0001
,
1000
0100
1000
0010
0100
0001
0010
0001
,
0100
0010
1000
0001
0010
0100
1000
0100
,
0010
0001
1000
0100
1000
0010
0100
0010
,
0100
0001
0010
0001
0100
0010
1000
0000
,
0100
1000
0000
2002
0000
0000
0000
0000
,
0000
0000
0000
0000
0000
3003
M00M
0000
;

//---------------dance-double - ----------------
#NOTES:
     dance-double:
     :
     Challenge:
     10:
     1.000,1.000,0.629,1.000,0.009,562.000,68.000,208.000,0.000,0.000:


00000000
00000000
00000000
00000000
,
00000000
00000000
00000000
00000000
,
00000000
00000000
00000000
00000000
,
00000000
00000000
00000000
00000000
,
00000000
00000000
00000000
00000000
,
00000000
00000000
00000000
00000000
,
00000000
00000000
00000000
00000000
,
00000002
00000000
00000203
00000001
00002300
00000000
00003200
00000000
,
00020300
01030000
11000000
00000000
,
02000000
00000000
13000000
02000000
10000000
03000000
00020000
00000000
,
00032000
00013000
01100000
00000000
,
20000000
00000000
32000000
10000000
03020000
00000000
02030000
00000000
,
03002000
00003100
00000101
00000000
,
00000200
00000000
00000301
00000200
00000001
00000300
00002000
00000000
,
00023000
00031000
00000110
00000000
,
00000002
00000000
00000023
00000000
00000030
00000200
00000000
00000300
,
00002000
00000000
00003000
00020000
00000000
00030000
02000000
00000000
,
23000000
00000000
32000000
00000000
03000000
00200000
00000000
00300000
,
20000000
00000000
30000000
02000000
00000000
03000000
00200000
00000000
,
10300000
00000000
00220000
00000000
00330000
02020000
00000000
03030000
,
00022000
00000000
00033000
00002020
00000000
00003030
00000011
00000000
,
00000001
00000000
00000220
00000000
00000330
00002200
00000000
00003300
,
00022000
00000000
00033000
00220000
00000000
00330000
01200000
00000000
,
20300000
00000000
30200000
00000000
00300000
02000000
00000000
03000000
,
00020000
00000000
00030000
00002000
00000000
00003000
00000200
00000000
,
00000302
00000000
00000203
00000000
00000300
00000020
00000000
00000030
,
00000002
00000000
00000003
00000200
00000000
00000300
00000020
00000000
,
00000031
00000000
00002020
00000000
00003030
00002200
00000000
00003300
,
00022000
00000000
00033000
00220000
00000000
00330000
10100000
00000000
,
10000000
00000000
02200000
00000000
03300000
02020000
00000000
03030000
,
00022000
00000000
00033000
00002020
00000000
00003030
00000110
00000000
,
00001000
00000100
00001000
00010000
02000000
00000000
23000000
00000000
,
30020000
02030000
23000000
30000000
,
10000000
00010000
10000000
00100000
01000000
00010000
01000000
00010000
,
00000200
00002300
00023000
00030000
,
00010000
01000000
00010000
00001000
00000200
00000000
00000302
00000000
,
00002003
00003200
00000302
00000003
,
00000001
00001000
00000001
00000010
00000100
00001000
00000100
00001000
,
02000000
03020000
00032000
00003000
,
00200000
10000000
00300000
00000000
00020000
01000000
00030000
00000000
,
00002000
00010000
00003000
00000000
00000020
00001000
00000030
00000000
,
00000002
00000010
00000003
00000000
00000002
00000100
00000003
00000000
,
00000200
00001000
00000300
00000000
00002000
00010000
00003000
00000000
,
00020000
00100000
00030000
00000000
20000000
00100000
30000000
00000000
,
00200000
00010000
00300000
00000000
02000000
00100000
03000000
00000000
,
02000000
00010000
03000000
00000000
00002000
00100000
00003000
00000000
,
00002000
00010000
00003000
00000000
00020000
00000010
00030000
00000000
,
00000101
00000101
00001100
00001100
,
00011000
00011000
01010000
01010000
,
10100000
01010000
00011000
01001000
,
01010000
00101000
00010010
00010010
,
00020000
00032000
00003200
00000302
,
00000103
00000001
00000100
00000000
00000001
00000100
00000001
00000000
,
00000002
00000203
00002300
00023000
,
02030000
00000000
23000000
00000000
31000000
10000000
01000000
00000000
,
11000000
11000000
01010000
01010000
,
00011000
00011000
00001100
00001100
,
00000011
00001100
00011000
00010100
,
00001100
00010010
00101000
00101000
,
00002000
00023000
02030000
13000000
,
01000000
10000000
01000000
00000000
10000000
01000000
10000000
00000000
,
20000000
32000000
03020000
00032000
,
00003200
00000301
00000101
00000000
,
00000001
00000100
00001000
00010000
01000000
10000000
00100000
01000000
,
10000000
00000000
01000000
00000000
10000000
00000000
10000000
00000000
01000000
00000000
00000000
00010000
00000000
00000000
01000000
00000000
,
10000000
01000000
00010000
00001000
00000100
00000001
00000010
00000100
,
00000001
00000000
00000100
00000000
00000001
00000000
00000001
00000000
00000100
00000000
00000000
00001000
00000000
00000000
00000100
00000000
,
00000001
00000000
00000001
00000000
00000100
00001000
00000000
00010000
,
00200000
00000000
10300000
00000000
00100000
01000000
00000000
00100000
,
02000000
00000000
03001000
00000000
00010000
00001000
00000000
01000000
,
00200000
10300000
10000000
00000000
,
10000000
00000000
10000000
00000000
01000000
00010000
00000000
00001000
,
00000020
00000000
00000031
00000000
00000010
00000100
00000000
00000010
,
00000200
00000000
00010300
00000000
00001000
00010000
00000000
00000100
,
00000020
00000031
00000001
00000000
,
00000001
00000000
00000001
00000000
00000001
00000100
00001000
00000000
,
00010000
01000000
10000000
00010000
01000000
10000000
00010000
00010000
,
10000000
00000000
10000000
00000000
10000000
01000000
00010000
00000000
,
00100000
00001000
00010000
00001000
00010000
01000000
10000000
01000000
,
10000000
00000000
10000000
00000000
10000000
01000000
00010000
00000000
,
00001000
00000100
00000001
00001000
00000100
00000001
00001000
00001000
,
00000001
00000000
00000001
00000000
00000001
00000100
00001000
00000000
,
00000010
00010000
00001000
00010000
00001000
00000100
00000001
00000100
,
00002000
00000000
00003002
00000000
00000203
00000000
00000300
00002000
,
00023000
02030000
03200000
02300000
,
23000000
32000000
03200000
00320000
,
00032000
00003200
00000320
00000032
,
00000203
00002300
00203000
00320000
,
20030000
32000000
03200000
00320000
,
02030000
03002000
00003020
00000032
,
00000203
00002300
00023000
00230000
,
02300000
00000000
00000000
00000000
03020000
00000000
00000000
10030000
,
02000000
03020000
00032000
00003000
,
00000200
00000000
00000000
00000000
00000302
00000000
00000003
00000100
,
00000020
00000032
00000200
00000003
,
00002300
00000000
00000000
00000000
00023000
00000000
00000000
00100000
,
20030000
30020000
00032000
00003000
,
00022000
00000000
00033000
02002000
00000000
03003000
00022000
00000000
,
00033000
00010000
00000100
00010000
00001000
00000000
00000000
00000000
,
00010000
00001000
00010000
00000000
00100000
00010000
00100000
00000000
,
00010000
01000000
00010000
00000000
10000000
01000000
10000000
00000000
,
00010000
10000000
01000000
00000000
10000000
01000000
00100000
00000000
,
01000000
00010000
01000000
00000000
00010000
00001000
00010000
00000000
,
00010000
00001000
00000100
00000000
00000010
00000100
00000001
00000000
,
00001000
00000100
00001000
00000000
00000001
00000100
00000001
00000000
,
00001000
00000001
00000100
00000000
00001000
00010000
00001000
00000000
,
00010000
01000000
10000000
00000000
10000000
00010000
01000000
00000000
,
01000000
00010000
01000000
00000000
00100000
10000000
00100000
00000000
,
10000000
01000000
10000000
00000000
00010000
01000000
00010000
00000000
,
00001000
00010000
00001000
00000000
00000100
00000010
00000100
00000000
,
00001000
00000001
00000100
00000000
00000001
00001000
00000100
00000000
,
00000002
00000023
00002030
00023000
,
00230000
20300000
32000000
03020000
,
00130000
10000000
00010000
01000000
00001000
00010000
00000100
00001000
,
00000001
00000100
00000001
00000010
00000100
00000000
00001000
00000000
,
00002100
00000000
00003001
00000100
00000000
00000000
00000000
00000000
,
00000010
00001000
00000001
00001000
00000001
00000100
00000001
00000000
,
00001020
00000000
00001030
00010000
00000000
00000000
00000000
00000000
,
00001000
00010000
00001000
00010000
00000100
00010000
00001000
01000000
,
00021000
00000000
00030000
00001000
00100000
00000000
00000000
00000000
,
00001000
00100000
00010000
01000000
00010000
10000000
01000000
00000000
,
10200000
00000000
00300000
20000000
31000000
00000000
00000000
00000000
,
10000000
01000000
10000000
00010000
01000000
00100000
01000000
00000000
,
00210000
00000000
00300000
00020000
00001000
00030000
00000000
00000000
,
00020000
00000100
00031000
00000020
00000000
00000130
00000001
00000000
,
00001010
00000000
00000002
00000100
00000003
00000000
00000000
00000000
,
00000010
00010000
00001000
00010000
00001000
00000100
00000001
00000000
,
00000102
00000000
00000003
00000100
00002000
00000000
00003000
00000000
,
00000020
00000001
00001030
00000100
00020000
00001000
01030000
00000000
,
01010000
00000000
20000000
00200000
00000000
00000000
30300000
00000000
;
