#TITLE:Just A Dream;
#SUBTITLE:;
#ARTIST:DJ Mystik;
#TITLETRANSLIT:;
#SUBTITLETRANSLIT:;
#ARTISTTRANSLIT:;
#CREDIT:;
#BANNER:BN.PNG;
#BACKGROUND:BG.PNG;
#LYRICSPATH:;
#CDTITLE:ov1_title.png;
#MUSIC:DJ Mystik - Just A Dream.mp3;
#OFFSET:-1.620;
#SAMPLESTART:57.000;
#SAMPLELENGTH:29.999;
#SELECTABLE:YES;
#BPMS:0.000=181.980;
#STOPS:;
#BGCHANGES:;
// cache tags:
#FIRSTBEAT:1.000;
#LASTBEAT:667.000;
#SONGFILENAME:Songs/Owenviau1 Simfiles 4/Just A Dream - DJ Mystik [owenviau1]/DJ Mystik - Just A Dream.sm;
#HASMUSIC:1;
#HASBANNER:1;
#MUSICLENGTH:223.955;
// end cache tags

//---------------dance-single - ----------------
#NOTES:
     dance-single:
     :
     Challenge:
     12:
     1.000,1.000,0.174,0.009,1.000,1769.000,39.000,2.000,0.000,0.000:

0000
0000
1000
0010
1000
0010
1000
0001
,
1000
0001
1000
0010
1000
0010
1000
0001
,
1000
0001
1001
1000
0100
0010
0001
1000
,
0100
0010
0001
1000
0010
1000
0010
0100
,
0010
1000
0010
0100
0001
0010
0100
0010
,
0001
0010
0100
1000
0100
0010
0001
1000
,
0010
1010
0010
0100
0001
0010
0100
0010
,
0001
1000
0100
0010
0001
1000
0010
0100
,
0010
1000
0010
0100
0001
1000
0100
0001
,
1000
0100
0001
0010
0100
1000
0001
0010
,
0100
0000
1000
0000
1001
0100
0010
0001
1000
0010
0100
0001
0010
0001
1000
0010
,
0100
0001
1000
0100
0001
0010
0100
1000
0001
0010
0100
1000
0010
0100
0010
1000
,
0001
0100
0010
0100
0001
1000
0100
0010
0100
1000
0001
0100
0010
1000
0100
0010
,
0001
1000
0001
0010
0100
1000
0010
1000
0001
0100
0001
0010
0100
1000
0100
1000
,
0001
0100
0001
0010
0100
1000
0001
0100
0010
0100
0001
1000
0010
0100
0001
0010
,
0001
0100
0010
1000
0100
0010
0001
0100
0010
1000
0100
0010
0001
0100
0010
1000
,
0001
0100
0010
1000
0010
0100
0001
0100
0001
0010
0100
1000
0100
0010
0001
1000
,
0010
1000
0100
0010
0001
0100
0001
0010
0100
1000
0001
0100
0010
1000
0100
1000
,
0100
0010
0001
0000
1001
0000
0000
0000
1000
0000
0010
0000
0000
0000
0010
0000
,
0000
1000
0001
0000
0001
1000
0000
1000
,
0000
1000
0001
0000
0001
0100
0000
0100
,
0000
0100
0001
0000
0001
0010
0000
0010
,
0000
0010
0100
0001
0010
0100
1000
0001
,
0100
0000
0010
0000
1000
0100
0010
0001
1000
0010
1000
0100
0010
0001
0010
0100
,
1000
0001
0100
0010
1000
0100
1000
0001
0100
0001
0010
0100
1000
0100
1000
0010
,
0100
0001
0010
0100
1000
0001
0100
0010
0100
0001
1000
0100
0010
0100
1000
0001
,
0100
0010
1000
0000
1010
0000
0100
0000
0001
0000
0010
0000
0100
0000
1000
0000
,
0010
0100
1001
0010
0100
0001
1000
0100
,
0010
0001
0110
1000
0100
0010
0001
1000
,
0010
0100
1100
0001
0010
0100
1000
0001
,
0100
0010
0011
1000
0001
1000
0010
0100
,
0001
0000
1000
0000
0010
0100
1000
0001
0100
0010
1000
0100
0010
0001
0010
0100
,
1000
0001
0100
0010
1000
0010
0100
0001
0100
0010
1000
0001
0100
0010
1000
0100
,
0010
0001
0010
0100
1000
0001
1000
0100
0010
0100
0001
1000
0010
0100
0001
0010
,
0001
1000
0010
0000
1000
0100
1000
0000
0010
0100
0010
0000
0001
0010
0001
0000
,
1000
0010
0100
0000
0001
0010
0100
0000
1000
0010
0100
0000
0001
0010
0100
0000
,
1000
0001
0100
0000
0010
1000
0100
0000
0010
0001
0100
0000
0001
1000
0100
0000
,
0010
1000
0001
0000
1000
0100
0010
0000
0001
0010
0100
0000
1000
0001
0010
0000
,
0001
1000
0010
0000
1000
0100
0010
0001
1000
0010
0100
0001
0010
0100
1000
0001
,
0100
0010
0100
0001
1000
0100
0010
0100
1000
0001
0100
0010
1000
0100
0010
0001
,
0010
0100
1000
0001
0100
0010
1000
0001
1000
0010
0100
0010
1000
0001
0100
0001
,
0010
0100
1000
0100
0010
0001
1000
0010
1000
0001
0100
0001
1000
0100
1000
0010
,
0100
0001
1000
0000
1001
0000
0010
0000
0100
0000
0001
0000
1000
0000
0010
0000
,
0100
0001
0010
0001
1000
0010
0100
0001
,
0010
0100
1000
0001
0011
1000
0010
0100
,
0001
0010
0001
1000
0010
1000
0001
0100
,
0010
0001
1010
1000
0100
0010
0001
1000
,
0010
0100
0010
1000
0001
0100
0010
0001
,
1000
0100
0011
1000
0001
0010
0100
0001
,
1000
0100
0010
1000
0001
0100
0010
0100
,
0001
0000
1000
0000
0001
0010
0100
1000
0001
0100
0010
1000
0100
0010
0100
1000
,
0001
0100
0010
0100
0001
0010
0100
1000
0100
0010
0001
1000
0010
1000
0001
0100
,
0001
0010
0100
1000
0100
0010
0001
1000
0010
0100
0001
1000
0001
0010
0100
1000
,
0100
0010
0001
1000
0010
1000
0001
0100
0001
0010
0100
1000
0100
1000
0010
0100
,
0001
0010
0001
0100
0010
1000
0100
1000
0010
0100
0001
0010
0100
1000
0100
0010
,
0001
1000
0010
1000
0001
0100
0001
0010
0100
1000
0100
1000
0001
0010
0001
0100
,
0010
1000
0100
0010
0001
1000
0001
0100
0010
1000
0010
0100
0001
0010
0100
1000
,
0001
0100
0010
1000
0010
1000
0001
0100
0001
0010
0100
1000
0100
0010
0001
0100
,
0010
1000
0001
0000
1001
0000
0010
0000
0100
0000
0001
0000
1000
0000
0100
0000
,
0010
0001
1000
0010
0100
0001
0010
0001
,
0010
0100
1100
0001
1000
0010
0100
0001
,
1000
0100
0010
1000
0001
0100
0010
0100
,
0001
1000
1100
0010
0100
0001
0010
0100
,
1000
0001
0100
0010
1000
0100
0010
1000
,
0001
0100
0011
0100
0010
1000
0001
0100
,
0010
0000
1000
0000
0110
0000
0001
0000
0010
0000
0100
0000
1000
0100
0010
0001
,
1000
0010
0100
0000
0011
0000
1000
0000
0100
0000
0010
0000
0001
0000
1000
0000
,
0010
0100
0001
0010
0100
1000
0001
0100
,
0010
1000
0100
0010
0001
1000
0010
1000
,
0001
0100
0010
1000
0010
0100
0010
0001
,
0100
0010
1000
0100
0010
0001
1000
0001
,
0100
0010
0100
1000
0100
0001
0010
0001
,
0100
0010
1000
0001
0100
0010
0100
0001
,
1000
0100
1010
0100
0011
0100
1010
0001
,
0101
0100
1001
0100
0010
0001
0000
0001
,
0000
0001
0010
0100
1000
0010
0000
0010
,
0000
1000
0100
0010
0001
0010
0000
0010
,
0000
0010
0001
0100
0010
1000
0100
0010
,
1001
0100
1010
0001
0010
0100
0000
0100
,
0000
0100
0010
0001
1000
0001
0000
0001
,
0000
0001
0010
0100
1000
0100
0000
0100
,
0000
0100
0010
0001
1000
0010
0100
0001
,
0010
0100
1001
0100
0010
0001
1000
0010
,
0100
0001
0010
0001
1000
0010
0100
0001
,
0010
0100
0010
0001
0100
1000
0001
1000
,
0010
0100
0001
0010
0100
0001
1000
0010
,
0001
0000
1000
0000
0001
0010
0100
1000
0001
0100
0010
1000
0100
0010
0001
1000
,
0010
0100
0001
0010
0001
0100
0010
1000
0100
0010
0001
1000
0010
0100
0010
0001
,
0010
0100
1000
0100
0010
0001
0100
0010
1000
0001
0100
0010
1000
0001
1000
0100
,
0010
0001
0010
0100
1000
0010
0100
0001
1000
0100
1000
0010
0100
0001
0010
0001
,
0100
0010
1000
0000
1001
0000
1000
0100
0010
0000
0001
1000
0001
0000
0100
0010
,
1000
0000
1000
0100
0010
0000
0001
1000
0010
0000
0100
0001
0010
0000
0100
1000
,
0001
0000
0010
0100
1000
0000
0010
0100
0001
0000
1000
0010
0100
0000
0001
0100
,
0010
0000
1000
0001
0100
0000
0010
1000
0001
0000
1000
0001
0100
0000
0001
1000
,
0100
0000
1000
0100
0010
0000
0001
0010
0100
0000
1000
0010
0100
0000
0001
0100
,
0010
0000
1000
0100
0010
0000
0001
0010
0100
0000
0010
1000
0001
0000
0100
0010
,
1000
0000
0001
0100
0001
0000
0010
0100
0010
0000
1000
0100
1000
0000
0001
0100
,
0010
0000
1000
0010
0100
0000
0001
1000
0010
0000
1000
0001
0100
0000
0010
1000
,
0100
0000
1000
0100
0010
0000
0001
0100
0010
0000
1000
0100
0010
0000
0001
0100
,
0010
0000
1000
0001
0100
0000
0010
0001
0100
0000
1000
0100
0010
0000
1000
0001
,
0100
0000
0010
1000
0001
0000
1000
0100
0010
0000
0001
1000
0010
0000
1000
0001
,
0100
0000
0010
1000
0001
0000
0001
0010
0100
0000
1000
0010
0100
0000
0001
0100
,
0010
0000
0010
0100
1000
0100
0010
0001
1000
0010
0100
0001
0010
0001
1000
0010
,
0100
0010
1000
0001
0100
0010
1000
0100
0010
0001
1000
0100
0010
0001
0100
0010
,
1000
0001
0100
0010
1000
0100
1000
0001
0100
0010
1000
0001
0100
0001
0010
0100
,
1000
0100
0010
0001
1000
0010
1000
0001
0100
0001
0010
0100
1000
0010
0100
0001
,
1000
0100
1000
0001
0100
0001
0010
0100
1000
0001
0100
0001
0010
0100
1000
0100
,
0010
0001
1000
0010
1000
0100
0010
0001
0100
0001
0010
0100
1000
0100
0010
0001
,
1000
0001
0100
0010
1000
0010
0100
0001
0010
0100
1000
0010
0100
0001
0010
0100
,
1000
0010
0100
0001
0010
0001
0100
0010
1000
0100
0010
0001
1000
0010
0100
0001
,
1000
0100
0010
0000
1001
0000
0000
0000
1000
0100
1000
0000
0010
0100
0010
0000
,
0001
0010
0001
0000
1000
0001
0100
0000
0010
1000
0001
0000
1000
0100
0010
0000
,
0001
0100
0010
0000
1000
0001
0100
0000
0001
0010
0100
0000
1000
0010
0100
0000
,
1000
0001
0100
0000
0010
1000
0001
0000
1000
0001
0100
0000
0001
1000
0100
0000
,
1000
0001
0010
0000
0001
1000
0010
0000
1000
0100
0010
0000
0001
0100
0010
0000
,
1000
0100
0010
0000
1000
0001
0010
0000
0100
1000
0001
0000
1000
0100
1000
0000
,
0001
0100
0001
0000
1000
0100
0010
0001
1000
0010
0100
0001
0010
0001
0100
0010
,
1000
0100
0010
0001
0100
0001
0010
0100
1000
0010
1000
0100
0010
0001
1000
0010
,
0100
0001
0010
0000
0101
0000
1000
0000
0100
0000
0010
0000
0001
0000
1000
0000
,
0010
0100
0001
1000
0100
0010
0001
1000
,
0010
1000
0001
0100
0010
1000
0001
0100
,
0010
1000
0001
0100
0010
0100
0001
1000
,
0010
0100
1001
0010
0100
0001
1000
0100
,
0010
0001
0010
0100
1010
0001
0100
0010
,
0101
1000
0010
0100
1100
0001
0010
0100
,
1000
0010
1000
0001
0100
0010
1000
0001
,
0100
0010
1000
0100
0010
0001
1000
0010
,
0100
0001
0010
0100
1000
0001
0010
0100
,
1000
0001
1000
0010
0100
0001
1000
0100
,
0010
0001
1000
0010
0100
0001
1000
0100
,
0010
0001
1000
0010
0100
0001
0010
0100
,
0001
1000
0010
0100
0001
1000
0100
0010
,
0001
1000
0010
1000
0001
0100
0010
0100
,
0001
0010
0100
1000
0100
0010
0001
1000
,
0010
0100
1000
0001
0010
0100
1000
0001
,
0100
0010
1000
0010
0100
0001
0010
0100
,
1000
0100
0010
0001
1000
0001
1000
0010
,
0100
0001
0010
0100
1000
0010
1000
0001
,
0100
0010
1010
0001
0100
0010
1000
0001
,
0100
0010
1000
0100
1000
0100
0010
0001
,
0100
0001
0010
0100
0010
0001
1000
0001
,
0100
0010
0001
1000
0100
0010
0001
1000
,
0100
0001
0100
1000
0010
0001
0010
1000
,
0100
0010
0001
1000
0010
0100
0001
0010
,
0100
1000
0001
0100
0010
1000
0001
0100
,
0010
0001
0100
1000
0010
0100
0001
0010
,
0001
1000
0001
0100
0010
1000
0100
0010
,
0001
1000
0001
0100
0010
0001
0100
0010
,
1000
0001
0100
0010
1000
0010
0100
0001
,
0010
0100
1000
0001
0100
0010
1000
0010
,
0100
0001
1001
0100
0010
1000
0001
0100
,
0010
0100
0001
1000
0010
1000
0001
1000
,
0010
0100
0001
0010
0100
1000
0001
0100
,
0010
1000
0100
0010
1000
0001
0100
0010
,
1000
0001
1010
0100
0001
0010
1000
0001
,
0100
0010
1000
0100
0010
0001
0100
0010
,
0100
0001
0010
0100
1000
0010
0001
1000
,
0010
0100
0001
0010
0100
1000
0001
0100
,
0010
0000
0001
0000
1001
0100
0010
0001
1000
0010
0100
0001
0010
0100
1000
0001
,
0100
0010
1000
0001
0100
0010
1000
0100
0010
0001
1000
0100
0010
0001
0010
0100
,
1000
0001
0100
0010
1000
0001
0100
0010
0001
1000
0010
0100
0001
1000
0100
0010
,
0001
1000
0100
1000
0100
0010
0001
0010
0100
1000
0001
1000
0010
1000
0001
0100
,
0001
0010
0100
1000
0100
0010
0001
1000
0010
1000
0100
0010
0001
0100
0001
0010
,
0100
1000
0001
0100
0010
1000
0001
0010
0100
1000
0010
1000
0001
0100
0001
0010
,
0100
1000
0001
0100
0010
1000
0010
0100
0001
0010
0100
1000
0100
0010
0001
1000
,
0100
1000
0001
0100
0001
0010
0100
1000
0001
0100
0010
1000
0001
0010
0100
1000
,
0100
0010
0001
0000
2002
0000
0000
0000
0000
0000
0000
0000
3003
0000
0000
0000
;

//---------------dance-single - ----------------
#NOTES:
     dance-single:
     :
     Hard:
     10:
     0.742,0.670,0.054,0.009,0.000,1150.000,12.000,2.000,0.000,0.000:

0000
0000
1000
0100
1000
0100
1000
0001
,
1000
0001
0100
0010
0100
0010
1000
0001
,
1000
0100
0010
0000
0001
0000
1000
0010
,
0000
0100
0000
0001
0000
1000
0000
0100
,
0000
0010
0000
0000
0001
0100
0000
0010
,
0000
1000
0000
0001
0000
0010
0000
0000
,
0010
0100
0000
0000
0000
0001
0000
1000
,
0000
0010
0000
0100
0000
0001
0000
1000
,
0000
0100
0010
0000
0000
0001
1000
0001
,
0000
0100
0000
0010
0000
1000
0000
0001
,
0000
0000
1000
0100
0010
0001
1000
0000
,
0001
0000
0100
0010
1000
0010
0100
0000
,
0001
0000
0010
0000
0100
0000
1000
0001
,
0010
0100
1000
1000
,
0001
1000
0010
0000
0010
0000
1000
0001
,
0010
0100
1000
0001
0100
0001
0010
0000
,
0001
0000
1000
0000
0100
0010
1000
0000
,
1000
0001
0010
0000
0010
0001
1000
0100
,
0010
0001
1000
0000
1000
0001
0000
0001
,
0000
0001
1000
0000
1000
0010
0000
0010
,
0000
0010
0100
0000
0100
0010
0000
0010
,
0000
0100
0010
0000
0010
0100
0000
0100
,
0000
0100
0001
1000
0001
1000
0100
0010
,
0001
0000
0001
1000
0001
0100
0001
0010
,
0100
0000
1000
0100
0010
0001
1000
0001
,
1000
0010
1000
1000
0010
0010
0100
0100
,
0001
0001
0010
0000
0100
1000
0001
0100
,
0001
0010
0100
0000
0100
1000
0001
1000
,
0001
0100
0010
0000
0010
1000
0010
0100
,
0001
0010
0100
0000
0001
1000
0001
0100
,
0001
0010
0100
0000
1000
0100
1000
0001
,
1000
0010
1000
0000
1000
0100
1000
0010
,
1000
0001
1000
0000
1000
0001
0010
0100
,
1000
0001
0010
0100
1000
0001
0100
0010
,
1000
0000
1000
1000
0001
0001
0100
0100
,
0010
0010
1000
1000
0001
0001
1000
1000
,
0001
0001
1000
1000
0100
0100
0010
0010
,
0001
0001
0010
0010
0100
0100
0010
0010
,
0001
0001
1000
0010
1000
0010
0100
0001
,
0010
0100
0010
0001
1000
0100
1000
0001
,
0100
0001
1000
0010
0100
0001
0010
0100
,
0010
0001
1000
0100
0010
0001
1000
0010
,
0100
0001
1001
0000
0001
0000
0100
0010
,
1000
0010
0100
0001
0010
0100
1000
0001
,
1000
0001
0100
0000
0100
0010
1000
0010
,
0100
0001
0010
0100
0010
0001
1000
0001
,
0100
0010
0000
0000
0000
1000
0001
1000
,
0001
0010
0100
1000
0100
0010
0001
1000
,
0010
0100
0010
1000
0001
1000
0001
0100
,
0010
1000
0100
0010
0001
1000
0100
0010
,
0001
0100
1001
0001
0100
0010
1000
0100
,
0010
0001
1000
0010
0100
0001
0010
0100
,
1000
0001
0100
0001
0010
0001
1000
0100
,
1000
0100
0010
0001
0010
0100
1000
0100
,
0010
0001
1000
0100
1000
0001
0100
0001
,
0100
0010
1000
0010
0100
0001
0010
0100
,
0010
0001
1000
0100
1000
0001
0100
0001
,
1000
0010
0100
0010
1000
0001
0100
0001
,
1000
0100
1001
0000
1001
0000
0001
0100
,
0010
1000
0010
0100
0010
1000
0001
0010
,
0100
1000
0001
0000
0001
1000
0000
1000
,
0001
0000
0001
0000
0001
1000
0010
0100
,
0010
1000
0001
0000
0001
0000
1000
0100
,
1000
0100
0010
0001
0010
0100
0010
0001
,
0010
0100
1000
0000
1000
0001
0000
0001
,
1000
0000
1000
0000
1000
0010
0000
0010
,
1000
0001
1000
0001
1000
0001
0100
0010
,
1000
0010
0100
0001
0010
0100
0010
0001
,
1000
0100
0010
0001
1000
0010
0100
0001
,
1000
0010
0100
0010
1000
0100
0010
0001
,
1000
0100
1000
0010
0100
0001
1000
0010
,
0100
0001
0010
0100
0010
0001
1000
0100
,
1000
0001
0100
0001
1000
0010
0100
0010
,
1000
0001
0010
0100
1000
0001
1000
0001
,
0100
0001
1000
0010
0100
0001
0000
0001
,
0000
0001
1000
0100
0010
0001
0000
0001
,
0000
0001
0100
0010
1000
0010
0000
0010
,
0000
0010
1000
0100
0010
0001
0010
0100
,
1000
0000
1000
0001
0100
0001
0000
0001
,
0000
0001
1000
0010
0100
0001
0000
0001
,
0000
0001
1000
0100
0010
0001
0000
0001
,
0000
0001
1000
0010
0100
0010
1000
0001
,
0100
0000
1001
0001
0100
0010
1000
0010
,
0100
0001
0010
0100
0010
0001
1000
0100
,
1000
0001
0100
0001
1000
0010
0100
0000
,
0100
0000
0001
1000
0001
1000
0010
0100
,
0001
0000
0001
1000
0100
1000
0100
1000
,
0001
0010
0100
0010
0001
1000
0010
0100
,
0001
1000
0100
0010
0001
1000
0010
0100
,
0010
1000
0010
0100
0001
0010
0100
0010
,
0001
1000
0001
0100
0010
1000
0010
0000
,
0010
0000
0010
1000
0001
0010
0100
1000
,
0001
0000
0001
1000
0100
1000
0100
0010
,
0001
0000
0001
1000
0100
1000
0010
0100
,
0010
1000
0001
0010
0100
1000
0001
0100
,
0001
0000
0001
1000
0010
0100
0010
1000
,
0100
0000
0001
1000
0001
0100
0010
1000
,
0001
0000
0001
1000
0100
0010
0100
1000
,
0001
0100
0010
1000
0010
0100
0001
0000
,
0001
1000
0001
0100
0001
0010
1000
0000
,
0100
1000
0001
0000
0010
1000
0100
0000
,
0001
1000
0010
0100
0001
1000
0010
0100
,
0000
1000
0100
0010
0001
0010
1000
0100
,
0010
0001
1000
0100
0010
0001
1000
0100
,
0010
0001
1000
0010
0100
0001
1000
0010
,
0100
0001
0010
0100
0010
0001
1000
0100
,
0010
0001
1000
0010
0100
0010
1000
0001
,
0010
0100
1000
0001
0100
0010
1000
0010
,
0100
0001
0010
0100
1000
0001
1000
0001
,
0100
0010
1000
0010
0100
0001
0010
0100
,
1000
0000
0001
0001
1000
1000
0001
0001
,
0100
0100
0010
0010
1000
1000
0001
0001
,
1000
1000
0100
0100
0010
0010
0001
0001
,
1000
1000
0010
0010
0100
0100
0001
0001
,
1000
1000
0100
0010
0001
1000
0010
1000
,
0001
0100
0001
0010
1000
0010
0100
0001
,
0010
0100
1000
0001
0010
0001
1000
0010
,
1000
0001
0100
0001
1000
0010
0100
0001
,
0010
0100
1001
0000
0010
0000
0100
0001
,
0000
1000
0000
0001
0000
0010
0000
0100
,
0000
1000
0000
0000
1000
0001
0000
0001
,
0000
0010
0000
0100
0000
1000
0000
0000
,
1000
0001
0000
0000
1010
0000
0010
0000
,
0110
0100
0101
0001
,
1001
0010
0100
1000
0100
0010
0001
1000
,
0100
1000
0001
0100
0001
1000
0010
0100
,
0001
0010
1001
1000
0010
0100
0001
1000
,
0001
1000
0100
0010
0001
1000
0100
0000
,
0001
0000
1000
0000
1000
0010
0100
0010
,
1000
0001
0010
0100
0010
0001
1000
0100
,
0010
0001
0001
0000
1000
0000
1000
0010
,
0100
0010
1000
0001
0010
0100
0010
0001
,
1000
0000
0001
0000
0100
0010
1000
0000
,
1000
0001
0010
0000
0010
0001
1000
0100
,
1000
0100
0010
0001
1000
0001
0100
0001
,
0010
1000
0010
0100
0010
1000
0010
0100
,
0001
0010
0100
1000
0001
0100
0001
1000
,
0010
0001
0100
0010
1000
0001
0010
0100
,
1000
0001
0100
0001
1000
0010
0100
0001
,
1000
0001
1000
0100
0010
0001
1000
0001
,
0100
0010
1000
0000
1000
0001
0010
0100
,
1000
0000
1000
0000
1000
0001
0100
0010
,
1000
0010
0100
0000
0100
0000
0100
0001
,
0010
0100
1000
0000
1000
0001
0100
0001
,
0100
0010
1000
0000
1000
0100
0010
0001
,
0010
0100
0001
0000
1000
0010
0100
0010
,
0100
0001
0010
0000
1000
0001
0100
0001
,
0010
0100
1000
0000
0001
0100
0010
0100
,
0001
1000
0100
0000
0010
1000
0001
0010
,
0100
1000
0001
0000
0001
1000
0010
0000
,
0010
0000
0100
0000
0001
0000
0010
0100
,
0000
1000
0000
0001
0100
0010
1000
0010
,
0100
0001
0000
0000
0001
1000
0100
0010
,
0001
1000
0100
0010
0001
1000
0010
0100
,
0001
1000
0000
1000
0100
0010
0100
0001
,
0010
0100
1000
0001
1000
0010
0100
0000
,
0001
0000
0010
0000
0100
1000
0001
1000
,
0001
0100
0010
0000
0010
0000
1000
0001
,
0010
0000
0001
1000
0001
1000
0100
0010
,
0001
1000
0010
0100
0001
0100
0010
1000
,
0010
0100
0001
0010
0100
1000
0001
1000
,
0010
1000
0001
0010
0100
1000
0001
0010
,
0100
1000
0100
0001
0010
0001
1000
0010
,
0100
0001
0100
0001
1000
0010
1000
0100
,
0010
0001
1000
0001
0100
0010
1000
0010
,
0100
0001
0010
0100
0010
0001
1000
0100
,
0010
0001
2002
0000
0000
0000
3003
0000
;
