#TITLE:Now we are free;
#SUBTITLE:(Trance mix);
#ARTIST:Gladiator.Feat Izzi;
#TITLETRANSLIT:;
#SUBTITLETRANSLIT:;
#ARTISTTRANSLIT:;
#CREDIT:;
#BANNER:now we are free.banner.png.jpg;
#BACKGROUND:now we are free.bg.png.jpg;
#LYRICSPATH:;
#CDTITLE:CDTITLE.jpg;
#MUSIC:01-now we are free.mp3;
#OFFSET:-0.140;
#SAMPLESTART:100.000;
#SAMPLELENGTH:12.000;
#SELECTABLE:YES;
#BPMS:0.000=138.040;
#STOPS:;
#BGCHANGES:;
// cache tags:
#FIRSTBEAT:7.000;
#LASTBEAT:393.000;
#SONGFILENAME:Songs/Definitive Keyboard Megapack/Now we are free (Trance mix)-Gladiator feat Izzi(Leone510)/Now we are free (Trance mix)-Gladiator feat Izzi.sm;
#HASMUSIC:1;
#HASBANNER:1;
#MUSICLENGTH:172.751;
// end cache tags

//---------------dance-single - ----------------
#NOTES:
     dance-single:
     :
     Hard:
     11:
     1.000,0.995,0.671,0.614,1.000,1127.000,116.000,106.000,0.000,9.000:







0000
0000
0000
0000
,
0000
0000
0000
0000
0000
0000
2000
0010
,
0001
0010
0100
0001
0100
0001
0010
0001
,
0010
0001
3200
0010
1000
0001
0320
1000
,
0100
0001
0100
0001
1030
0001
0200
0001
,
0010
0002
0310
1000
0203
0001
0320
0100
,
1000
0100
0001
1000
0100
0001
0100
0001
,
1000
0100
2030
0010
0001
0100
3002
0010
,
0100
1000
0010
0100
0010
0100
2003
0100
,
0001
3020
0001
1030
0020
0001
2030
0100
,
0001
0010
0001
0100
0001
0100
0010
0001
,
0100
0010
3002
1000
0010
1000
0203
0010
,
1000
0010
0001
1300
0010
0100
0020
0000
,
0000
2030
0000
0000
3002
0000
1103
0110
,
0101
1001
0110
0011
1100
0101
1001
0101
,
0110
1100
0101
0011
1001
0101
1010
1100
,
0101
0000
0011
0000
0110
0000
1010
0000
1001
0000
0101
0000
0010
0100
1000
0010
,
0100
0000
0000
0001
0000
0000
0100
0000
0000
1000
0000
0000
0001
0000
0000
0100
0000
0000
0001
0000
1000
0000
0010
0000
0001
0000
0100
0000
0010
0000
1000
0000
0001
0000
0000
0000
1010
0000
0000
0000
0000
0000
1000
0000
0000
0010
0000
0000
,
0100
0000
0101
0000
1010
0000
1000
0100
0001
0000
0011
0000
1100
0000
0010
0100
,
1000
0000
0101
0000
0011
0000
0100
0010
0100
0000
0101
0000
1010
0000
0001
1000
,
0001
0000
1100
0000
0110
0000
0100
0010
0001
0000
0011
0000
1010
0000
0100
1000
,
0001
0000
1010
0000
0110
0000
0100
0010
0100
0000
0011
0000
1010
0000
0100
1000
,
0100
0000
1010
0000
1100
0000
0010
0001
0010
0000
0101
0000
1010
0000
0010
1000
,
0010
0000
0110
0000
0011
0000
0100
0010
0001
0000
1010
0000
0110
0000
0010
0001
,
0010
0000
1100
0000
0101
0000
0001
1000
0001
0000
1001
0000
0110
0000
1000
0010
,
0100
0000
0101
0000
0011
0000
0100
1000
0100
0000
1010
0000
0110
0000
0001
1000
,
0001
0000
0101
0000
0011
0000
0100
1000
0100
0000
0110
0000
1010
0000
0100
0010
,
0001
0000
0101
0000
1010
0000
0100
1000
0010
0000
0110
0000
0101
0000
0001
1000
,
0010
0000
1100
0000
0011
0000
1000
0001
0100
0000
1010
0000
0011
0000
0010
0100
,
0010
0000
1001
0000
0011
0000
0100
1000
0010
0000
1100
0000
0010
0001
0100
0000
,
0010
0100
1000
0000
0010
0100
1000
0000
0100
0010
0001
0000
0001
1000
0001
0000
,
0100
0010
1000
0000
0010
0100
0001
0000
0010
0001
0010
0000
0100
1000
0010
0000
,
0100
0010
1000
0000
0010
0001
0100
0000
0010
0001
0010
0000
0100
1000
0001
0000
,
0100
0010
0001
0000
1000
0000
0001
0000
1000
0000
0001
0000
1000
0010
1000
0010
,
0100
0001
0100
0010
1000
0001
0100
0010
1000
0010
0100
1000
0100
0010
1000
0010
,
0100
0001
0010
0100
0001
1000
0010
0100
0001
0010
0001
0100
0001
0010
0100
0001
,
1000
0010
0100
0010
0001
0100
0001
0010
1000
0010
0100
0010
1000
0100
0010
1000
,
0001
1000
0100
0010
1000
0010
1000
0100
0010
0100
0001
0010
0100
1000
0100
0001
,
0010
0100
1000
0010
1000
0100
1000
0010
1000
0100
1000
0010
0001
0100
0001
0010
,
0100
0001
0100
0010
1000
0100
0010
0001
0010
0100
1000
0001
0100
0010
0001
0100
,
0010
1000
0010
0100
0010
0001
0100
0010
0001
0100
1000
0010
0100
1000
0010
0100
,
0010
0001
1000
0001
0100
0010
0001
0010
0100
0001
0100
0010
0001
0010
0100
1000
,
0010
0100
1000
0010
0100
0001
0100
0001
0010
1000
0001
1000
0010
0100
1000
0100
,
0010
1000
0100
0010
0100
1000
0001
0010
0100
0001
0100
0010
0001
0100
0001
0100
,
1000
0010
0100
1000
0010
0100
1000
0100
0010
0001
0010
0100
0001
0010
0100
1000
,
0010
0100
0010
1000
0001
0100
0010
1000
0010
0100
1000
0000
0100
0010
0001
0000
,
0100
0010
1000
0000
0010
0001
0100
0000
0010
0001
1000
0000
0100
1000
0100
0000
,
0010
0100
1000
0000
0010
0001
0100
0000
0010
0100
0010
0000
1000
0010
0001
0000
,
0100
1000
0010
0000
0100
0010
0100
0000
0010
0100
0001
0000
0001
1000
0001
0000
,
0100
1000
0100
0000
0010
0001
0100
0010
0001
1000
0010
0001
2020
0000
3030
0000
,
0000
0202
0303
0000
2002
3003
0000
0220
,
0330
0000
0000
0000
2020
0000
3030
0202
0000
0303
2002
0000
3223
0000
0330
0000
,
0000
0220
0330
0000
2002
3003
0000
2002
,
3003
0000
0000
0000
0202
0000
0303
2020
0000
3030
2002
0000
3223
0000
0330
0000
,
0000
0220
0330
0000
2002
3003
0000
2200
,
3300
0000
0000
0000
0022
0000
0033
2020
0000
3030
0202
0000
2323
0000
3030
0000
,
0000
2020
3030
0000
0202
0303
0000
2002
,
3003
0000
0000
0000
2002
0000
3003
0220
0000
0330
0220
0000
2332
0000
3003
0000
,
0001
0010
2200
0000
3300
0000
0000
0000
0202
0000
0303
0000
0000
0000
2020
0000
,
3031
1000
0001
0000
2020
0000
3030
0202
0000
0303
0220
0000
2332
0000
3003
0000
,
1000
0100
0022
0000
0033
0000
0000
0000
2020
0000
3030
0000
0000
0000
0220
0000
,
0330
0000
0202
0303
2002
3003
0000
2020
3030
0000
2020
0000
3130
0000
0001
0000
,
0100
0010
1000
0010
1000
0100
0001
0100
,
0001
0010
1000
0010
0100
1000
0001
1000
,
0001
0000
0100
0000
0001
0000
1000
0000
0001
0000
0100
0000
0001
0010
0001
1000
,
0001
0000
0000
0010
0000
0000
0001
0000
0000
1000
0000
0000
0001
0000
1000
0000
0100
0000
0001
0000
0010
0000
1000
0000
0010
0000
0100
0000
0001
0000
1000
0000
0010
0000
0100
0000
1000
0000
0000
0001
0000
0000
0010
0000
0000
0100
0000
0000
,
1000
0010
0100
1000
0010
0100
1000
0010
0100
0010
1000
0100
0010
0001
1000
0010
,
0001
0100
0010
1000
0001
0100
0010
0001
0100
0010
0001
0100
1000
0010
0100
1000
,
0010
0100
1000
0010
0100
0010
0100
0001
0100
0001
0010
1000
0010
0100
1000
0010
,
1000
0100
0010
1000
0100
1000
0010
1000
0100
0010
1000
0010
0100
0001
0010
0100
,
1000
0010
0100
0001
0010
1000
0001
1000
0010
0001
0100
1000
0001
0100
0001
1000
,
0010
0001
0010
0100
0001
0010
1000
0010
0001
0010
0100
0001
1000
0010
0001
0100
,
0010
1000
0001
0100
0010
0001
0100
0010
0001
0100
0010
1000
0100
0001
0010
0100
,
1000
0010
0100
0010
1000
0001
0100
1000
0001
0010
0100
1000
0010
0001
0100
0010
,
0001
0100
0001
0010
1000
0001
0100
1000
0100
0010
0001
0100
0010
1000
0010
0100
,
1000
0010
0100
0010
0100
0001
0010
0001
1000
0010
0001
0100
0001
0010
1000
0001
,
0100
0010
0001
0100
0010
1000
0010
0100
0001
0010
0100
1000
0010
0100
1000
0100
,
1000
0100
0010
1000
0001
1000
0100
0001
0100
1000
0001
0100
1000
0001
0100
0000
,
0001
1000
0100
0000
0001
0100
1000
0000
0100
0010
1000
0000
0100
0001
0100
0000
,
0010
0001
0100
0000
0001
0100
0010
0000
1000
0001
1000
0000
0010
0100
0001
0000
,
0001
1000
0001
0000
1000
0010
0100
0000
0010
0100
0001
0000
1000
0010
1000
0000
,
0010
0000
0001
0000
1000
0010
0001
0100
0010
1000
0010
0000
1000
0010
0100
0001
,
0100
0010
1000
0010
0100
1000
0010
0100
0001
0010
0001
0100
0010
1000
0010
0001
,
1000
0010
0100
0001
0100
0010
1000
0010
0100
1000
0010
0100
0001
0010
0001
0100
,
0010
1000
0010
0001
1000
0010
0100
0001
0100
0010
1000
0010
0100
1000
0010
0100
,
0001
0010
0001
0100
0010
1000
0010
0001
1000
0010
0100
0001
0100
0010
1000
0010
,
0100
1000
0010
0100
0001
0010
0001
0100
0010
1000
0010
1000
0010
0100
0001
0100
,
0010
1000
0010
0100
1000
0010
0100
0001
0010
0001
0100
0010
1000
0010
0001
1000
,
0010
0100
0001
0100
0010
1000
0010
0100
1000
0010
0100
0001
0010
0001
0100
0010
,
1000
0010
0100
0001
0010
0001
0010
0100
0001
0010
0001
0100
0010
1000
0010
0100
,
1000
0010
0100
1000
0010
1000
0100
1000
0010
1000
0100
1000
0010
0100
0001
0100
,
0001
0010
0001
0010
0100
0001
0010
1000
0100
0010
1000
0100
0010
0001
0100
0010
,
1000
0100
0010
0100
0010
1000
0100
0010
1000
0001
0010
0001
0100
0010
0100
1000
,
0010
0100
0010
0001
0010
0100
0001
0010
1000
0001
0010
1000
0001
0010
0100
1000
,
0010
0100
1000
0010
0100
0010
0100
1000
0010
0100
0001
0010
0100
0001
0100
0010
,
0001
0010
0001
0100
1000
0010
0100
1000
0010
0100
0010
1000
0010
0100
1000
0010
,
0100
1000
0010
0100
0001
0010
0001
0100
0001
0010
1000
0010
1000
0100
1000
0000
,
0010
0001
0010
0000
0100
1000
0100
0000
0001
1000
0001
0000
2002
0000
0000
0000
,
0000
3003
0000
0000
;

//---------------dance-single - HEAVY----------------
#NOTES:
     dance-single:
     HEAVY:
     Medium:
     8:
     0.638,0.967,0.428,0.614,0.026,592.000,74.000,106.000,0.000,7.000:


0000
0000
0000
0000
,
0000
0000
0000
2000
,
0000
0000
0000
0000
,
0000
3200
0000
0320
,
0000
0000
0030
0200
,
0000
0002
0300
0000
0203
0000
0320
0000
,
0000
0000
0000
0000
,
0000
2030
0000
3002
,
0000
0000
0000
2003
,
0000
3020
0000
0030
0020
0000
2030
0000
,
0000
0000
0000
0000
,
0000
3002
0000
0203
,
0000
0000
0000
0300
0000
0000
0020
0000
,
0000
2030
0000
0000
3002
0000
1003
0010
,
0001
1000
0100
0001
1000
0001
1000
0001
,
0010
1000
0100
0001
1000
0001
1000
0100
,
0001
1000
0100
1000
0001
0100
0010
1000
,
0000
0100
0001
0000
0010
0000
1000
0010
,
0100
0001
1000
0100
0001
0000
1000
0010
,
1000
0001
0001
1000
0100
0000
1000
0010
,
0001
1000
0010
0100
0001
0000
1000
0100
,
0001
1000
0010
0001
0100
0000
1000
0010
,
0100
1000
1000
0001
0010
0000
1000
0001
,
0010
0100
0001
0100
0001
0000
0100
0001
,
0010
1000
0100
0001
0001
0000
0100
1000
,
0100
0001
0010
1000
0100
0000
0100
0001
,
0010
0100
0010
0100
0100
0000
1000
0100
,
0001
0100
1000
0100
0001
0000
0100
0001
,
0010
1000
0010
1000
0100
0000
0010
0001
,
0010
1000
0010
0100
0010
0000
0010
0100
,
0010
1000
0010
1000
0100
0000
0001
0010
,
0100
1000
0010
0001
1000
0000
0100
0010
,
0100
1000
0010
0100
0010
0000
0100
0001
,
0000
0001
1000
0000
1000
0000
1000
1000
,
0100
0100
1000
0100
1010
0000
0100
1000
,
0100
0010
0001
0010
0101
0000
0001
0100
,
1000
0100
0001
0001
1010
0000
1000
0010
,
0001
0001
1000
1000
0110
0000
0100
0100
,
0010
1000
1000
0010
1000
0100
0001
0001
,
0100
0100
1000
0010
0110
0000
0100
0001
,
0010
0010
1000
0100
0001
1000
0100
0010
,
0010
1000
0100
0001
1100
0000
0001
0100
,
0010
1000
0100
0100
1010
0000
0010
1000
,
0010
0100
0100
0001
1100
0000
0001
0001
,
1000
0100
0010
1000
0011
0000
0001
0100
,
0010
0010
0001
0010
0110
0000
0100
0001
,
0100
1000
0010
0100
0010
1000
0100
0001
,
0010
1000
0010
0100
0010
0001
1000
0001
,
0100
0010
0100
1000
0010
0001
1000
0001
,
0100
0001
0010
0100
0001
0010
2020
3030
,
0000
0202
0303
0000
2002
3003
0000
0220
,
0330
0000
0000
0000
2020
0000
3030
0202
0000
0303
2002
0000
3223
0000
0330
0000
,
0000
0220
0330
0000
2002
3003
0000
2002
,
3003
0000
0000
0000
0202
0000
0303
2020
0000
3030
2002
0000
3223
0000
0330
0000
,
0000
0220
0330
0000
2002
3003
0000
2200
,
3300
0000
0000
0000
0022
0000
0033
2020
0000
3030
0202
0000
2323
0000
3030
0000
,
0000
2020
3030
0000
0202
0303
0000
2002
,
3003
0000
0000
0000
2002
0000
3003
0220
0000
0330
0220
0000
2332
0000
3003
0000
,
0001
0010
2200
0000
3300
0000
0000
0000
0202
0000
0303
0000
0000
0000
2020
0000
,
3031
1000
0001
0000
2020
0000
3030
0202
0000
0303
0220
0000
2332
0000
3003
0000
,
1000
0100
0022
0000
0033
0000
0000
0000
2020
0000
3030
0000
0000
0000
0220
0000
,
0330
0000
0202
0303
2002
3003
0000
2020
3030
0000
2020
0000
3130
0000
0001
0000
,
0100
0010
1000
0010
1000
0100
0001
0100
,
0001
0010
1000
0010
0100
1000
0001
1000
,
0001
0100
0001
1000
0001
0100
0001
0001
,
0001
0001
0001
0001
0010
0001
1000
1000
,
0100
0100
1000
0100
1010
0000
0100
1000
,
0100
0010
0001
0010
0101
0000
0001
0100
,
1000
0100
0001
0001
1010
0000
1000
0010
,
0001
0001
1000
1000
0110
0000
0100
0100
,
0010
1000
1000
0010
1000
0100
0001
0001
,
0100
0100
1000
0010
0110
0000
0100
0001
,
0010
0010
1000
0100
0001
1000
0100
0010
,
0010
1000
0100
0001
1100
0000
0001
0100
,
0010
1000
0100
0100
1010
0000
0010
1000
,
0010
0100
0100
0001
1100
0000
0001
0001
,
1000
0100
0010
1000
0011
0000
0001
0100
,
0010
0010
0001
0010
0110
0000
0100
0001
,
0100
1000
0010
0100
0010
1000
0100
0001
,
0010
1000
0010
0100
0010
0001
1000
0001
,
0100
0010
0100
1000
0010
0001
1000
0001
,
0100
0001
0010
0100
0001
0000
0010
0010
,
0001
0100
1000
0100
0011
0000
0100
1000
,
0100
0010
0001
0010
0101
0000
0001
0100
,
1000
1000
0001
0001
1010
0000
1000
0010
,
0001
0001
0010
1000
0101
0000
1000
0100
,
0010
0010
0001
0010
1000
0100
0001
0001
,
0100
0100
1000
0010
0110
0000
0100
0001
,
0010
0010
1000
0100
0001
1000
0100
0010
,
0010
1000
0100
0001
1100
0000
0001
0100
,
0010
1000
0100
0100
1010
0000
0001
1000
,
0001
0010
0100
0001
1100
0000
0001
0010
,
1000
0100
0100
1000
0011
0000
0001
0100
,
0010
0010
0001
0010
1100
0000
0100
0001
,
0100
1000
0001
0100
0010
1000
0100
0001
,
0010
1000
0010
0100
0010
0001
1000
0001
,
0100
0010
0100
1000
0010
0001
1000
0001
,
0100
0001
0010
0100
0001
0000
2002
0000
,
0000
3003
0000
0000
;

//---------------dance-single - Blank----------------
#NOTES:
     dance-single:
     Blank:
     Easy:
     6:
     0.380,0.482,0.023,0.365,0.035,392.000,4.000,63.000,0.000,0.000:

0000
0000
0000
0000
,
0000
0000
0000
2000
,
0000
0000
0000
0000
,
0000
3020
0000
0230
,
0000
0000
0000
0302
,
0000
2003
0000
0000
3002
0000
0203
0000
,
0000
0000
0000
0000
,
0000
0320
0000
2030
,
0000
0000
0000
3000
0000
0000
0002
0000
,
0000
0203
0000
0000
0320
0000
2030
0000
,
0000
0000
0000
0000
,
0000
3002
0000
0203
,
0000
0000
0000
0320
,
0000
0230
0000
0000
0301
0000
1000
0000
,
0010
0100
0001
0100
,
0001
0100
1000
0010
,
0100
0000
0010
0000
0001
0000
1000
0010
,
1000
0010
1000
0000
0110
0000
0001
0000
,
1000
0010
0100
0001
,
1000
0010
0100
1000
,
0010
0100
1000
0010
,
0001
0100
0001
0010
,
0100
1000
0010
0100
,
0001
0010
0100
0001
,
1000
0001
1000
0010
,
0001
1000
0010
1000
,
0010
0001
0100
0001
,
0100
0010
1000
0010
,
0100
0001
0010
1000
,
0010
0000
0100
0000
1000
0000
0010
1000
,
0100
0000
0010
0100
0001
0000
1000
0001
,
1000
0000
0001
0100
0001
0000
0010
0001
,
0100
0000
0010
0100
1000
0000
0100
0010
,
0100
1000
0001
1000
,
0010
0100
0001
1000
,
0010
0100
0001
0100
,
0010
1000
0010
0100
,
1000
0010
0100
0001
,
0010
0100
1000
0010
,
0100
1000
0010
0100
,
0001
0010
0100
1000
,
0010
0100
0001
0010
,
0100
1000
0010
0100
,
1000
0001
0100
0010
,
0001
0100
1000
0010
,
0100
0000
0001
0000
0100
0000
0001
1000
,
0010
0000
1000
0001
0010
0000
0100
0001
,
0100
0000
0001
1000
0100
0000
0001
0010
,
1000
0000
0100
1000
0100
0000
0100
0000
,
0100
0000
0100
0000
0101
0000
0200
0300
,
0000
0020
0030
0000
0200
0300
0000
0020
,
0030
0000
0000
0000
2000
0000
3000
0002
0000
0003
0200
0000
0320
0000
0030
0000
,
0000
0020
0030
0000
0200
0300
0000
2000
,
3000
0000
0000
0000
0002
0000
0003
0200
0000
0300
0002
0000
2003
0000
3000
0000
,
0000
2000
3000
0000
2000
3000
0000
2000
,
3000
0000
0000
0000
0020
0000
0030
0002
0000
0003
0200
0000
0320
0000
0030
0000
,
0000
0020
0030
0000
0200
0300
0000
0002
,
0003
0000
0000
0000
0020
0000
0030
2000
0000
3000
0020
0000
0230
0000
0300
0000
,
0000
0020
0030
0000
0200
0300
0000
0020
,
0030
0000
0000
0000
0200
0000
0300
0002
0000
0003
2000
0000
3002
0000
0003
0000
,
0000
2000
3000
0000
0002
0003
0000
2000
,
3000
0000
0020
0000
0032
0000
0003
2000
0000
3000
0020
0000
0230
0000
0300
0000
,
0100
0010
1000
0010
,
0100
0001
0100
0001
,
0100
0000
1000
0000
0010
0000
0100
0010
,
0001
0010
0001
0000
1100
0000
1000
0000
,
0010
0100
0010
0100
,
0001
0000
0000
0000
1000
0000
0000
1000
0000
0000
1000
0000
0001
0000
0000
0000
,
1000
0010
0100
0001
,
0010
0000
0000
0000
0001
0000
0000
0001
0000
0000
0001
0000
0100
0000
0000
0000
,
0100
1000
0010
0100
,
0010
0000
0000
0000
1000
0000
0000
1000
0000
0000
1000
0000
0010
0000
0000
0000
,
0100
0010
0001
0100
,
1000
0000
0000
0000
0010
0000
0000
0010
0000
0000
0010
0000
0100
0000
0000
0000
,
0010
0001
0010
0100
,
0010
0000
0000
0000
0100
0000
0000
0100
0000
0000
0100
0000
1000
0000
0000
0000
,
0010
1000
0001
0010
,
1000
0000
0000
0000
0010
0000
0000
0010
0000
0000
0010
0000
0100
0000
0000
0000
,
0100
0010
0001
1000
,
0001
0100
0001
0010
,
0001
0100
0001
0010
,
0001
0100
0010
1000
,
0010
0000
0100
1000
0010
0000
0100
0000
,
0001
0000
1000
0001
0010
0000
0001
0000
,
1000
0000
0010
0001
0100
0000
0001
0000
,
0010
0000
0001
1000
0010
0000
0100
0000
,
0100
0000
1000
0001
0010
0000
0100
0000
,
0010
0000
1000
0001
1000
0000
0010
0000
,
0100
0000
0010
1000
0001
0000
0100
0000
,
1000
0000
0010
0001
0010
0000
0100
0000
,
0010
0000
0001
1000
0010
0000
0100
0000
,
0010
0000
0100
1000
0100
0000
1000
0000
,
0010
0000
1000
0010
0001
0000
0010
0000
,
1000
0000
0010
0001
0010
0000
0100
0000
,
0100
0000
0010
1000
0001
0000
1000
0010
,
0001
0000
0100
0010
0001
0000
0010
1000
,
0001
0000
0100
0010
0001
0000
0010
1000
,
0001
0000
0100
0001
0010
0000
2020
0000
,
3030
0000
0000
0000
;
