#TITLE:Speed of Light;
#SUBTITLE:Episode (1996);
#ARTIST:Stratovarius;
#TITLETRANSLIT:;
#SUBTITLETRANSLIT:;
#ARTISTTRANSLIT:;
#CREDIT:SulferDragon;
#BANNER:Speed of Light-banner.png;
#BACKGROUND:Speed of Light-bg.png;
#LYRICSPATH:;
#CDTITLE:!SulferDragon.png;
#MUSIC:14-Speed of Light.mp3;
#OFFSET:-0.163;
#SAMPLESTART:62.486;
#SAMPLELENGTH:15.500;
#SELECTABLE:YES;
#BPMS:0.000=163.550;
#STOPS:;
#BGCHANGES:;
// cache tags:
#FIRSTBEAT:0.250;
#LASTBEAT:496.000;
#SONGFILENAME:Songs/Astronomic Metal Collection/Speed of Light (SulferDragon)/14-Speed of Light.sm;
#HASMUSIC:1;
#HASBANNER:1;
#MUSICLENGTH:186.989;
// end cache tags

//---------------dance-single - ----------------
#NOTES:
     dance-single:
     :
     Hard:
     13:
     1.000,1.000,1.000,0.390,1.000,1419.000,302.000,73.000,0.000,14.000:
0000
0010
1000
0000
0000
0010
0001
0010
1000
0100
0010
1000
0001
0000
0100
0010
,
0001
0010
1000
0000
0000
0001
0100
1000
0010
1000
0010
0100
0001
0100
1000
0010
,
0001
0010
1000
0000
0000
0010
0001
0010
1000
0100
0010
1000
0001
0000
0100
0010
,
0101
0011
1000
0010
1000
0100
0001
0010
0001
0100
0010
0100
0011
0101
1000
0010
,
1001
0010
1000
0000
0000
0010
0001
0010
1000
0100
0010
1000
0001
0000
0100
0010
,
0001
0010
1000
0000
0000
0001
0100
1000
0010
1000
0010
0100
0001
0100
1000
0010
,
0001
0010
1000
0000
0000
0010
0001
0010
1000
0100
0010
1000
0001
0000
0100
0010
,
0101
0011
1000
0010
1000
0100
0001
0010
0001
0100
0010
0100
0011
0011
0011
0011
,
0200
0300
0000
0000
0010
0000
0000
0000
1100
0000
0000
0000
0000
0000
0000
0000
0000
0000
0000
0000
0010
0000
0000
0000
0101
0000
0000
0000
0010
0000
0000
0000
1000
0000
0000
0000
0100
0000
0000
0000
0011
0000
0000
0000
1000
0000
0000
0000
0001
0000
0000
0000
0000
0000
0000
0000
1100
0000
0000
0000
0010
0000
0000
0000
,
0001
0010
1001
0000
0000
0001
0110
1000
0010
1000
0011
0100
0001
0100
1001
0010
,
0002
0003
0000
0000
0010
0000
0000
0000
1100
0000
0000
0000
0000
0000
0000
0000
0000
0000
0000
0000
0010
0000
0000
0000
0101
0000
0000
0000
0010
0000
0000
0000
1000
0000
0000
0000
0100
0000
0000
0000
0011
0000
0000
0000
1000
0000
0000
0000
0001
0000
0000
0000
0000
0000
0000
0000
1100
0000
0000
0000
0001
0000
0000
0000
,
0200
0300
0000
0000
0010
0000
0000
0000
0101
0000
0000
0000
1000
0000
0000
0000
0010
0000
0000
0000
0100
0000
0000
0000
1010
0000
0000
0000
0001
0000
0000
0000
0200
0300
0000
0000
0010
0000
0000
0000
0101
0000
0000
0000
1000
0000
0000
0000
0010
0000
0000
0000
0100
0000
0000
0000
1010
0000
0000
0000
0001
0000
0000
0000
,
0200
0300
0000
0000
0010
0000
0000
0000
1100
0000
0000
0000
0000
0000
0000
0000
0000
0000
0000
0000
0010
0000
0000
0000
0101
0000
0000
0000
0010
0000
0000
0000
1000
0000
0000
0000
0100
0000
0000
0000
0011
0000
0000
0000
1000
0000
0000
0000
0001
0000
0000
0000
0000
0000
0000
0000
1100
0000
0000
0000
0010
0000
0000
0000
,
0001
0010
1001
0000
0000
0001
0110
1000
0010
1000
0011
0100
0001
0100
1001
0010
,
0002
0003
0000
0000
0010
0000
0000
0000
1100
0000
0000
0000
0000
0000
0000
0000
0000
0000
0000
0000
0010
0000
0000
0000
0101
0000
0000
0000
0010
0000
0000
0000
1000
0000
0000
0000
0100
0000
0000
0000
0011
0000
0000
0000
1000
0000
0000
0000
0001
0000
0000
0000
0000
0000
0000
0000
1010
0000
0000
0000
0001
0000
0000
0000
,
1200
0300
0000
0000
0010
0000
0000
0000
0100
0000
0000
0000
1000
0000
0000
0000
0011
0000
0000
0000
0100
0000
0000
0000
0010
0000
0000
0000
0001
0000
0000
0000
1100
0000
0000
0000
0010
0000
0000
0000
0100
0000
0000
0000
1000
0000
0000
0000
0011
0000
0000
0000
0100
0000
0000
0000
0010
0000
0000
0000
0001
0000
0000
0000
,
1100
0010
0100
1000
0011
0100
0010
0001
1100
0010
0100
1000
0011
0011
0011
0011
,
1100
1010
0110
0101
,
0011
1000
0000
1000
0001
1000
0000
1000
,
0001
1000
0000
1000
0001
1000
0000
1000
,
0001
0000
1100
0000
0001
0000
1100
0000
0001
0000
1100
0001
0000
0001
1010
0000
,
0001
0000
1100
0000
0001
0000
1100
0000
0001
0000
1100
0001
0000
0001
1010
0000
,
0101
1000
0000
1000
0001
1000
0000
1000
,
0001
1000
0000
1000
0001
1000
0000
1000
,
0001
0000
1100
0000
0001
0000
1100
0000
0001
0000
1100
0001
0000
0001
1010
0000
,
0001
1100
0011
1100
0011
0000
1100
0011
1100
0011
0100
0010
1000
0000
0100
0000
,
0011
1000
0001
0010
1000
0010
1100
0001
1010
0001
0110
0001
0010
1000
0101
0010
,
1001
0010
1000
0001
1010
0100
0010
1000
0101
1000
0001
0100
0011
0100
0010
1000
,
0002
0003
0000
0000
0100
0000
0000
0000
0010
0000
0000
0000
1000
0000
0000
0000
0001
0000
0000
0000
0010
0000
0000
0000
0101
0000
0000
0000
1000
0000
0000
0000
0110
0000
0000
0000
0001
0000
0000
0000
0010
0000
0000
0000
1100
0000
0000
0000
0010
0000
0000
0000
1000
0000
0000
0000
0110
0000
0000
0000
0001
0000
0000
0000
,
1020
1000
0000
1000
0230
1000
0000
1000
,
0312
1000
0000
1000
0000
1000
0000
1000
,
0123
1000
0000
1000
0000
1000
0000
1000
,
0231
0000
1000
0000
0000
0000
1000
0000
0000
0000
1000
0000
0000
0000
1301
1001
,
0011
0100
1000
0001
0010
0100
1000
0001
0010
1000
0001
0100
0010
0100
0010
1000
0000
0000
0000
0000
0000
0000
0000
0000
,
1100
0010
0000
0010
0100
0010
0000
0010
,
0100
0010
0000
0010
0100
0010
0000
0010
,
0100
0000
0011
0000
0100
0000
0011
0000
0100
0000
0011
0100
0000
0100
1001
0000
,
0100
0000
0011
0000
0100
0000
0011
0000
0100
0000
0011
0100
0000
0100
1001
0000
,
0101
0010
0000
0010
0100
0010
0000
0010
,
0100
0010
0000
0010
0100
0010
0000
0010
,
0100
0000
0011
0000
0100
0000
0011
0000
0100
0000
0011
0100
0000
0100
1001
0000
,
0100
0011
1100
0011
1100
0000
0011
1100
0001
1000
0010
0100
0001
0000
0010
0000
,
1100
0010
0100
0001
1000
0100
0001
1000
0011
0100
0010
0101
1000
0001
0110
0001
,
1010
0100
0010
1000
0110
0001
0100
1000
0101
0010
0001
1000
0011
0100
0010
1000
,
0001
0010
0100
1000
0100
0001
1100
0010
0101
0010
1000
0011
0100
0001
0110
0001
,
1020
1000
0000
1000
0230
1000
0000
1000
,
0312
1000
0000
1000
0000
1000
0000
1000
,
0123
1000
0000
1000
0000
1000
0000
1000
,
0231
0000
1000
0000
0000
0000
1000
0000
0000
0000
1000
0000
0000
0000
1301
1001
,
0011
0100
1000
0001
0010
0100
1000
0001
0010
1000
0001
0100
0010
0100
0010
1000
0000
0000
0000
0000
0000
0000
0000
0000
,
0001
0100
1010
0000
0000
0000
1100
0001
1000
0010
0101
1000
0001
0000
0110
1000
,
0010
1000
0011
0000
0000
0010
1001
0100
1000
0100
1010
0001
0100
0001
0110
1000
,
0102
1000
0000
1000
0000
1000
0000
1000
,
1103
0000
0000
0000
1010
0000
0000
0000
0011
0011
0011
0011
0100
0001
0010
1000
,
0011
0100
1010
0000
0000
0000
1100
0001
1000
0010
0101
1000
0001
0000
0110
1000
,
0010
1000
0011
0000
0000
0010
1001
0100
1000
0100
1010
0001
0100
0001
0110
1000
,
0102
0000
1000
0000
0000
0000
1000
0000
1103
0011
1100
0011
1100
0011
1100
0011
,
1100
1010
0110
0101
,
0011
0000
0000
0000
0000
0000
0000
0000
0100
0000
0000
0000
0000
0000
0000
0000
1000
0000
0000
0000
0000
0000
0000
0000
0001
0000
0000
0000
0000
0000
0000
0000
0010
0000
0000
0000
0000
0000
0000
0000
1000
0000
0000
0000
0000
0000
0000
0000
0001
0000
0000
0000
0100
0000
0000
0000
0000
0010
0000
0000
0000
0000
0000
0000
0000
0000
1000
0000
0000
0000
0000
0000
0001
0000
0000
0000
0000
0000
0000
0000
0000
0100
0000
0000
0000
0000
0000
0001
0000
0000
0000
0000
0000
0000
0000
0000
0100
0000
0000
0000
0000
0000
0000
0000
0010
0000
0000
0000
0000
0000
0000
0000
1000
0000
0000
0000
0000
0000
0000
0000
0001
0000
0000
0000
1000
0000
0000
0000
0100
0000
0000
0000
0010
0000
0000
0000
0001
0000
0000
0000
0000
0000
0000
0000
1000
0000
0000
0000
0000
0000
0000
0000
0001
0000
0000
0000
0010
0000
0000
0000
0100
0000
0000
0000
0000
0000
0000
0000
1000
0000
0000
0000
0000
0000
0000
0000
0001
0000
0000
0000
0000
0000
0000
0000
0100
0000
0000
0000
0000
0000
0000
0000
,
1000
0001
0000
0000
0000
0000
0110
0000
0000
0000
0000
0000
1001
0000
0000
0000
0000
0000
0000
0000
0000
0000
0000
0000
,
1001
0100
0010
1000
0010
0001
0010
0100
1000
0001
0010
0100
0001
0010
1000
0001
,
0010
0100
0010
1000
0001
0010
0100
1000
0100
0001
0010
1000
0001
0100
1000
0001
,
0100
1000
0100
0010
0001
0100
0010
1000
0100
0001
0010
0100
0001
0010
1000
0100
,
0011
1000
0010
0101
0010
0001
1100
0010
0101
1000
0100
1010
0001
0000
0110
0000
,
1001
0100
0010
1000
0010
0001
0010
0100
1000
0001
0010
0100
0001
0010
1000
0001
,
0010
0100
0010
1000
0001
0010
0100
1000
0100
0001
0010
1000
0001
0100
1000
0001
,
0100
1000
0100
0010
0001
0100
0010
1000
0100
0001
0010
0100
0001
0010
1000
0100
,
0001
1000
0100
0010
0100
0001
1000
0010
0100
0010
0001
0100
1001
0000
0000
0000
,
0110
0000
0000
1000
0000
0000
0100
0000
0000
0010
0000
0000
0100
0000
0001
0000
0100
0000
1000
0000
0000
0010
0000
0000
0001
0000
0100
0000
0010
0000
1000
0000
0100
0000
0010
0000
1001
0000
0000
0000
0000
0000
0000
0000
0000
0000
0000
0000
,
1000
0000
0010
0000
1000
0000
0010
0000
1000
0000
0010
0000
1000
0000
0010
0000
0100
0000
0010
0000
0100
0000
0010
0000
0100
0000
0001
0000
0100
0000
0001
0000
0100
0000
0001
0000
0100
0000
0001
0000
2000
0000
0000
0000
0000
0000
3000
0010
,
0000
0000
0000
1000
0000
0000
0000
0000
0001
0000
0000
0000
0000
0000
0000
0000
1000
0000
0000
0000
0000
0000
0000
0000
0001
0000
0000
0000
0000
0000
0000
0000
1000
0000
0000
0000
0000
0000
0000
0000
0001
0000
0000
0000
0000
0000
0000
0000
1000
0000
0000
0000
0000
0000
0000
0000
0001
0000
0000
0000
0000
0000
0000
0000
0100
0000
0000
0000
0000
0000
0000
0000
0001
0000
0000
0000
0000
0000
0000
0000
0100
0000
0000
0000
0000
0000
0000
0000
0001
0000
0000
0000
0000
0000
0000
0000
0100
0000
0000
0000
0000
0000
0000
0000
0010
0000
0000
0000
0000
0000
0000
0000
1000
0000
0000
0000
0000
0000
0000
0000
0010
0000
0000
0000
0000
0000
0000
0000
1000
0000
0000
0000
0000
0000
0000
0000
0010
0000
0000
0000
0000
0000
0000
0000
1000
0000
0000
0000
0000
0000
0000
0000
0010
0000
0000
0000
0000
0000
0000
0000
0001
0000
0000
0000
0000
0000
0000
0000
0010
0000
0000
0000
0000
0000
0000
0000
0001
0000
0000
0000
0000
0000
0000
0000
1000
0000
0000
0000
0100
0000
0000
0000
,
0020
0000
0000
0000
0000
0000
0000
0000
0000
0000
0000
0000
0000
0000
0000
0000
0000
0000
0000
0000
0000
0000
0000
0000
0000
0000
0000
0000
0000
0000
0000
0000
0000
0000
0000
0000
0000
0000
0000
0000
0000
0000
0000
0000
0000
0000
0000
0000
0000
0000
0000
0000
0000
0000
0000
0000
0000
0000
0000
0000
0000
0000
0000
0000
0000
0000
0000
0000
0000
0000
0000
0000
0000
0000
0000
0000
0000
0000
0030
0000
0100
0000
0000
0000
0000
0000
0000
0000
0000
0000
0000
0000
0000
0000
0000
0000
2000
0000
0000
0000
0000
0000
0000
0000
0000
0000
0000
0000
0000
0000
0000
0000
0000
0000
0000
0000
0000
0000
0000
0000
0000
0000
0000
0000
0000
0000
0000
0000
0000
0000
0000
0000
0000
0000
0000
0000
0000
0000
0000
0000
0000
0000
0000
0000
0000
0000
0000
0000
0000
0000
3000
0000
0000
1000
0000
0000
0000
0000
0000
0000
0000
0000
0000
0000
0000
0000
0000
0000
0000
0000
0000
0000
0000
0000
0100
0000
0000
0000
0000
0000
0000
0000
0000
0000
0000
0000
0000
0000
0000
0000
0000
0000
,
0010
0000
0000
0000
0100
0000
0000
0000
0001
0000
0000
0000
1000
0000
0000
0000
0100
0000
0000
0000
0010
0000
0000
0000
2000
0000
0000
0000
0000
0000
0000
0000
0000
0000
0000
0000
0000
0000
0000
0000
0000
0000
0000
0000
0000
0000
0000
3000
,
0100
0000
0000
0000
0000
0000
0010
0000
0000
0000
0000
0000
1000
0000
0000
0000
0000
0000
0000
0000
0000
0000
0000
0000
0100
0000
0000
0000
0000
0000
0000
0000
0010
0000
0000
0000
0001
0000
0000
0000
0000
0000
0000
0000
0000
0010
0000
0000
0000
0000
0000
0000
1000
0000
0000
0000
0000
0000
0000
0000
0100
0000
0000
0000
0000
0000
0010
0000
0000
0000
0000
0000
0001
0000
0000
0000
0000
0000
0000
0000
1000
0000
0000
0000
0000
0000
0000
0000
0100
0000
0000
0000
0000
0000
0000
0000
0001
0000
0000
0000
0000
0000
0000
0000
1000
0000
0000
0000
0000
0000
0000
0000
0100
0000
0000
0000
0000
0000
0000
0000
0010
0000
0000
0000
0000
0000
0000
0000
1000
0000
0000
0000
0000
0000
0000
0000
0100
0000
0000
0000
0000
0000
0000
0000
0010
0000
0000
0000
0000
0000
0000
0000
0100
0000
0000
0000
0000
0000
0000
0000
0010
0000
0000
0000
0000
0000
0000
0000
0001
0000
0000
0000
0000
0000
0000
0000
1000
0000
0000
0000
0000
0000
0000
0001
0000
0000
0000
0000
0000
1000
0000
0000
,
0000
0000
0000
0000
0010
0000
0000
0000
0000
0000
0000
0000
0100
0000
0000
0000
0000
0000
0000
0000
0000
0000
0000
0000
0001
0000
0000
0000
0000
0000
0000
0000
0000
0100
0000
0000
0000
0000
0000
0001
0000
0000
0000
0000
0000
0010
0000
0000
0000
0000
0000
0000
1000
0000
0000
0000
0000
0000
0000
0000
0100
0000
0000
0000
0000
0000
0000
0000
0000
0000
0000
0000
0001
0000
0000
0000
0000
0000
0000
0000
0000
0000
0000
0000
1000
0000
0000
0000
0000
0000
0000
0000
0000
0000
0000
0000
0100
0000
0000
0000
0000
0000
0000
0000
0000
0000
0000
0000
0010
0000
0000
0000
0000
0000
0000
0000
0000
0000
0000
0000
0100
0000
0000
0000
0000
0000
0000
0000
0000
0000
0000
0000
0010
0000
0000
0000
0000
0000
0000
0000
0000
0000
0000
0000
0001
0000
0000
0000
0000
0000
0000
0000
0010
0000
0000
0000
0000
0000
0000
0000
1000
0000
0000
0000
0000
0000
0000
0000
0001
0000
0000
0000
0000
0000
0000
0000
0100
0000
0000
0000
0000
0000
0000
0000
1000
0000
0000
0000
0000
0000
0000
0000
,
0010
0000
0000
0000
0000
0000
0100
0000
0000
0000
0000
0000
0001
0000
0000
0000
0000
0000
0000
0000
0000
1000
0000
0000
0000
0000
0000
0001
0000
0000
0000
0000
0010
0000
0000
0000
0000
0000
0000
0100
0000
0000
0000
0000
1000
0000
0000
0000
0001
0000
0000
0000
0000
0000
0000
0000
0100
0000
0000
0000
0000
0000
0000
0000
0010
0000
0000
0000
0000
0000
0000
0000
1000
0000
0000
0000
0000
0000
0000
0000
0001
0000
0000
0000
0000
0000
0000
0000
0100
0000
0000
0000
0000
0000
0000
0000
0010
0000
0000
0000
0000
0000
0000
0000
0100
0000
0000
0000
0000
0000
0000
0000
0010
0000
0000
0000
0000
0000
0000
0000
1000
0000
0000
0000
0000
0000
0000
0000
0001
0000
0000
0000
0000
0000
0000
0000
0010
0000
0000
0000
0000
0000
0000
0000
0100
0000
0000
0000
0000
0000
0000
0000
0010
0000
0000
0000
0000
0000
0000
0000
0100
0000
0000
0000
0000
0000
0000
0000
1000
0000
0000
0000
0000
0000
0000
0000
0001
0000
0000
0000
0000
0000
0000
0000
0100
0000
0000
0000
0000
0000
0000
0000
,
1000
0000
0000
0000
0000
0000
0001
0000
0000
0000
0000
0000
0010
0000
0000
0000
0000
0000
0100
0000
0000
0000
0000
0000
1000
0000
0000
0000
0000
0000
0000
0000
0010
0000
0000
0000
0000
0000
0000
0000
0100
0000
0000
0000
0000
0000
0000
0000
0001
0000
0000
0000
0000
0000
0000
0000
0010
0000
0000
0000
0000
0000
0000
0000
1000
0000
0000
0000
0000
0000
0000
0000
0001
0000
0000
0000
0000
0000
0000
0000
0010
0000
0000
0000
0000
0000
0000
0100
0000
0000
0000
0000
0000
1000
0000
0000
0001
0000
0000
0000
0000
0000
0010
0000
0000
0000
0000
0000
0100
0000
0000
0000
0000
0000
1000
0000
0000
0000
0000
0000
0001
0000
0000
0000
0000
0000
0000
0000
0010
0000
0000
0000
0000
0000
0000
0000
1000
0000
0000
0000
0000
0000
0000
0000
0100
0000
0000
0000
0000
0000
0000
0000
0010
0000
0000
0000
0000
0000
0000
0000
0100
0000
0000
0000
0000
0000
0000
0000
0010
0000
0000
0000
0000
0000
0000
0000
0001
0000
0000
0000
0000
0000
0000
0000
1000
0000
0000
0000
0000
0000
0000
0000
,
0010
0001
1000
0200
0000
0000
0000
0000
0000
0001
0000
0000
0000
0000
0000
0001
0000
0000
0000
0000
0000
0001
0000
0000
,
0000
0000
0000
0000
0001
0000
0000
0000
0000
0000
0300
0000
0101
0000
0001
0000
2000
3000
0000
0000
0021
0030
0000
0000
0200
0000
0300
0000
1010
0000
0000
0000
,
0001
0000
0001
0000
1002
0003
0000
0000
0000
0000
0000
0000
0101
0000
0001
0000
2000
3000
0000
0000
0021
0030
0000
0000
0200
0000
0300
0000
0011
0000
0000
0000
,
2001
0100
0000
0100
3020
0100
0000
0100
,
0131
0000
0001
0000
1002
0003
0000
0000
0000
0000
0000
0000
0101
0000
0001
0000
2000
3000
0000
0000
0021
0030
0000
0000
0200
0000
0300
0000
1010
0000
0000
0000
,
0001
0000
0001
0000
1002
0003
0000
0000
0000
0000
0000
0000
0101
0000
0001
0000
2000
3000
0000
0000
0021
0030
0000
0000
0200
0000
0300
0000
1010
0000
0000
0000
,
0001
0000
0001
0000
1002
0003
0000
0000
0000
0000
0000
0000
0101
0000
0000
0000
2000
3000
0000
0000
0021
0030
0000
0000
0200
0000
0300
0000
1010
0000
0000
0000
,
0002
1000
0000
1000
0023
1000
0000
1000
,
0230
0001
0000
0001
2300
0001
0000
0001
,
3110
0001
1000
0100
0010
0001
1000
0100
0010
0100
0010
0001
1000
0010
0100
0001
1000
0010
0001
0100
0010
1000
0100
0010
,
0100
0010
0001
0100
1000
0001
0010
0100
1000
0010
0100
0001
1000
0100
0010
1000
0100
0001
1000
0010
0100
0010
0100
0001
,
0010
0100
0001
0010
1000
0001
0100
0010
1000
0001
0010
0100
1000
0100
0001
1000
0010
0001
1000
0100
0010
1001
0100
0010
,
0100
0010
0001
1000
0100
0010
0001
0010
1000
0100
0010
0001
1000
0100
0001
1000
0010
0001
0100
0010
1000
0100
0010
0001
,
1010
0110
0101
0011
,
1010
0110
0101
0011
,
2020
0000
0000
3030
0220
0000
0000
0330
,
0202
0000
0000
0303
0022
0000
0000
0033
,
1000
0010
0101
0000
0000
0100
1010
0100
0001
0010
1001
0100
0001
0000
0110
1000
,
0100
1000
0011
0000
0000
0010
0101
1000
0010
1000
0110
0001
1000
0001
1010
0100
,
0012
1000
0000
1000
0000
1000
0000
1000
,
1103
0000
0000
0000
1010
0000
0000
0000
0011
0011
0011
0011
1100
0010
0100
0001
,
1100
0010
0101
0000
0000
0100
1010
0100
0001
0010
1001
0100
0001
0000
0110
1000
,
0100
1000
0011
0000
0000
0010
0101
1000
0010
1000
0110
0001
1000
0001
1010
0100
,
0012
0000
0000
0000
1000
0000
0000
0000
0000
0000
0000
0000
1000
0000
0000
0000
0000
0000
0000
0000
1000
0000
0000
0003
0011
0000
0011
0000
0011
0000
0011
0000
,
1100
0010
1000
0001
0110
0001
0100
1000
0011
0100
0010
0100
1010
0001
1000
0010
,
1001
0010
0101
0000
0000
0100
1001
0100
0001
0010
1100
0001
0100
0000
0110
0001
,
0100
0001
1010
0000
0000
0010
1001
0100
1000
0100
1010
0001
0100
0001
0110
1000
,
0101
0000
0000
0110
0000
0000
1010
0000
0101
0000
0000
0110
0000
0000
1010
0000
,
0101
0000
0110
1001
0110
1001
0110
1001
0010
1000
0100
0001
0010
0001
1000
0010
,
1100
0010
0101
0000
0000
0100
1001
0100
0001
0010
1100
0001
0100
0000
0110
0001
,
0100
0001
1010
0000
0000
0010
1001
0100
1000
0100
1010
0001
0100
0001
0110
1000
,
0102
1000
0000
1000
0000
1000
0000
1000
,
1013
0110
0101
0011
,
1010
0110
0101
0011
,
2020
0000
0000
3030
0220
0000
0000
0330
,
0202
0000
0000
0303
0022
0000
0000
0033
,
1001
0000
0000
0000
,
0000
0000
0000
0000
0000
0000
1000
0100
0010
0100
0010
0001
1000
0100
0010
0100
0010
0001
1000
0100
0010
0100
0010
0001
,
1000
0100
0010
0100
0010
0001
1000
0100
0010
0100
0010
0001
1000
0100
0010
0100
0010
0001
1000
0100
0010
0100
0010
0001
,
1000
0000
0000
0000
0000
0000
0000
0000
0100
0000
0000
0000
0000
0000
0000
0000
0010
0000
0000
0000
0000
0000
0000
0000
0000
0000
0000
0000
0000
0000
0000
0000
0000
0100
0000
0000
0000
0000
0000
0000
0000
0000
0000
0000
0000
0010
0000
0000
0000
0000
0000
0000
0000
0000
0000
0000
0000
0000
0000
0000
0001
0000
0000
0000
0000
0000
0000
0000
0000
0000
0000
0000
0000
0000
0000
0000
0100
0000
0000
0000
0000
0000
0000
0000
0000
0000
0000
0000
0000
0000
0000
0000
0000
0010
0000
0000
0000
0000
0000
0000
0000
0000
0000
0000
0000
0000
0000
0000
0000
0000
0000
0000
1000
0000
0000
0000
0000
0000
0000
0000
0000
0000
0000
0000
0000
0000
0000
0000
0000
0000
0000
0000
0100
0000
0000
0000
0000
0000
0000
0000
0000
0000
0000
0000
0000
0000
0000
0000
0000
0000
0010
0000
0000
0000
0000
0000
0000
0000
0000
0000
0000
0000
0000
0000
0000
0000
0000
0000
0000
0000
0000
0001
0000
0000
0000
0000
0000
0000
0000
0000
0000
0000
0000
0000
0000
0000
0000
0000
0000
0000
0000
0000
,
0100
0000
0000
0000
0000
0000
0000
0000
0000
0000
0000
0000
0000
0000
0000
0000
0000
0000
0000
0000
0000
0010
0000
0000
0000
0000
0000
0000
0000
0000
0000
0000
0000
0000
0000
0000
0000
0000
0000
0000
0000
0000
0000
0000
0000
0100
0000
0000
0000
0000
0000
0000
0000
0000
0000
0000
0000
0000
0000
0000
0000
0000
0000
0000
0000
0000
0000
0000
0010
0000
0000
0000
0000
0000
0000
0000
0000
0000
0000
0000
0000
0000
0000
0000
0000
0000
0000
0000
0000
0000
0000
0000
0100
0000
0000
0000
0000
0000
0000
0000
0000
0000
0000
0000
0000
0000
0000
0000
0000
0000
0000
0000
0000
0000
0000
0000
0010
0000
0000
0000
0000
0000
0000
0000
0000
0000
0000
0000
0000
0000
0000
0000
0000
0000
0000
0000
0000
0000
0000
0000
0000
0000
0000
0000
0000
0000
0000
0000
0000
0000
0100
0000
0000
0000
0000
0000
0000
0000
0000
0000
0000
0000
0000
0000
0000
0000
0000
0000
0000
0000
0000
0000
0000
0000
0000
0000
0000
0000
0000
0000
0000
0000
0000
0000
0000
0000
0010
0000
0000
0000
0000
0000
,
0000
0000
0000
0000
0000
0000
0000
0000
0000
0100
0000
0000
0000
0000
0000
0000
0000
0000
0000
0010
0000
0000
0000
0000
0000
0000
0000
0000
0000
0000
0000
0100
0000
0000
0000
0000
0000
0000
0000
0000
0000
0000
0000
0000
0000
0010
0000
0000
,
0000
0000
0000
0000
0000
0000
0000
0000
0000
0000
0000
0000
0000
0000
0000
0000
0000
0000
0000
0000
0000
0000
0000
0000
0000
0000
0000
0000
0000
0000
0000
0000
0000
0000
0000
0000
0000
0000
0000
0000
0000
0000
0000
0000
0000
0000
0000
0000
0000
0000
0000
0100
0000
0000
0000
0000
0000
0000
0000
0000
0000
0000
0000
0000
0000
0000
0000
0000
0000
0000
0000
0000
0000
0000
0000
0000
0000
0000
0000
0000
0000
0000
0000
0000
0000
0000
0000
0000
0000
0000
0000
0000
0000
0000
0000
0000
0000
0000
0000
0000
0000
0000
0000
0000
0000
0000
0000
0000
0000
0000
0000
0000
0000
0000
0000
0000
0000
0000
0000
0000
0000
0000
0000
0000
0000
0000
0000
0000
0010
0000
0000
0000
0000
0000
0000
0000
0000
0000
0000
0000
0000
0000
0000
0000
0000
0000
0000
0000
0000
0000
0000
0000
0000
0000
0000
0000
0000
0000
0000
0000
0000
0000
0000
0000
0000
0000
0000
0000
0000
0000
0000
0000
0000
0000
0000
0000
0000
0000
0000
0000
0000
0000
0000
0000
0000
0000
0000
0000
0000
0000
0000
0000
,
0000
0000
0000
0000
0000
0100
0000
0000
0000
0000
0000
0000
0000
0000
0000
0000
0000
0000
0000
0000
0000
0000
0000
0000
0000
0000
0000
0000
0000
0000
0000
0000
0000
0000
0000
0000
0000
0000
0000
0000
0000
0000
0000
0000
0000
0000
0000
0000
,
0000
0000
0000
0000
0000
0000
0000
0000
0000
0000
0000
0000
0000
0000
0000
0000
0000
0000
0000
0000
0000
0000
0000
0000
0020
0030
0000
0000
0000
0000
0000
0000
0000
0000
0000
0000
0020
0030
0000
0000
0000
0000
0000
0000
0000
0000
0000
0000
,
0020
0030
0000
0000
0000
0000
0000
0000
0000
0000
0000
0000
0020
0030
0000
0000
0000
0000
0000
0000
0000
0000
0000
0000
0010
0000
0100
0000
0001
0000
0010
0000
1000
0000
0001
0000
0100
0010
1000
0001
0000
0010
0000
0100
0000
0010
0000
0100
,
0000
0000
0000
0000
1000
0000
0000
0000
0000
0000
0000
0000
0001
0000
0000
0000
0000
0000
0010
0000
0000
0000
0000
0000
0100
0000
0000
0000
0000
0000
0000
0000
1000
0000
0000
0000
0000
0000
0000
0000
0010
0000
0000
0000
0000
0000
0000
0000
0100
0000
0000
0000
0000
0000
0000
0000
0010
0000
0000
0000
0000
0000
0000
0000
0100
0000
0000
0000
0000
0000
0000
0000
0001
0000
0000
0000
0000
0000
0000
0000
1000
0000
0000
0000
0000
0000
0000
0000
0100
0000
0000
0000
0000
0000
0000
0000
0001
0000
0000
0000
0000
0000
0000
0000
1000
0000
0000
0000
0000
0000
0000
0000
0010
0000
0000
0000
0000
0000
0000
0000
0000
0000
0000
0000
0000
0000
0000
0000
0000
0000
0000
0000
0000
0000
0000
0000
0000
0000
0000
0000
0000
0000
0000
0000
0101
0000
0000
0000
0000
0000
0000
0000
0000
0000
0000
0000
0000
0000
0000
0000
0000
0000
0000
0000
0000
0000
0000
0000
0000
0000
0000
0000
0000
0000
0000
0000
0000
0000
0000
0000
0000
0000
0000
0000
0000
0000
0000
0000
0000
0000
0000
0000
,
1010
0000
0000
0000
;

//---------------dance-single - ----------------
#NOTES:
     dance-single:
     :
     Challenge:
     15:
     1.000,1.000,1.000,0.412,1.000,1426.000,334.000,77.000,0.000,31.000:
0000
0010
1000
0000
0000
0010
0001
1000
1000
0100
0010
1000
0001
0000
0010
0010
,
0010
0010
1000
0000
0000
0001
0100
1000
1000
0100
0100
0010
0010
0001
0001
0010
,
0010
0010
1000
0000
0000
0010
0001
1000
1000
0100
0010
1000
0001
0000
0010
0010
,
0011
1010
1000
0100
0001
0010
0010
1000
1000
0100
0100
0010
1100
0011
0001
0010
,
1010
0010
1000
0000
0000
0010
0001
1000
1000
0100
0010
1000
0001
0000
0010
0010
,
0010
0010
1000
0000
0000
0001
0100
1000
1000
0100
0100
0010
0010
0001
0001
0010
,
0010
0010
1000
0000
0000
0010
0001
1000
1000
0100
0010
1000
0001
0000
0010
0010
,
0011
1010
1000
0100
0001
0010
0010
1000
1000
0100
0100
0010
1100
1100
1100
1100
,
0002
0003
0000
0000
0010
0000
0000
0000
1100
0000
0000
0000
0000
0000
0000
0000
0000
0000
0000
0000
0010
0000
0000
0000
0101
0000
0000
0000
1000
0000
0000
0000
1000
0000
0000
0000
0100
0000
0000
0000
0011
0000
0000
0000
1000
0000
0000
0000
0001
0000
0000
0000
0000
0000
0000
0000
1010
0000
0000
0000
0010
0000
0000
0000
,
0010
0010
1001
0000
0000
0001
0110
1000
1000
0100
0101
0010
0010
0001
1001
0100
,
0002
0003
0000
0000
0010
0000
0000
0000
1100
0000
0000
0000
0000
0000
0000
0000
0000
0000
0000
0000
0010
0000
0000
0000
0101
0000
0000
0000
1000
0000
0000
0000
1000
0000
0000
0000
0100
0000
0000
0000
0011
0000
0000
0000
1000
0000
0000
0000
0001
0000
0000
0000
0000
0000
0000
0000
1010
0000
0000
0000
0010
0000
0000
0000
,
0200
0300
0000
0000
0010
0000
0000
0000
0101
0000
0000
0000
1000
0000
0000
0000
0010
0000
0000
0000
0100
0000
0000
0000
1010
0000
0000
0000
0001
0000
0000
0000
0200
0300
0000
0000
0010
0000
0000
0000
0101
0000
0000
0000
1000
0000
0000
0000
0010
0000
0000
0000
0100
0000
0000
0000
1010
0000
0000
0000
0001
0000
0000
0000
,
0200
0300
0000
0000
0010
0000
0000
0000
1100
0000
0000
0000
0000
0000
0000
0000
0000
0000
0000
0000
0010
0000
0000
0000
0101
0000
0000
0000
1000
0000
0000
0000
1000
0000
0000
0000
0100
0000
0000
0000
0011
0000
0000
0000
1000
0000
0000
0000
0001
0000
0000
0000
0000
0000
0000
0000
1010
0000
0000
0000
0010
0000
0000
0000
,
0010
0010
1001
0000
0000
0001
0110
1000
1000
0100
0101
0010
0010
0001
1001
0100
,
0002
0003
0000
0000
0010
0000
0000
0000
1100
0000
0000
0000
0000
0000
0000
0000
0000
0000
0000
0000
0010
0000
0000
0000
0101
0000
0000
0000
1000
0000
0000
0000
1000
0000
0000
0000
0100
0000
0000
0000
0011
0000
0000
0000
1000
0000
0000
0000
0001
0000
0000
0000
0000
0000
0000
0000
1010
0000
0000
0000
0001
0000
0000
0000
,
1200
0300
0000
0000
0010
0000
0000
0000
0100
0000
0000
0000
1000
0000
0000
0000
0011
0000
0000
0000
0100
0000
0000
0000
0010
0000
0000
0000
0001
0000
0000
0000
1100
0000
0000
0000
0010
0000
0000
0000
0100
0000
0000
0000
1000
0000
0000
0000
0011
0000
0000
0000
0100
0000
0000
0000
0010
0000
0000
0000
0001
0000
0000
0000
,
1100
0010
0100
1000
0011
0100
0010
0001
1100
0010
0100
1000
0011
0011
0011
0011
,
1100
1010
0110
0101
,
0011
1000
0000
1000
0001
1000
0000
1000
,
0001
1000
0000
1000
0001
1000
0000
1000
,
0001
0000
1100
0000
0001
0000
1100
0000
0001
0000
1100
0001
0000
0001
1010
0000
,
0001
0000
1100
0000
0001
0000
1100
0000
0001
0000
1100
0001
0000
0001
1010
0000
,
0101
1000
0000
1000
0001
1000
0000
1000
,
0001
1000
0000
1000
0001
1000
0000
1000
,
0001
0000
1100
0000
0001
0000
1100
0000
0001
0000
1100
0001
0000
0001
1010
0000
,
0001
1100
1100
1100
1100
0000
1100
1100
1100
1100
0010
0100
0001
0000
1000
0000
,
0011
1000
0001
0010
1000
0010
1100
0001
1010
0001
0110
0001
0010
1000
0101
0010
,
1001
0010
1000
0001
1010
0100
0010
1000
0101
1000
0001
0100
0011
0100
0010
1000
,
0002
0003
0000
0000
0100
0000
0000
0000
0010
0000
0000
0000
1000
0000
0000
0000
0001
0000
0000
0000
0010
0000
0000
0000
0101
0000
0000
0000
1000
0000
0000
0000
0110
0000
0000
0000
0001
0000
0000
0000
0010
0000
0000
0000
1100
0000
0000
0000
0010
0000
0000
0000
1000
0000
0000
0000
0110
0000
0000
0000
0001
0000
0000
0000
,
1020
1000
0000
1000
0230
1000
0000
1000
,
0312
1000
0000
1000
0000
1000
0000
1000
,
0123
1000
0000
1000
0000
1000
0000
1000
,
0231
0000
1000
0000
0000
0000
1000
0000
0000
0000
1000
0000
0000
0000
1301
1001
,
0011
0100
1000
0001
0010
0100
1000
0001
0010
1000
0001
0100
0010
0100
0010
1000
0000
0000
0000
0000
0000
0000
0000
0000
,
1100
0010
0000
0010
0100
0010
0000
0010
,
0100
0010
0000
0010
0100
0010
0000
0010
,
0100
0000
0011
0000
0100
0000
0011
0000
0100
0000
0011
0100
0000
0100
1001
0000
,
0100
0000
0011
0000
0100
0000
0011
0000
0100
0000
0011
0100
0000
0100
1001
0000
,
0101
0010
0000
0010
0100
0010
0000
0010
,
0100
0010
0000
0010
0100
0010
0000
0010
,
0100
0000
0011
0000
0100
0000
0011
0000
0100
0000
0011
0100
0000
0100
1001
0000
,
0100
0011
0011
0011
0011
0000
0011
0011
1000
0010
0100
0001
1000
0000
0010
0000
,
1100
0010
0100
0001
1000
0100
0001
1000
0011
0100
0010
0101
1000
0001
0110
0001
,
1010
0100
0010
1000
0110
0001
0100
1000
0101
0010
0001
1000
0011
0100
0010
1000
,
0001
0010
0100
1000
0100
0001
1100
0010
0101
0010
1000
0011
0100
0001
0110
0001
,
1020
1000
0000
1000
0230
1000
0000
1000
,
0312
1000
0000
1000
0000
1000
0000
1000
,
0123
1000
0000
1000
0000
1000
0000
1000
,
0231
0000
1000
0000
0000
0000
1000
0000
0000
0000
1000
0000
0000
0000
1301
1001
,
0011
0100
1000
0001
0010
0100
1000
0001
0010
1000
0001
0100
0010
0100
0010
1000
0000
0000
0000
0000
0000
0000
0000
0000
,
1001
0010
1100
0000
0000
0010
0101
1000
1000
0100
0011
1000
0001
0000
1010
0010
,
0010
0010
1001
0000
0000
0001
0110
1000
1000
0100
0101
0010
0010
0001
1001
0100
,
0012
1000
0000
1000
0000
1000
0000
1000
,
1103
0000
0000
0000
1010
0000
0000
0000
0011
0011
0011
0011
0100
0010
1000
0100
,
1001
0010
1100
0000
0000
0010
0101
1000
1000
0100
0011
1000
0001
0000
1010
0010
,
0010
0010
1001
0000
0000
0001
0110
1000
1000
0100
0101
0010
0010
0001
1001
0100
,
0012
0000
1000
0000
0000
0000
1000
0000
1100
1100
1100
1100
1100
1100
1100
1100
,
1103
1010
0110
0101
,
0011
0000
0000
0000
0000
0000
0000
0000
0100
0000
0000
0000
0000
0000
0000
0000
1000
0000
0000
0000
0000
0000
0000
0000
0001
0000
0000
0000
0000
0000
0000
0000
0010
0000
0000
0000
0000
0000
0000
0000
1000
0000
0000
0000
0000
0000
0000
0000
0001
0000
0000
0000
0100
0000
0000
0000
0000
0010
0000
0000
0000
0000
0000
0000
0000
0000
1000
0000
0000
0000
0000
0000
0001
0000
0000
0000
0000
0000
0000
0000
0000
0100
0000
0000
0000
0000
0000
0001
0000
0000
0000
0000
0000
0000
0000
0000
0100
0000
0000
0000
0000
0000
0000
0000
0010
0000
0000
0000
0000
0000
0000
0000
1000
0000
0000
0000
0000
0000
0000
0000
0001
0000
0000
0000
1000
0000
0000
0000
0100
0000
0000
0000
0010
0000
0000
0000
0001
0000
0000
0000
0000
0000
0000
0000
1000
0000
0000
0000
0000
0000
0000
0000
0001
0000
0000
0000
0010
0000
0000
0000
0100
0000
0000
0000
0000
0000
0000
0000
1000
0000
0000
0000
0000
0000
0000
0000
0001
0000
0000
0000
0000
0000
0000
0000
0100
0000
0000
0000
0000
0000
0000
0000
,
1000
0001
0000
0000
0000
0000
1101
0000
0000
0000
0000
0000
1011
0000
0000
0000
0000
0000
0000
0000
0000
0000
0000
0000
,
1001
0100
0011
1000
0010
0001
1100
0010
1000
0001
1010
0100
0001
0010
0101
1000
,
0010
0100
0011
1000
0001
0010
0101
1000
0100
0001
0110
1000
0001
0100
1010
0001
,
0100
1000
0101
0010
0001
0100
0011
1000
0100
0001
1010
0100
0001
0010
1001
0100
,
0011
1000
0010
0101
0010
0001
1100
0010
0101
1000
0100
1010
0001
0000
0110
0000
,
1001
0100
0011
1000
0010
0001
1100
0010
1000
0001
1010
0100
0001
0010
0101
1000
,
0010
0100
0011
1000
0001
0010
0101
1000
0100
0001
0110
1000
0001
0100
1010
0001
,
0100
1000
0101
0010
0001
0100
0011
1000
0100
0001
1010
0100
0001
0010
1001
0100
,
0001
1000
0101
1010
0100
0001
1000
0010
0100
0010
0001
0100
1001
0000
0000
0000
,
0110
0000
0000
1000
0000
0000
0100
0000
0000
0010
0000
0000
0100
0000
0001
0000
0100
0000
1000
0000
0000
0010
0000
0000
0001
0000
0100
0000
0010
0000
1000
0000
0100
0000
0010
0000
1001
0000
0000
0000
0000
0000
0000
0000
0000
0000
0000
0000
,
1000
0000
0010
0000
1000
0000
0010
0000
1000
0000
0010
0000
1000
0000
0010
0000
0100
0000
0010
0000
0100
0000
0010
0000
0100
0000
0001
0000
0100
0000
0001
0000
0100
0000
0001
0000
0100
0000
0001
0000
2000
0000
0000
0000
0000
0000
3000
0010
,
0000
0000
0000
1000
0000
0000
0000
0000
0001
0000
0000
0000
0000
0000
0000
0000
1000
0000
0000
0000
0000
0000
0000
0000
0001
0000
0000
0000
0000
0000
0000
0000
1000
0000
0000
0000
0000
0000
0000
0000
0001
0000
0000
0000
0000
0000
0000
0000
1000
0000
0000
0000
0000
0000
0000
0000
0001
0000
0000
0000
0000
0000
0000
0000
0100
0000
0000
0000
0000
0000
0000
0000
0001
0000
0000
0000
0000
0000
0000
0000
0100
0000
0000
0000
0000
0000
0000
0000
0001
0000
0000
0000
0000
0000
0000
0000
0100
0000
0000
0000
0000
0000
0000
0000
0010
0000
0000
0000
0000
0000
0000
0000
1000
0000
0000
0000
0000
0000
0000
0000
0010
0000
0000
0000
0000
0000
0000
0000
1000
0000
0000
0000
0000
0000
0000
0000
0010
0000
0000
0000
0000
0000
0000
0000
1000
0000
0000
0000
0000
0000
0000
0000
0010
0000
0000
0000
0000
0000
0000
0000
0001
0000
0000
0000
0000
0000
0000
0000
0010
0000
0000
0000
0000
0000
0000
0000
0001
0000
0000
0000
0000
0000
0000
0000
1000
0000
0000
0000
0100
0000
0000
0000
,
0020
0000
0000
0000
0000
0000
0000
0000
0000
0000
0000
0000
0000
0000
0000
0000
0000
0000
0000
0000
0000
0000
0000
0000
0000
0000
0000
0000
0000
0000
0000
0000
0000
0000
0000
0000
0000
0000
0000
0000
0000
0000
0000
0000
0000
0000
0000
0000
0000
0000
0000
0000
0000
0000
0000
0000
0000
0000
0000
0000
0000
0000
0000
0000
0000
0000
0000
0000
0000
0000
0000
0000
0000
0000
0000
0000
0000
0000
0030
0000
0100
0000
0000
0000
0000
0000
0000
0000
0000
0000
0000
0000
0000
0000
0000
0000
2000
0000
0000
0000
0000
0000
0000
0000
0000
0000
0000
0000
0000
0000
0000
0000
0000
0000
0000
0000
0000
0000
0000
0000
0000
0000
0000
0000
0000
0000
0000
0000
0000
0000
0000
0000
0000
0000
0000
0000
0000
0000
0000
0000
0000
0000
0000
0000
0000
0000
0000
0000
0000
0000
3000
0000
0000
1000
0000
0000
0000
0000
0000
0000
0000
0000
0000
0000
0000
0000
0000
0000
0000
0000
0000
0000
0000
0000
0100
0000
0000
0000
0000
0000
0000
0000
0000
0000
0000
0000
0000
0000
0000
0000
0000
0000
,
0010
0000
0000
0000
0100
0000
0000
0000
0001
0000
0000
0000
1000
0000
0000
0000
0100
0000
0000
0000
0010
0000
0000
0000
2000
0000
0000
0000
0000
0000
0000
0000
0000
0000
0000
0000
0000
0000
0000
0000
0000
0000
0000
0000
0000
0000
0000
3000
,
0100
0000
0000
0000
0000
0000
0010
0000
0000
0000
0000
0000
1000
0000
0000
0000
0000
0000
0000
0000
0000
0000
0000
0000
0100
0000
0000
0000
0000
0000
0000
0000
0010
0000
0000
0000
0001
0000
0000
0000
0000
0000
0000
0000
0000
0010
0000
0000
0000
0000
0000
0000
1000
0000
0000
0000
0000
0000
0000
0000
0100
0000
0000
0000
0000
0000
0010
0000
0000
0000
0000
0000
0001
0000
0000
0000
0000
0000
0000
0000
1000
0000
0000
0000
0000
0000
0000
0000
0100
0000
0000
0000
0000
0000
0000
0000
0001
0000
0000
0000
0000
0000
0000
0000
1000
0000
0000
0000
0000
0000
0000
0000
0100
0000
0000
0000
0000
0000
0000
0000
0010
0000
0000
0000
0000
0000
0000
0000
1000
0000
0000
0000
0000
0000
0000
0000
0100
0000
0000
0000
0000
0000
0000
0000
0010
0000
0000
0000
0000
0000
0000
0000
0100
0000
0000
0000
0000
0000
0000
0000
0010
0000
0000
0000
0000
0000
0000
0000
0001
0000
0000
0000
0000
0000
0000
0000
1000
0000
0000
0000
0000
0000
0000
0001
0000
0000
0000
0000
0000
1000
0000
0000
,
0000
0000
0000
0000
0010
0000
0000
0000
0000
0000
0000
0000
0100
0000
0000
0000
0000
0000
0000
0000
0000
0000
0000
0000
0001
0000
0000
0000
0000
0000
0000
0000
0000
0100
0000
0000
0000
0000
0000
0001
0000
0000
0000
0000
0000
0010
0000
0000
0000
0000
0000
0000
1000
0000
0000
0000
0000
0000
0000
0000
0100
0000
0000
0000
0000
0000
0000
0000
0000
0000
0000
0000
0001
0000
0000
0000
0000
0000
0000
0000
0000
0000
0000
0000
1000
0000
0000
0000
0000
0000
0000
0000
0000
0000
0000
0000
0100
0000
0000
0000
0000
0000
0000
0000
0000
0000
0000
0000
0010
0000
0000
0000
0000
0000
0000
0000
0000
0000
0000
0000
0100
0000
0000
0000
0000
0000
0000
0000
0000
0000
0000
0000
0010
0000
0000
0000
0000
0000
0000
0000
0000
0000
0000
0000
0001
0000
0000
0000
0000
0000
0000
0000
0010
0000
0000
0000
0000
0000
0000
0000
1000
0000
0000
0000
0000
0000
0000
0000
0001
0000
0000
0000
0000
0000
0000
0000
0100
0000
0000
0000
0000
0000
0000
0000
1000
0000
0000
0000
0000
0000
0000
0000
,
0010
0000
0000
0000
0000
0000
0100
0000
0000
0000
0000
0000
0001
0000
0000
0000
0000
0000
0000
0000
0000
1000
0000
0000
0000
0000
0000
0001
0000
0000
0000
0000
0010
0000
0000
0000
0000
0000
0000
0100
0000
0000
0000
0000
1000
0000
0000
0000
0001
0000
0000
0000
0000
0000
0000
0000
0100
0000
0000
0000
0000
0000
0000
0000
0010
0000
0000
0000
0000
0000
0000
0000
1000
0000
0000
0000
0000
0000
0000
0000
0001
0000
0000
0000
0000
0000
0000
0000
0100
0000
0000
0000
0000
0000
0000
0000
0010
0000
0000
0000
0000
0000
0000
0000
0100
0000
0000
0000
0000
0000
0000
0000
0010
0000
0000
0000
0000
0000
0000
0000
1000
0000
0000
0000
0000
0000
0000
0000
0001
0000
0000
0000
0000
0000
0000
0000
0010
0000
0000
0000
0000
0000
0000
0000
0100
0000
0000
0000
0000
0000
0000
0000
0010
0000
0000
0000
0000
0000
0000
0000
0100
0000
0000
0000
0000
0000
0000
0000
1000
0000
0000
0000
0000
0000
0000
0000
0001
0000
0000
0000
0000
0000
0000
0000
0100
0000
0000
0000
0000
0000
0000
0000
,
1000
0000
0000
0000
0000
0000
0001
0000
0000
0000
0000
0000
0010
0000
0000
0000
0000
0000
0100
0000
0000
0000
0000
0000
1000
0000
0000
0000
0000
0000
0000
0000
0010
0000
0000
0000
0000
0000
0000
0000
0100
0000
0000
0000
0000
0000
0000
0000
0001
0000
0000
0000
0000
0000
0000
0000
0010
0000
0000
0000
0000
0000
0000
0000
1000
0000
0000
0000
0000
0000
0000
0000
0001
0000
0000
0000
0000
0000
0000
0000
0010
0000
0000
0000
0000
0000
0000
0100
0000
0000
0000
0000
0000
1000
0000
0000
0001
0000
0000
0000
0000
0000
0010
0000
0000
0000
0000
0000
0100
0000
0000
0000
0000
0000
1000
0000
0000
0000
0000
0000
0001
0000
0000
0000
0000
0000
0000
0000
0010
0000
0000
0000
0000
0000
0000
0000
1000
0000
0000
0000
0000
0000
0000
0000
0100
0000
0000
0000
0000
0000
0000
0000
0010
0000
0000
0000
0000
0000
0000
0000
0100
0000
0000
0000
0000
0000
0000
0000
0010
0000
0000
0000
0000
0000
0000
0000
0001
0000
0000
0000
0000
0000
0000
0000
1000
0000
0000
0000
0000
0000
0000
0000
,
0010
0000
0000
0000
0000
0000
0000
0000
0001
0000
0000
0000
0000
0000
0000
0000
1000
0000
0000
0000
0000
0000
0000
0000
0210
0000
0000
0000
0000
0000
0000
0000
0000
0000
0000
0000
0000
0000
0000
0000
0000
0000
0000
0000
0000
0000
0000
0000
0000
0000
0000
0000
0000
0000
0000
0000
0000
0000
0000
0000
0000
0000
0000
0000
0000
0000
0000
0000
0000
0000
0000
0000
1001
0000
0000
0000
0000
0000
0000
0000
0000
0000
0000
0000
0001
0000
0000
0000
0000
0000
0000
0000
0000
0000
0000
0000
2000
0000
0000
0000
0000
0000
3000
0000
0000
0000
0000
0000
0000
0000
0000
0000
0000
0000
0000
0000
0000
0000
0000
0000
0012
0000
0000
0000
0000
0000
0003
0000
0000
0000
0000
0000
0000
0000
0000
0000
0000
0000
0000
0000
0000
0000
0000
0000
0020
0000
0000
0000
0000
0000
0000
0000
0000
0000
0000
0000
0030
0000
0000
0000
0000
0000
0000
0000
0000
0000
0000
0000
1010
0000
0000
0000
0000
0000
0000
0000
0000
0000
0000
0000
0000
0000
0000
0000
0000
0000
0000
0000
0000
0000
0000
0000
,
0001
0000
0001
0000
1002
0003
0000
0000
0000
0000
0000
0000
1001
0000
0001
0000
2300
3000
0000
0000
0021
0030
0000
0000
0200
0000
0300
0000
1010
0000
0000
0000
,
0001
0000
0001
0000
1002
0003
0000
0000
0000
0000
0000
0000
0101
0000
0001
0000
2000
3000
0000
0000
0021
0030
0000
0000
0200
0000
0300
0000
0011
0000
0000
0000
,
2001
0100
0000
0100
3020
0100
0000
0100
,
0131
0000
0001
0000
1002
0003
0000
0000
0000
0000
0000
0000
0101
0000
0001
0000
2000
3000
0000
0000
0021
0030
0000
0000
0200
0000
0300
0000
1010
0000
0000
0000
,
0001
0000
0001
0000
1002
0003
0000
0000
0000
0000
0000
0000
0101
0000
0001
0000
2000
3000
0000
0000
0021
0030
0000
0000
0200
0000
0300
0000
1010
0000
0000
0000
,
0001
0000
0001
0000
1002
0003
0000
0000
0000
0000
0000
0000
0101
0000
0000
0000
2000
3000
0000
0000
0021
0030
0000
0000
0200
0000
0300
0000
1010
0000
0000
0000
,
0002
1000
0000
1000
0023
1000
0000
1000
,
0230
0001
0000
0001
2300
0001
0000
0001
,
3110
0001
1000
0100
0010
0001
1000
0100
0010
0100
0010
0001
1000
0010
0100
0001
1000
0010
0001
0100
0010
1000
0100
0010
,
0100
0010
0001
0100
1000
0001
0010
0100
1000
0010
0100
0001
1000
0100
0010
1000
0100
0001
1000
0010
0100
0010
0100
0001
,
0010
0100
0001
0010
1000
0001
0100
0010
1000
0001
0010
0100
1000
0100
0001
1000
0010
0001
1000
0100
0010
1001
0100
0010
,
0100
0010
0001
1000
0100
0010
0001
0010
1000
0100
0010
0001
1000
0100
0001
1000
0010
0001
0100
0010
1000
0100
0010
0001
,
1010
0110
0101
0011
,
1010
0110
0101
0011
,
2020
0000
0000
3030
0220
0000
0000
0330
,
0202
0000
0000
0303
0022
0000
0000
0033
,
0001
0010
1100
0000
0000
0010
0101
1000
1000
0100
0011
1000
0001
0000
1010
0010
,
0010
0010
1001
0000
0000
0001
0110
1000
1000
0100
0101
0010
0010
0001
1001
0100
,
0012
1000
0000
1000
0000
1000
0000
1000
,
1103
0000
0000
0000
1010
0000
0000
0000
0011
0011
0011
0011
1100
0010
1000
0100
,
1001
0010
1100
0000
0000
0010
0101
1000
1000
0100
0011
1000
0001
0000
1010
0010
,
0010
0010
1001
0000
0000
0001
0110
1000
1000
0100
0101
0010
0010
0001
1001
0100
,
0012
0000
0000
0000
1000
0000
0000
0000
0000
0000
0000
0000
1000
0000
0000
0000
0000
0000
0000
0000
1000
0000
0000
0003
0011
0000
0011
0000
0011
0000
0011
0000
,
1100
0010
1000
0001
0110
0001
0100
1000
0011
0100
0010
0100
1010
0001
1000
0010
,
1001
0010
1100
0000
0000
0010
0101
1000
1000
0100
0011
1000
0001
0000
1010
0010
,
0010
0010
1001
0000
0000
0001
0110
1000
1000
0100
0101
0010
0010
0001
1001
0010
,
0101
0000
0000
0110
0000
0000
1010
0000
0101
0000
0000
0110
0000
0000
1010
0000
,
0101
0000
1001
1001
1001
1001
1001
1001
0010
1000
0100
0001
0010
0001
1000
0010
,
1001
0010
1100
0000
0000
0010
0101
1000
1000
0100
0011
1000
0001
0000
1010
0010
,
0010
0010
1001
0000
0000
0001
0110
1000
1000
0100
0101
0010
0010
0001
1001
0010
,
0102
1000
0000
1000
0000
1000
0000
1000
,
1013
0110
0101
0011
,
1010
0110
0101
0011
,
2020
0000
0000
3030
0220
0000
0000
0330
,
0202
0000
0000
0303
0022
0000
0000
0033
,
1001
0000
0000
0000
,
0000
0000
0000
0000
0000
0000
0100
0010
0100
0010
0100
0010
0100
0010
0100
0010
0100
0010
0100
0010
0100
0010
0100
0010
,
0100
0010
0100
0010
0100
0010
0100
0010
0100
0010
0100
0010
0100
0010
0100
0010
0100
0010
0100
0010
0100
0010
0100
0010
,
0100
0000
0000
0000
0000
0000
0000
0000
0010
0000
0000
0000
0000
0000
0000
0000
1000
0000
0000
0000
0000
0000
0000
0000
0000
0000
0000
0000
0000
0000
0000
0000
0000
0100
0000
0000
0000
0000
0000
0000
0000
0000
0000
0000
0000
0010
0000
0000
0000
0000
0000
0000
0000
0000
0000
0000
0000
0000
0000
0000
0001
0000
0000
0000
0000
0000
0000
0000
0000
0000
0000
0000
0000
0000
0000
0000
0100
0000
0000
0000
0000
0000
0000
0000
0000
0000
0000
0000
0000
0000
0000
0000
0000
0010
0000
0000
0000
0000
0000
0000
0000
0000
0000
0000
0000
0000
0000
0000
0000
0000
0000
0000
1000
0000
0000
0000
0000
0000
0000
0000
0000
0000
0000
0000
0000
0000
0000
0000
0000
0000
0000
0000
0100
0000
0000
0000
0000
0000
0000
0000
0000
0000
0000
0000
0000
0000
0000
0000
0000
0000
0010
0000
0000
0000
0000
0000
0000
0000
0000
0000
0000
0000
0000
0000
0000
0000
0000
0000
0000
0000
0000
0001
0000
0000
0000
0000
0000
0000
0000
0000
0000
0000
0000
0000
0000
0000
0000
0000
0000
0000
0000
0000
,
0100
0000
0000
0000
0000
0000
0000
0000
0000
0000
0000
0000
0000
0000
0000
0000
0000
0000
0000
0000
0000
0010
0000
0000
0000
0000
0000
0000
0000
0000
0000
0000
0000
0000
0000
0000
0000
0000
0000
0000
0000
0000
0000
0000
0000
0100
0000
0000
0000
0000
0000
0000
0000
0000
0000
0000
0000
0000
0000
0000
0000
0000
0000
0000
0000
0000
0000
0000
0010
0000
0000
0000
0000
0000
0000
0000
0000
0000
0000
0000
0000
0000
0000
0000
0000
0000
0000
0000
0000
0000
0000
0000
0100
0000
0000
0000
0000
0000
0000
0000
0000
0000
0000
0000
0000
0000
0000
0000
0000
0000
0000
0000
0000
0000
0000
0000
0010
0000
0000
0000
0000
0000
0000
0000
0000
0000
0000
0000
0000
0000
0000
0000
0000
0000
0000
0000
0000
0000
0000
0000
0000
0000
0000
0000
0000
0000
0000
0000
0000
0000
0100
0000
0000
0000
0000
0000
0000
0000
0000
0000
0000
0000
0000
0000
0000
0000
0000
0000
0000
0000
0000
0000
0000
0000
0000
0000
0000
0000
0000
0000
0000
0000
0000
0000
0000
0000
0010
0000
0000
0000
0000
0000
,
0000
0000
0000
0000
0000
0000
0000
0000
0000
0100
0000
0000
0000
0000
0000
0000
0000
0000
0000
0010
0000
0000
0000
0000
0000
0000
0000
0000
0000
0000
0000
0100
0000
0000
0000
0000
0000
0000
0000
0000
0000
0000
0000
0000
0000
0010
0000
0000
,
0000
0000
0000
0000
0000
0000
0000
0000
0000
0000
0000
0000
0000
0000
0000
0000
0000
0000
0000
0000
0000
0000
0000
0000
0000
0000
0000
0000
0000
0000
0000
0000
0000
0000
0000
0000
0000
0000
0000
0000
0000
0000
0000
0000
0000
0000
0000
0000
0000
0000
0000
0100
0000
0000
0000
0000
0000
0000
0000
0000
0000
0000
0000
0000
0000
0000
0000
0000
0000
0000
0000
0000
0000
0000
0000
0000
0000
0000
0000
0000
0000
0000
0000
0000
0000
0000
0000
0000
0000
0000
0000
0000
0000
0000
0000
0000
0000
0000
0000
0000
0000
0000
0000
0000
0000
0000
0000
0000
0000
0000
0000
0000
0000
0000
0000
0000
0000
0000
0000
0000
0000
0000
0000
0000
0000
0000
0000
0000
0010
0000
0000
0000
0000
0000
0000
0000
0000
0000
0000
0000
0000
0000
0000
0000
0000
0000
0000
0000
0000
0000
0000
0000
0000
0000
0000
0000
0000
0000
0000
0000
0000
0000
0000
0000
0000
0000
0000
0000
0000
0000
0000
0000
0000
0000
0000
0000
0000
0000
0000
0000
0000
0000
0000
0000
0000
0000
0000
0000
0000
0000
0000
0000
,
0000
0000
0000
0000
0000
0100
0000
0000
0000
0000
0000
0000
0000
0000
0000
0000
0000
0000
0000
0000
0000
0000
0000
0000
0000
0000
0000
0000
0000
0000
0000
0000
0000
0000
0000
0000
0000
0000
0000
0000
0000
0000
0000
0000
0000
0000
0000
0000
,
0000
0000
0000
0000
0000
0000
0000
0000
0000
0000
0000
0000
0000
0000
0000
0000
0000
0000
0000
0000
0000
0000
0000
0000
0020
0030
0000
0000
0000
0000
0000
0000
0000
0000
0000
0000
0020
0030
0000
0000
0000
0000
0000
0000
0000
0000
0000
0000
,
0020
0030
0000
0000
0000
0000
0000
0000
0000
0000
0000
0000
0020
0030
0000
0000
0000
0000
0000
0000
0000
0000
0000
0000
0010
0000
0100
0000
0001
0000
0010
0000
1000
0000
0001
0000
0100
0010
1000
0001
0000
0010
0000
0100
0000
0010
0000
0100
,
0000
0000
0000
0000
1000
0000
0000
0000
0000
0000
0000
0000
0001
0000
0000
0000
0000
0000
0010
0000
0000
0000
0000
0000
0100
0000
0000
0000
0000
0000
0000
0000
1000
0000
0000
0000
0000
0000
0000
0000
0010
0000
0000
0000
0000
0000
0000
0000
0100
0000
0000
0000
0000
0000
0000
0000
0010
0000
0000
0000
0000
0000
0000
0000
0100
0000
0000
0000
0000
0000
0000
0000
0001
0000
0000
0000
0000
0000
0000
0000
1000
0000
0000
0000
0000
0000
0000
0000
0100
0000
0000
0000
0000
0000
0000
0000
0001
0000
0000
0000
0000
0000
0000
0000
1000
0000
0000
0000
0000
0000
0000
0000
0010
0000
0000
0000
0000
0000
0000
0000
0000
0000
0000
0000
0000
0000
0000
0000
0000
0000
0000
0000
0000
0000
0000
0000
0000
0000
0000
0000
0000
0000
0000
0000
1101
0000
0000
0000
0000
0000
0000
0000
0000
0000
0000
0000
0000
0000
0000
0000
0000
0000
0000
0000
0000
0000
0000
0000
0000
0000
0000
0000
0000
0000
0000
0000
0000
0000
0000
0000
0000
0000
0000
0000
0000
0000
0000
0000
0000
0000
0000
0000
,
1011
0000
0000
0000
;

//---------------dance-single - ----------------
#NOTES:
     dance-single:
     :
     Medium:
     11:
     1.000,1.000,0.439,0.358,1.000,1299.000,82.000,67.000,0.000,3.000:
0000
1000
0001
0000
0000
0100
0010
0100
1000
0010
0100
0001
0010
0000
0001
1000
,
0010
1000
0100
0000
0000
1000
0010
0100
0001
0100
0001
1000
0100
1000
0010
0100
,
0001
0100
0010
0000
0000
0100
0010
0100
0001
1000
0100
0010
0001
0000
1000
0001
,
0100
0100
0010
1000
0010
0100
0001
0010
0001
1000
0010
1000
0001
0001
0100
0010
,
0100
0001
1000
0000
0000
0010
1000
0010
0100
0001
1000
0100
0010
0000
0100
0010
,
0001
0010
0100
0000
0000
0001
0010
0100
1000
0100
1000
0010
0100
0010
1000
0001
,
0010
0001
0100
0000
0000
0010
1000
0010
0100
0001
0010
0100
1000
0000
0010
0100
,
0001
0001
0010
0100
0010
0001
1000
0010
1000
0001
0100
0010
1000
1000
1000
1000
,
0001
0010
0100
0000
0000
0010
0100
0010
1000
0001
0100
0010
1000
0000
0000
0001
,
0010
0001
1000
0100
0000
0001
0100
0010
1000
0010
0100
0001
1000
0001
0010
0100
,
1000
0100
0010
0000
0000
0010
1000
0010
0100
0001
1000
0100
0010
0000
0100
0010
,
1000
0001
1000
0010
1000
0100
0010
0001
0100
0010
0100
0001
0010
0100
1000
0001
,
1000
0010
0100
0000
0000
0010
0100
0010
1000
0100
0010
0001
0100
0000
0010
1000
,
0010
0100
0001
0000
0000
1000
0100
0010
0001
0010
0100
1000
0001
1000
0010
0100
,
0001
0100
0010
0000
0000
0010
0001
0010
0100
1000
0010
0100
0001
0000
0010
1000
,
0100
0010
0100
1000
0001
0010
0001
1000
0100
0010
0100
1000
0001
0010
0001
1000
,
0100
0010
0100
1000
0001
0010
0001
1000
0100
0010
0100
1000
0001
0001
0001
0001
,
1000
1010
0110
0101
,
0011
1000
0000
1000
0001
1000
0000
1000
,
0001
1000
0000
1000
0001
1000
0000
1000
,
0001
0000
1000
0000
0001
0000
1000
0000
0001
0000
1000
0001
0000
0001
1000
0000
,
0001
0000
1000
0000
0001
0000
1000
0000
0001
0000
1000
0001
0000
0001
1000
0000
,
0101
1000
0000
1000
0001
1000
0000
1000
,
0001
1000
0000
1000
0001
1000
0000
1000
,
0001
0000
1000
0000
0001
0000
1000
0000
0001
0000
1000
0001
0000
0001
1000
0000
,
0001
0100
0100
0100
0100
0000
0010
0010
0010
0010
1000
0001
0100
0000
0010
0000
,
1000
0100
0010
0001
0010
0100
0010
0001
0100
0010
1000
0001
1000
0001
0100
0010
,
1000
0100
0010
0100
0010
0001
0100
0010
1000
0010
0100
0010
1000
0100
0010
0001
,
0100
0010
1000
0001
0100
0001
0100
0010
1000
0100
0010
0001
0100
0010
1000
0001
,
0200
0001
0000
0001
0320
0001
0000
0001
,
2030
0001
0000
0001
0000
0001
0000
0001
,
3200
0001
0000
0001
0000
0001
0000
0001
,
0320
0000
0001
0000
0000
0000
0001
0000
0000
0000
0001
0000
0000
0000
1030
1000
,
0010
0100
0001
1000
0100
0010
0001
1000
0100
0010
0001
0100
0010
0100
0010
1000
0000
0000
0000
0000
0000
0000
0000
0000
,
0011
0100
0000
0100
0010
0100
0000
0100
,
0010
0100
0000
0100
0010
0100
0000
0100
,
0010
0000
0100
0000
0010
0000
0100
0000
0010
0000
0100
0010
0000
0010
0100
0000
,
0010
0000
0100
0000
0010
0000
0100
0000
0010
0000
0100
0010
0000
0010
0100
0000
,
1010
0100
0000
0100
0010
0100
0000
0100
,
0010
0100
0000
0100
0010
0100
0000
0100
,
0010
0000
0100
0000
0010
0000
0100
0000
0010
0000
0100
0010
0000
0010
0100
0000
,
0010
1000
1000
1000
1000
0000
0001
0001
1000
0010
0100
0001
1000
0000
0010
0000
,
0100
0001
0010
0100
0010
0100
1000
0010
0100
0001
1000
0001
0010
0100
1000
0010
,
0100
0001
1000
0100
0010
0001
0010
0100
1000
0001
0100
0001
1000
0001
0100
0010
,
1000
0001
0100
0010
1000
0010
0100
0001
0100
0010
1000
0001
1000
0001
0100
0010
,
0200
0001
0000
0001
0320
0001
0000
0001
,
2030
0001
0000
0001
0000
0001
0000
0001
,
3200
0001
0000
0001
0000
0001
0000
0001
,
0320
0000
0001
0000
0000
0000
0001
0000
0000
0000
0001
0000
0000
0000
1030
1000
,
0010
0100
0001
1000
0100
0010
0001
1000
0100
0010
0001
0100
0010
0100
0010
1000
0000
0000
0000
0000
0000
0000
0000
0000
,
0001
0100
0010
0000
0000
0000
1000
0001
1000
0010
0100
0001
1000
0000
0010
1000
,
0010
0100
0001
0000
0000
0100
0001
0010
0100
0010
0100
1000
0001
0100
0001
0100
,
0012
1000
0000
1000
0000
1000
0000
1000
,
1103
0000
0000
0000
1010
0000
0000
0000
0001
0001
0001
0001
0100
0010
1000
0001
,
1000
0010
0100
0000
0000
0000
1000
0001
1000
0010
0100
0001
1000
0000
0010
0100
,
0010
1000
0100
0000
0000
1000
0010
0100
0001
0100
0010
1000
0001
1000
0010
0100
,
0012
0000
1000
0000
0000
0000
1000
0000
0103
0010
0100
0010
0100
0010
0100
0010
,
1100
1010
0110
0101
,
0001
0010
0100
1000
0100
0010
0001
0100
0010
1000
0100
0010
0001
0100
0010
1000
0001
0100
0010
0100
0010
1000
0001
0010
,
0100
1000
0000
0000
0000
0000
0110
0000
0000
0000
0000
0000
1001
0000
0000
0000
0000
0000
0000
0000
0000
0000
0000
0000
,
1000
0100
0010
0001
0010
0001
0010
0100
1000
0001
0010
0100
0010
0001
0100
0010
,
1000
0100
1000
0010
1000
0100
0010
0001
0010
0100
1000
0001
0010
0001
0100
0010
,
1000
0001
0010
0100
1000
0010
0100
0001
0010
0100
0010
0100
1000
0010
0100
0001
,
1100
0000
0000
1010
0000
0000
0011
0000
1100
0000
0000
1010
0000
0000
0011
0000
,
1000
0100
0010
0001
0010
0001
0010
0100
1000
0001
0010
0100
0010
0001
0100
0010
,
1000
0100
1000
0010
1000
0100
0010
0001
0010
0100
1000
0001
0010
0001
0100
0010
,
1000
0001
0010
0100
1000
0010
0100
0001
0010
0100
0010
0100
1000
0010
0100
0001
,
0100
0010
1000
0100
0010
0001
0100
0010
0100
0010
1000
0100
1001
0000
0000
0000
,
0001
0000
0000
0010
0000
0000
0100
0000
0000
1000
0000
0000
0001
0000
0100
0000
0010
0000
1000
0000
0000
0001
0000
0000
0100
0000
0010
0000
0100
0000
0010
0000
1000
0000
0001
0000
0100
0000
0000
0000
0000
0000
0000
0000
0000
0000
0000
0000
,
2000
0000
0000
0000
0000
0000
0000
3020
0000
0000
0000
0000
0000
0230
0000
0000
0000
0000
0000
0300
0002
0000
0000
0000
,
0203
0000
0000
0000
0000
0000
0000
0000
0000
0000
0000
0000
0000
0000
0000
0000
0000
0000
0000
0000
0000
0000
0000
0000
0000
0000
0000
0000
0000
0000
0000
0000
0000
0000
0000
0000
0000
0000
0000
0000
0000
0000
0000
0000
0000
0000
0000
0000
0000
0000
0000
0000
0000
0000
0000
0000
0320
0000
0000
0000
0000
0000
0000
0000
0000
0000
0000
0000
0000
0000
0000
0000
0000
0000
0000
0000
0000
0000
0000
0000
0000
0000
0000
0000
0000
0000
0000
0000
0000
0000
0000
0000
0000
0000
0000
0000
0000
0000
0000
0000
0000
0000
0000
0000
2030
0000
0000
0000
0000
0000
0000
0000
0000
0000
0000
0000
0000
0000
0000
0000
0000
0000
0000
0000
0000
0000
0000
0000
0000
0000
0000
0000
0000
0000
0000
0000
0000
0000
0000
0000
0000
0000
0000
0000
0000
0000
0000
0000
0000
0000
0000
0000
3002
0000
0000
0000
0000
0000
0000
0000
0000
0000
0000
0000
0000
0000
0000
0000
0000
0000
0000
0000
0000
0000
0000
0000
0000
0000
0000
0000
0000
0000
0000
0000
0000
0000
0003
0000
0000
0000
0000
0000
,
0020
0000
0000
0000
0000
0000
0000
0000
0000
0000
0000
0000
0000
0000
0000
0000
0000
0000
0000
0000
0000
0000
0000
0000
0000
0000
0000
0000
0000
0000
0000
0000
0000
0000
0000
0000
0000
0000
0000
0000
0000
0000
0000
0000
0000
0000
0000
0000
0000
0000
0000
0000
0000
0000
0000
0000
0000
0000
0000
0000
0000
0000
0000
0000
0000
0000
0000
0000
0000
0000
0000
0000
0000
0000
0000
0000
0000
0000
0030
0000
0100
0000
0000
0000
0000
0000
0000
0000
0000
0000
0000
0000
0000
0000
0000
0000
2000
0000
0000
0000
0000
0000
0000
0000
0000
0000
0000
0000
0000
0000
0000
0000
0000
0000
0000
0000
0000
0000
0000
0000
0000
0000
0000
0000
0000
0000
0000
0000
0000
0000
0000
0000
0000
0000
0000
0000
0000
0000
0000
0000
0000
0000
0000
0000
0000
0000
0000
0000
0000
0000
3000
0000
0000
1000
0000
0000
0000
0000
0000
0000
0000
0000
0000
0000
0000
0000
0000
0000
0000
0000
0000
0000
0000
0000
0100
0000
0000
0000
0000
0000
0000
0000
0000
0000
0000
0000
0000
0000
0000
0000
0000
0000
,
0010
0000
0000
0000
0100
0000
0000
0000
1000
0000
0000
0000
0010
0000
0000
0000
0100
0000
0000
0000
0001
0000
0000
0000
2000
0000
0000
0000
0000
0000
0000
0000
0000
0000
0000
0000
0000
0000
0000
0000
0000
0000
0000
0000
0000
0000
0000
3000
,
0100
0000
0000
0000
0000
0000
0010
0000
0000
0000
0000
0000
0100
0000
0000
0000
0000
0000
0000
0000
0000
0000
0000
0000
0001
0000
0000
0000
0000
0000
0000
0000
0000
0000
0000
0000
0010
0000
0000
0000
0000
0000
0000
0000
0000
0000
0000
0000
0100
0000
0000
0000
0000
0000
0000
0000
0000
0000
0000
0000
1000
0000
0000
0000
0000
0000
0000
0000
0000
0000
0000
0000
0010
0000
0000
0000
0000
0000
0000
0000
0100
0000
0000
0000
0000
0000
0000
0000
0001
0000
0000
0000
0000
0000
0000
0000
0010
0000
0000
0000
0000
0000
0000
0000
0100
0000
0000
0000
0000
0000
0000
0000
1000
0000
0000
0000
0000
0000
0000
0000
0100
0000
0000
0000
0000
0000
0000
0000
0010
0000
0000
0000
0000
0000
0000
0000
0001
0000
0000
0000
0000
0000
0000
0000
0010
0000
0000
0000
0000
0000
0000
0000
0100
0000
0000
0000
0000
0000
0000
0000
1000
0000
0000
0000
0000
0000
0000
0000
0010
0000
0000
0000
0000
0000
0000
0000
0100
0000
0000
0000
0000
0000
0000
0000
0010
0000
0000
0000
0000
0000
0000
0000
,
0100
0000
0001
0000
1000
0000
0100
0000
0010
0000
0001
0000
0100
0000
0000
0010
0000
0000
1000
0000
0000
0001
0000
0000
1000
0000
0000
0001
0000
0000
0100
0000
0000
0010
0000
0000
1000
0000
0100
0000
0010
0000
0001
0000
0010
0000
0100
0000
,
1000
0010
0100
0010
0100
0001
1000
0100
0010
0100
0010
0001
0100
0010
1000
0010
0100
0001
0100
0010
1000
0100
0010
0001
,
0100
0010
1000
0010
1000
0100
0010
0001
0100
0001
0100
0010
1000
0001
0100
0010
0100
0010
1000
0001
0010
0100
1000
0100
,
0010
0001
1000
0020
0000
0000
0130
0000
0000
0010
0000
0000
0101
0000
0000
1001
0000
0000
1020
0000
0000
0130
0000
0000
,
0001
1000
0002
0000
0103
0000
0010
0000
1100
0000
0011
0000
2001
0000
3010
0000
,
0100
0001
0200
0000
0310
0000
0100
0000
1010
0000
0110
0000
0201
0000
0310
0000
,
2001
0100
0000
0100
3020
0100
0000
0100
,
1030
0001
2000
0000
3010
0000
0100
0000
1001
0000
1010
0000
0201
0000
0310
0000
,
1000
0100
2000
0000
3001
0000
0100
0000
1010
0000
0101
0000
0012
0000
0103
0000
,
1000
0010
2000
0000
3001
0000
0100
0000
0011
0000
1010
0000
1200
0000
0310
0000
,
0002
1000
0000
1000
0023
1000
0000
1000
,
0230
0001
0000
0001
2300
0001
0000
0001
,
3010
0100
0001
0010
0100
1000
0001
0010
0100
0010
0100
1000
0001
0100
0010
1000
0001
0010
0100
0010
0100
1000
0010
0100
,
0010
0100
0001
0010
0100
1000
0100
0010
0001
0100
0010
1000
0001
0010
0100
1000
0100
0010
0001
0100
0010
0100
0010
1000
,
0100
0010
0001
1000
0100
0010
0001
0100
0010
1000
0100
0010
0001
0010
0100
1000
0010
0100
0001
0010
0100
1001
0010
0100
,
0010
0100
1000
0001
0010
0100
1000
0100
1000
0001
0100
0010
1000
0100
0010
0001
1000
0010
0100
0001
0100
0001
1000
0010
,
0100
0110
0101
0011
,
1010
0110
0101
0011
,
2020
0000
0000
3030
0220
0000
0000
0330
,
0202
0000
0000
0303
0022
0000
0000
0033
,
1000
0010
0100
0000
0000
0001
1000
0001
0010
0100
1000
0010
0100
0000
0001
0010
,
0001
1000
0010
0000
0000
0100
0001
1000
0010
1000
0100
0010
0001
0010
0100
1000
,
0102
1000
0000
1000
0000
1000
0000
1000
,
1103
0000
0000
0000
1010
0000
0000
0000
0001
0001
0001
0001
1000
0010
0100
0001
,
1000
0010
0100
0000
0000
0010
1000
0010
0100
0001
1000
0100
0010
0000
0100
0010
,
0100
0010
0001
0000
0000
0010
1000
0001
0010
0001
1000
0100
0010
0001
0100
0010
,
0102
0000
0000
0000
1000
0000
0000
0000
0000
0000
0000
0000
1000
0000
0000
0000
0000
0000
0000
0000
1000
0000
0000
0003
0001
0000
0001
0000
0001
0000
0001
0000
,
0100
0010
1000
0001
0100
0001
0100
0010
1000
0100
1000
0100
0010
0001
1000
0010
,
0100
0001
1000
0000
0000
0100
0001
0100
0010
1000
0100
0010
0001
0000
0100
0010
,
0100
0001
1000
0000
0000
0010
0100
0001
0010
0001
1000
0010
0100
0010
1000
0001
,
1010
0000
0000
0110
0000
0000
0101
0000
1010
0000
0000
0110
0000
0000
0101
0000
,
1010
0000
0010
0100
0010
0100
0010
0100
0001
1000
0100
0010
0001
0010
0100
1000
,
0010
0100
0001
0000
0000
0100
0001
0100
0010
1000
0100
0010
0001
0000
1000
0001
,
1000
0010
0100
0000
0000
0010
0100
0001
1000
0100
0010
0001
1000
0010
0100
0010
,
0102
1000
0000
1000
0000
1000
0000
1000
,
1013
0110
0101
0011
,
1010
0110
0101
0011
,
2020
0000
0000
3030
0220
0000
0000
0330
,
0202
0000
0000
0303
0022
0000
0000
0033
,
2001
0000
0000
0000
0000
0000
0000
0000
0000
0000
0000
0000
0000
0000
0000
0000
0000
0000
0000
0000
0000
0000
0000
0000
0000
0000
0000
0000
0000
0000
0000
0000
0000
0000
0000
0000
0000
0000
0000
0000
0000
0000
0000
0000
0000
0000
0000
0000
0000
0000
0000
0000
0000
0000
0000
0000
0000
0000
0000
3000
0000
0000
0000
0020
,
0000
0000
0000
0230
,
0000
0000
0000
0000
0300
0000
0000
0000
0000
0002
0000
0000
0000
0000
0000
0000
0000
0000
0000
0000
0000
0000
0000
0000
0000
0000
0000
0000
0000
0000
0000
0000
0000
0000
0000
0000
0000
0000
0000
0000
0000
0000
0000
0000
0000
0000
0000
0000
,
0000
0000
0000
0000
0000
0000
0000
0000
0000
0003
0020
0000
0000
0000
0000
0000
0000
0000
0000
0000
0000
0000
0000
0000
0000
0000
0000
0000
0000
0000
0000
0000
0030
0200
0000
0000
0000
0000
0000
0000
0000
0000
0000
0000
0000
0000
0000
0000
,
0000
2300
0000
0000
0000
0000
0000
0000
0000
0000
0000
0000
0000
0000
0000
0000
,
0000
3000
0000
0000
0000
0000
0000
0000
0000
0000
0000
0000
,
0000
0000
0000
0000
,
0000
0000
0000
0000
,
0000
0000
0010
0010
,
0010
0000
0000
0000
0000
0000
0000
0000
0000
0000
0000
0000
0010
0000
0000
0000
0000
0000
0000
0000
0000
0000
0000
0000
1000
0000
0100
0000
0010
0000
0100
0000
0010
0000
0001
0000
0100
0000
0000
0010
0000
1000
0000
0001
0000
1000
0000
0010
,
0000
0100
0000
0001
0000
0000
1000
0000
0010
0000
0100
0000
0001
0000
0100
0000
0010
0000
1000
0000
0001
0000
0010
0000
0100
0000
1000
0000
0001
0000
0000
0000
0000
0000
0000
0000
1010
0000
0000
0000
0000
0000
0000
0000
0000
0000
0000
0000
,
0101
0000
0000
0000
;
