#TITLE:The 'Unfinished Battle With God' Syndrome;
#SUBTITLE:Valkyrie Profile;
#ARTIST:Motoi Surakaba;
#TITLETRANSLIT:;
#SUBTITLETRANSLIT:;
#ARTISTTRANSLIT:;
#CREDIT:;
#BANNER:VPBattle-banner.png;
#BACKGROUND:VPBattle-bg.jpg;
#LYRICSPATH:;
#CDTITLE:VPBattle-cdtitle.PNG;
#MUSIC:VPBattle.mp3;
#OFFSET:-0.400;
#SAMPLESTART:9.400;
#SAMPLELENGTH:12.000;
#SELECTABLE:YES;
#BPMS:0.000=162.500;
#STOPS:;
#BGCHANGES:;
// cache tags:
#FIRSTBEAT:0.000;
#LASTBEAT:271.500;
#SONGFILENAME:Songs/toune 2/VPBattle/VPBattle.sm;
#HASMUSIC:1;
#HASBANNER:1;
#MUSICLENGTH:104.359;
// end cache tags

//---------------dance-single - ----------------
#NOTES:
     dance-single:
     :
     Easy:
     4:
     0.339,0.357,0.153,0.652,0.000,164.000,16.000,68.000,0.000,0.000:
0000
0000
0000
0000
,
1000
1000
1000
1000
,
1000
1000
1000
1000
,
2000
3000
0002
0003
,
2000
3000
0002
0003
,
0020
0030
2002
3003
,
2000
0000
3001
0010
,
0020
0030
0200
0300
,
0002
0000
1003
0100
,
0200
0300
0100
0100
,
0000
1000
0000
0100
,
0000
0001
0000
0100
,
2000
3000
0002
0003
,
0200
0000
0300
1001
,
2000
0000
3001
0100
,
0200
0300
0020
0030
,
0002
0000
1003
0010
,
0020
0030
0010
0010
,
0000
0001
0000
0100
,
0000
1000
0000
0100
,
0200
0000
0000
0300
,
1000
0100
0010
0001
,
1000
0000
0000
1000
0000
0100
0000
0010
,
0000
0100
0000
1000
0000
0100
0000
0000
,
1000
0000
0000
1000
0000
0100
0000
0020
,
0000
0030
0000
2002
0000
3003
0000
0000
,
0001
0000
0000
0001
0000
0010
0000
0100
,
0000
0010
0000
0001
0000
0010
0000
0000
,
0001
0000
0000
0001
0000
0010
0000
0200
,
0000
0300
0000
2002
0000
3003
0000
0000
,
2000
3000
0002
0003
,
0020
0030
2002
3003
,
2000
0000
3010
0001
,
0200
0300
0200
0300
,
0002
0000
0013
1000
,
0200
0300
0100
0100
,
0000
1000
0000
0110
,
0000
0001
0000
0110
,
2000
3000
0002
0003
,
1000
0010
0001
0100
,
0200
0000
0000
0000
,
0000
0000
2300
0000
,
3002
0000
0000
0000
,
0000
0000
0000
0000
,
0203
0000
0320
0000
,
2030
0000
0000
0000
,
3200
0000
0320
0000
,
0032
0000
0203
0300
,
0000
1010
0000
0101
,
1000
0100
0001
0100
,
0000
0011
0000
1100
,
0001
0100
1000
0100
,
2000
3000
0002
0003
,
2000
3000
0002
0003
,
0200
0000
0310
0001
,
0200
0300
0200
0300
,
0000
1010
0000
0101
,
1000
0010
0001
0010
,
0000
0011
0000
1100
,
0001
0010
1000
0010
,
2000
3000
0002
0003
,
2000
3000
0002
0003
,
0200
0000
0310
1000
,
0200
0300
0200
0300
,
0020
0000
1030
1000
,
2000
3000
2000
3000
,
0020
0000
0031
0001
,
0002
0003
0000
1001
;

//---------------dance-single - ----------------
#NOTES:
     dance-single:
     :
     Medium:
     7:
     0.513,0.455,0.192,0.805,0.029,271.000,20.000,84.000,0.000,0.000:
0020
0000
0000
0030
,
0002
0000
1000
0000
1000
0000
1003
1000
,
2000
0001
0001
3001
,
1000
0100
0000
1002
0000
2003
0000
3002
,
0000
2003
0000
3002
0000
2003
0000
3020
,
0000
0030
0000
2002
0000
3003
0000
0000
,
2000
0000
3000
0001
0001
0010
0100
0010
,
0020
0130
0200
0310
,
0002
0000
0003
1000
1000
0100
0010
0100
,
0200
0000
0000
0000
0300
0000
0000
0000
0100
0000
0000
0100
0000
0000
0100
0000
,
0002
1003
0002
0103
,
2000
3001
2000
3100
,
2000
0000
0000
0000
3000
0000
0000
0000
0102
0000
0000
0100
0003
0000
0100
0000
,
0200
0000
0300
1001
,
2000
0000
3000
0001
0001
0100
0010
0100
,
0200
0310
0020
0130
,
0002
0000
0003
1000
1000
0010
0100
0010
,
0020
0000
0000
0000
0030
0000
0000
0000
0010
0000
0000
0010
0000
0000
0010
0000
,
2000
3001
2000
3100
,
0002
1003
0002
0103
,
0200
0000
0000
0310
,
1000
0100
0010
1001
,
1000
0100
1000
1000
0000
0100
0000
0010
,
0000
0100
0000
1000
0000
0100
0000
0100
,
1000
0100
1000
1000
0000
0100
0000
0020
,
0000
0030
0000
2002
0000
3003
0000
0000
,
0001
0010
0001
0001
0000
0010
0000
0100
,
0000
0010
0000
0001
0000
0010
0000
0010
,
0001
0010
0001
0001
0000
0010
0000
0200
,
0000
0300
0000
2002
0000
3003
0000
0000
,
1000
0100
0000
1002
0000
2003
0000
3020
,
0000
0030
0000
2002
0000
3003
0000
0000
,
2000
0000
3000
0010
0001
0010
0100
0010
,
0200
0310
0200
0310
,
0002
0000
0003
0010
1000
0010
0100
0010
,
0200
0000
0000
0000
0300
0000
0000
0000
0100
0000
0000
0100
0000
0000
0100
0000
,
0000
2000
3000
0110
,
0000
0002
0003
0110
,
2000
0000
0000
0000
3000
0000
0000
0000
0102
0000
0000
0100
0003
0000
0100
0000
,
0200
0000
0000
0310
,
0200
0001
0001
0001
,
0001
0001
2300
0000
,
3002
1000
1000
1000
,
1000
1000
1000
1000
,
0203
0000
0320
0000
,
2030
0010
0001
0001
,
3200
0010
0320
0001
,
0032
0100
0203
0310
,
0000
1010
0100
0101
,
1000
0001
0100
0100
0001
1000
0100
0000
,
0000
0011
0010
1100
,
0001
1000
0100
0100
1000
0001
0100
0000
,
2000
3010
0002
0103
,
2000
3010
0002
0103
,
0200
0000
0310
0001
,
0200
1300
0200
0301
,
0000
1010
0100
0101
,
1000
0001
0010
0010
0001
1000
0010
0000
,
0000
0011
0100
1100
,
0001
1000
0010
0010
1000
0001
0010
0000
,
2000
3010
0002
0103
,
2000
3010
0002
0103
,
0200
0000
0310
1000
,
0200
0301
0200
1300
,
0020
0000
1030
1000
,
2000
3010
2000
3010
,
0020
0000
0031
0001
,
0002
0000
0000
0000
0003
0000
0000
0000
0100
0000
0000
0100
0000
0000
0100
0000
;

//---------------dance-single - ----------------
#NOTES:
     dance-single:
     :
     Hard:
     10:
     0.912,1.000,1.000,1.000,0.225,397.000,107.000,162.000,0.000,1.000:
0100
0001
0100
0001
0100
0001
0100
0001
0100
0001
0100
0001
0100
0001
0100
0001
,
0102
0000
1000
0000
1000
0100
1000
1003
,
2100
0000
0001
0000
0001
0100
3001
0001
,
1100
0110
0000
0012
0003
2001
3000
0102
,
0003
2001
3000
0012
0003
2001
3000
0220
,
0000
0330
0000
2002
0000
3003
0000
0000
,
2100
0100
3000
0010
0001
1000
0100
0001
,
0220
0030
1300
0000
2200
3000
0301
0000
,
0102
0100
0003
0010
1000
0001
0100
1000
,
2002
0000
0000
0000
3003
0000
0000
0000
2010
0000
0000
3100
0000
0000
0220
0000
,
0330
0000
0000
0000
0000
0000
0010
0000
2000
0000
0000
3200
0000
0000
0320
0000
,
0032
0000
0000
0000
0100
0000
0000
0000
2003
0000
0000
3020
0000
0000
0032
0000
,
2003
0000
0000
3100
0000
0000
0100
0000
0002
0000
0000
0013
0000
0000
0100
0000
,
0102
1000
0013
1000
0100
0010
1001
0000
,
2010
0010
3000
0100
0001
1000
0010
0001
,
0220
0300
1030
0000
2020
3000
0031
0000
,
0012
0010
0003
0100
1000
0001
0010
1000
,
0220
0000
0000
0000
0330
0000
0000
0000
2010
0000
0000
3100
0000
0000
0110
0000
,
2000
0000
0000
3001
0000
0000
0010
0000
2000
0000
0000
3200
0000
0000
0320
0000
,
0032
0000
0000
0000
0100
0000
0000
0000
2003
0000
0000
3020
0000
0000
0032
0000
,
0203
0000
0001
0000
0010
0010
1300
0000
,
2000
0000
0000
3200
0000
0000
0320
0000
0032
0000
0000
0023
0000
0000
1030
0000
,
1100
0100
0010
2002
3003
0202
0303
0220
,
0330
2200
3300
2020
3030
0220
0330
1010
,
1100
0010
0100
2002
3003
0200
0300
0220
,
0000
0330
0000
2002
0000
3003
0000
0000
,
0011
0001
1000
0220
0330
0202
0303
2002
,
3003
0022
0033
0202
0303
2002
3003
1010
,
0011
1000
0001
0220
0330
0020
0030
0220
,
0000
0330
0000
2002
0000
3003
0000
0000
,
1100
0110
0000
0012
0003
2001
3000
0220
,
0000
0330
0000
2002
0000
3003
0000
0000
,
2100
0100
3000
0010
1000
0100
0001
0010
,
0202
0003
1300
0000
2200
3000
0301
0000
,
0102
0100
0003
0010
0001
0100
1000
0010
,
2002
0000
0000
0000
3003
0000
0000
0000
2010
0000
0000
3100
0000
0000
0220
0000
,
2330
0000
0000
3001
0000
0000
0010
0000
2000
0000
0000
3200
0000
0000
0320
0000
,
0032
0000
0000
0000
0100
0000
0000
0000
2003
0000
0000
3020
0000
0000
0032
0000
,
2003
0000
0000
3100
0000
0000
0100
0000
0002
0000
0000
0013
0000
0000
0100
0000
,
0102
1000
0013
1000
0100
0010
1001
0000
,
1100
0010
1000
0100
1100
0010
1000
0100
,
1100
0010
1000
0100
2002
0000
3003
0000
,
0101
0010
0001
0100
0101
0010
0001
0100
,
0101
0010
0001
0100
0101
0010
0001
0100
,
2001
3100
0201
0310
,
0012
0000
1003
0100
0010
0100
0110
0000
,
0012
0000
1000
0003
0120
0000
0001
0030
,
1200
0000
0010
0300
0020
0030
1001
0000
,
1100
0000
2000
3100
0002
0103
2000
3100
,
0102
0000
0000
0000
0000
0000
1003
0001
0100
0000
0000
0000
0110
0000
0000
0000
,
1010
0000
0000
0000
1001
0000
0000
0000
1000
0100
0000
0100
0010
0000
0010
0001
,
2000
0010
3001
0001
2000
0100
3001
0000
,
2000
0000
0000
3200
0000
0000
0320
0000
0230
0000
0000
0320
0000
0000
0032
0000
,
2003
0000
0000
3020
0000
0000
0032
0000
2003
0000
0000
3200
0000
0000
0302
0000
,
1003
0001
0100
0010
1000
0001
0100
0010
,
1000
0100
0001
0100
1000
0010
0001
0010
,
0101
0000
0002
0103
1000
0100
0002
0103
,
2100
0000
0000
0000
0000
0000
3001
1000
0100
0000
0000
0000
0110
0000
0000
0000
,
0011
0000
0000
0000
1001
0000
0000
0000
0001
0010
0000
0010
0100
0000
0100
1000
,
0002
0100
1003
1000
0002
0100
1003
0000
,
0001
0010
0000
0110
0000
0000
1100
0000
1000
0010
0000
0110
0000
0000
0011
0000
,
0001
0100
0000
2100
0000
0000
3001
0000
1000
0100
0000
0102
0000
0000
1003
0000
,
0001
1000
0010
0100
0001
1000
0010
0100
,
0001
0010
0100
1000
0001
0010
0100
1000
,
2100
0100
3000
1100
1000
0010
0001
0100
,
0021
1030
0201
1300
,
0102
0100
0003
0101
0001
0010
1000
0100
,
2002
0000
0000
0000
3003
0000
0000
0000
0010
0100
0000
0010
0100
0000
1001
0000
:








a=Mines. note=5.000000,
;
