#TITLE:urge(short mix);
#SUBTITLE:;
#ARTIST:Aozuna;
#TITLETRANSLIT:;
#SUBTITLETRANSLIT:;
#ARTISTTRANSLIT:;
#CREDIT:;
#BANNER:banner.png;
#BACKGROUND:bg.png;
#LYRICSPATH:;
#CDTITLE:cdtitle.png;
#MUSIC:urge_shortmix.mp3;
#OFFSET:-0.120;
#SAMPLESTART:41.049;
#SAMPLELENGTH:12.000;
#SELECTABLE:YES;
#DISPLAYBPM:281.000;
#BPMS:0.000=281.000,176.000=285.001,180.000=291.000,184.000=281.000,256.000=281.000,344.000=283.000,348.000=281.000;
#STOPS:;
#BGCHANGES:;
// cache tags:
#FIRSTBEAT:32.000;
#LASTBEAT:424.000;
#SONGFILENAME:Songs/Japanese Collaboration Mix/urge_shortmix/urge_shortmix.sm;
#HASMUSIC:1;
#HASBANNER:1;
#MUSICLENGTH:91.762;
// end cache tags

//---------------dance-single - ----------------
#NOTES:
     dance-single:
     :
     Hard:
     10:
     0.797,0.924,0.523,0.196,0.000,446.000,48.000,18.000,0.000,0.000:
0000
0000
0000
0000
,
0000
0000
0000
0000
,
0000
0000
0000
0000
,
0000
0000
0000
0000
,
0000
0000
0000
0000
,
0000
0000
0000
0000
,
0000
0000
0000
0000
,
0000
0000
0000
0000
,
1000
0100
1000
0110
,
1001
0010
0001
0110
,
1001
0100
1000
0110
,
1001
0100
0010
1001
,
1001
1000
0010
0101
,
0101
0001
0100
1010
,
1010
0100
0010
0110
,
0220
0000
0000
0330
,
0100
0000
0010
0000
0100
0000
0001
0100
,
0010
1000
0100
0000
1000
0100
1000
0000
,
0001
0000
0010
0000
0100
0000
0010
0100
,
1000
0001
0100
0000
0001
1000
0001
0100
,
0001
0000
1000
0000
0001
0000
1000
0100
,
0010
0000
0100
0010
0001
0010
0100
0000
,
1000
0000
0001
0000
1000
0000
0001
0010
,
0100
1000
0100
0010
0001
1000
0001
0000
,
0100
0000
0110
0000
1001
0000
0001
0100
,
0010
0100
0001
0000
1000
0000
1001
0000
,
0010
0000
0110
0000
1001
0000
1000
0100
,
0010
0100
1000
0001
0010
0100
1000
0000
,
0100
0000
1100
0000
1001
0000
1000
0010
,
0100
0000
0001
1000
0100
0010
0100
0000
,
0010
0000
0011
0000
1001
0000
1000
0001
,
1000
0100
0010
0100
0010
0001
1000
0000
,
0020
0100
0000
0100
0000
0100
0000
0100
,
0000
0100
0030
0100
0010
0000
0000
0000
,
2000
0100
0000
0100
0000
0100
0000
0100
,
0000
0100
3000
0100
1000
0000
0000
0000
,
0002
0010
0000
0010
0000
0010
0003
0010
,
0200
0010
0000
0010
0000
0010
0000
0310
,
0002
1000
0000
1000
0000
1000
0003
1000
,
0001
0010
0100
1000
0001
0000
0000
0000
,
1000
0010
0000
1010
0000
1010
0000
1010
,
0000
1010
0000
1000
0001
0000
0000
0000
,
0100
0001
0000
0101
0000
0101
0000
0101
,
0000
0101
0000
0001
1000
0000
0000
0000
,
0010
0100
0000
0110
0000
0110
0000
0010
,
1000
0001
0000
1001
0000
1001
0000
0001
,
1000
0100
1000
0010
1000
0100
1000
0001
,
1000
0100
0010
0001
1000
0000
0001
0000
,
1000
0100
1010
0000
,
1000
0100
0010
0100
0000
0000
0000
0000
,
1000
0001
0100
0000
0001
1000
0100
0000
,
1000
0010
1000
0010
,
0100
0001
0010
0001
,
1000
0100
1000
0000
0010
0000
0010
0000
,
1000
0100
0010
0001
1000
0000
0001
0000
,
2002
0000
0000
3003
,
0010
0001
0101
0000
,
0001
0010
0100
0010
0000
0000
0000
0000
,
0001
1000
0010
0000
1000
0001
0100
0000
,
0010
1000
0010
1000
,
0001
0010
0100
1000
,
0010
0100
0010
0000
1000
0000
1000
0000
,
0001
0010
0100
1000
0001
0000
1000
0000
,
0001
0010
0100
1000
0100
0010
0001
0010
,
0200
0000
0000
0000
,
0000
0000
0000
0000
,
0320
0000
0000
0030
,
0100
1000
0100
1000
,
0010
1000
0010
1000
0010
1000
0001
0000
,
0100
0001
0100
0001
,
0010
0001
0010
0001
0010
0001
0100
0000
,
0010
0100
0010
0100
,
0001
0010
0100
1000
0100
0010
0001
0000
,
0010
0100
0010
0100
,
1000
0100
0010
0001
0010
0100
1000
0000
,
0001
1000
1001
0010
,
0100
0010
0110
1000
,
0100
0000
0001
0010
,
0001
1000
1001
0000
,
0001
0100
0010
1000
0001
0000
0000
0000
,
1000
0100
0010
0001
,
1000
1001
0001
1001
,
0110
0000
0200
0000
,
0320
0000
2030
0000
,
3002
0000
0000
0000
,
2000
0000
0000
0000
,
3003
0000
0000
0000
,
1000
0100
1000
0000
0010
0100
0010
0100
,
0001
1000
0010
0100
0001
0000
0000
0000
,
0010
0100
0010
0000
0001
0010
0001
0100
,
0001
1000
0100
0010
0001
0000
0000
0000
,
1000
0001
1000
0001
0100
0010
1000
0000
,
0001
1000
0001
1000
0010
0100
0001
0000
,
1000
0100
1000
0001
0010
0100
0010
0100
,
1000
0001
1001
0000
,
1000
0100
0010
0000
0100
1000
0001
0100
,
0010
0100
0010
0000
0110
0000
0000
0000
,
0001
0010
0100
0000
0010
0001
1000
0100
,
0010
0001
0010
0000
0110
0000
0000
0000
,
1000
0100
1000
0010
0100
0001
0100
0000
,
0010
1000
0010
0100
0001
1000
0001
0000
,
1000
0100
0010
0001
1000
0010
0100
0001
,
1000
0001
1001
0200
,
0020
0000
0000
0000
,
0000
0000
0000
0000
,
0000
0000
0000
0000
,
0330
0000
0000
0000
;
