#TITLE:The Sound of Truth;
#SUBTITLE:An Ocean Between Us;
#ARTIST:As I Lay Dying;
#TITLETRANSLIT:;
#SUBTITLETRANSLIT:;
#ARTISTTRANSLIT:;
#CREDIT:;
#BANNER:TSoT - BN.jpg;
#BACKGROUND:TSoT - BG.jpg;
#LYRICSPATH:;
#CDTITLE:CDtitle.png;
#MUSIC:As I Lay Dying - The Sound Of Truth (cut).mp3;
#OFFSET:-0.680;
#SAMPLESTART:50.140;
#SAMPLELENGTH:13.000;
#SELECTABLE:YES;
#BPMS:0.000=82.600,20.000=82.300,32.000=82.500,84.000=82.540,116.000=82.480;
#STOPS:;
#BGCHANGES:;
// cache tags:
#FIRSTBEAT:8.000;
#LASTBEAT:153.063;
#SONGFILENAME:Songs/Guitar Minipack/The Sound of Truth/As I Lay Dying - The Sound Of Truth (cut).sm;
#HASMUSIC:1;
#HASBANNER:1;
#MUSICLENGTH:117.368;
// end cache tags

//---------------dance-single - ----------------
#NOTES:
     dance-single:
     :
     Hard:
     12:
     1.000,1.000,1.000,0.179,1.000,848.000,135.000,21.000,0.000,0.000:
0000
0000
0000
0000
,
0000
0000
0000
0000
,
0101
0000
0110
0000
1000
0000
1000
0000
0011
0000
0110
0000
1000
0000
1000
0000
0101
0000
0110
0000
1000
0000
1000
0000
0001
0010
0100
1000
0001
0010
0100
1000
,
0101
0000
0110
0000
1000
0000
1000
0000
1001
0000
0110
0000
1000
0000
1000
0000
0101
0000
0110
0000
1000
0000
1000
0000
0001
0010
0100
1000
0001
0010
0100
1000
,
0011
0000
0000
0000
0110
0000
0000
0000
1000
0000
0000
0000
1000
0000
0000
0000
1010
0000
0000
0000
0110
0000
0000
0000
1000
0000
0000
0000
1000
0000
0000
0000
0011
0000
0000
0000
0110
0000
0000
0000
1000
0000
0000
0000
1000
0000
0000
0000
0002
0003
0010
0000
0100
0000
1000
0000
0002
0003
0010
0000
0100
0000
1000
0000
,
0010
0000
0100
0000
1000
0000
0100
0000
0010
0000
0001
0000
0100
0000
0010
0000
0001
0000
0010
0000
0200
0000
0001
0000
1000
0000
1000
0000
0001
0000
0001
0300
,
0010
0000
0000
0000
0000
0000
0000
0000
0000
0000
0000
0000
0001
0000
0000
0000
0000
0000
0000
0000
0000
0000
0000
0000
0010
0000
0000
0000
0000
0000
0000
0000
0000
0000
0000
0000
0100
0000
0000
0000
0000
0000
0000
0000
0000
0000
0000
0000
0001
0000
0000
0000
0000
0000
0000
0000
0000
0000
0000
0000
0010
0000
0000
0000
0000
0000
0000
0000
0000
0000
0000
0000
0100
0000
0000
0000
0000
0000
0000
0000
0000
0000
0000
0000
2000
0000
0000
0000
0000
0000
0000
0000
0000
0000
0000
0000
0010
0000
0000
0000
0000
0000
0000
0000
0000
0000
0000
0000
0010
0000
0000
0000
0000
0000
0000
0000
0000
0000
0000
0000
0100
0000
0000
0000
0000
0000
0000
0000
0010
0000
0000
0000
0000
0000
0000
0000
0100
0000
0000
0000
0000
0000
0000
0000
0001
0000
0000
0000
0000
0000
0000
0000
0010
0000
0000
0000
0000
0000
0000
0000
0100
0000
0000
0000
0000
0000
0000
0000
0001
0000
0000
0000
0000
0000
0000
0000
0010
0000
0000
0000
0000
0000
0000
0000
0100
0000
3000
0000
0000
0000
0000
0000
,
0010
0000
0100
0000
1000
0000
0100
0000
0010
0000
0001
0000
0100
0000
0010
0000
0001
0000
0010
0000
0200
0000
0010
0000
1000
0000
1000
0000
0010
0000
0010
0300
,
0001
0000
0000
0000
0000
0000
0000
0000
0010
0000
0000
0000
0000
0000
0000
0000
0100
0000
0000
0000
0000
0000
0000
0000
0010
0000
0000
0000
0000
0000
0000
0000
0000
0000
0000
0000
0100
0000
0000
0000
0000
0000
0000
0000
0000
0000
0000
0000
0001
0000
0000
0000
0000
0000
0000
0000
0000
0000
0000
0000
0010
0000
0000
0000
0000
0000
0000
0000
0000
0000
0000
0000
0100
0000
0000
0000
0000
0000
0000
0000
0000
0000
0000
0000
2000
0000
0000
0000
0000
0000
0000
0000
0000
0000
0000
0000
0010
0000
0000
0000
0000
0000
0000
0000
0000
0000
0000
0000
0001
0000
0000
0000
0000
0000
0010
0000
0000
0000
0000
0000
0100
0000
0000
0000
0000
0000
0000
0000
0000
0000
0000
0000
0100
0000
0000
0000
0000
0000
0000
0000
0000
0000
0000
0000
0001
0000
0000
0000
0000
0000
0000
0000
0000
0000
0000
0000
0010
0000
0000
0000
0000
0000
0000
0000
0000
0000
0000
0000
0010
0000
0000
0000
0000
0000
0000
0000
0000
0000
0000
0000
0100
0000
0000
0000
0000
0000
3000
0000
0000
0000
0000
0000
,
0010
0000
0100
0000
1000
0000
0100
0000
0010
0000
0001
0000
0100
0000
0010
0000
0001
0000
0010
0000
0200
0000
0001
0000
1000
0000
1000
0000
0001
0000
0001
0300
,
0010
0000
0000
0000
0000
0000
0000
0000
0000
0000
0000
0000
0001
0000
0000
0000
0000
0000
0000
0000
0000
0000
0000
0000
0010
0000
0000
0000
0000
0000
0000
0000
0000
0000
0000
0000
0100
0000
0000
0000
0000
0000
0000
0000
0000
0000
0000
0000
0001
0000
0000
0000
0000
0000
0000
0000
0000
0000
0000
0000
0010
0000
0000
0000
0000
0000
0000
0000
0000
0000
0000
0000
0100
0000
0000
0000
0000
0000
0000
0000
0000
0000
0000
0000
2000
0000
0000
0000
0000
0000
0000
0000
0000
0000
0000
0000
0010
0000
0000
0000
0000
0000
0000
0000
0000
0000
0000
0000
0010
0000
0000
0000
0000
0000
0000
0000
0000
0000
0000
0000
0100
0000
0000
0000
0000
0000
0000
0000
0010
0000
0000
0000
0000
0000
0000
0000
0100
0000
0000
0000
0000
0000
0000
0000
0001
0000
0000
0000
0000
0000
0000
0000
0010
0000
0000
0000
0000
0000
0000
0000
0100
0000
0000
0000
0000
0000
0000
0000
0001
0000
0000
0000
0000
0000
0000
0000
0010
0000
0000
0000
0000
0000
0000
0000
0100
0000
3000
0000
0000
0000
0000
0000
,
0010
0000
0100
0000
1000
0000
0100
0000
0010
0000
0001
0000
0100
0000
0010
0000
0001
0000
0010
0000
0200
0000
0010
0000
1000
0000
1000
0000
0010
0000
0010
0300
,
0001
0010
0100
1000
0100
0000
0010
0000
0001
0000
0010
0000
0100
0000
2000
0000
0010
0000
0010
0000
0100
0000
0100
0000
0001
0010
0100
0010
0001
0010
0100
3010
,
1000
0100
0010
0001
0100
0010
0001
0010
1000
0100
0010
0001
0100
0010
0001
0010
1000
0100
0010
0001
0100
0010
0001
0010
0100
1000
0100
0010
0100
1000
0100
0010
,
1000
0100
0010
0001
1000
0100
0010
0001
0100
0010
1000
0001
0100
0010
1000
0001
0010
0100
0001
1000
0010
0100
0001
1000
0020
0000
0000
0000
0000
0000
0000
0030
,
0100
1000
0100
0010
0001
0010
0100
0010
0002
0000
0000
0003
0100
0000
2000
0000
0000
0000
0000
0000
0000
0000
0000
3000
0100
1000
0100
0010
0001
0010
0100
0000
,
0010
0000
0010
0000
0001
0010
0100
1000
0001
0010
0100
1000
0001
0010
0100
1000
0001
0010
0100
1000
0100
0010
0100
1000
0200
0000
0000
0000
0000
0000
0000
0300
,
0020
0000
0000
0000
0000
0000
0000
0000
0000
0030
0001
0000
0010
0000
0200
0000
0000
0000
0000
0000
0000
0000
0000
0300
1000
0000
0000
0100
0000
0000
0010
0000
,
0002
0000
0000
0000
0000
0000
0000
0003
0100
0000
1000
0000
0010
0100
1000
0100
0010
0000
0200
0000
0000
0000
0000
0000
0300
0000
1000
0100
0002
0000
0000
0003
,
1000
0100
0010
0001
0100
0010
1000
0100
0010
0001
0100
0010
1000
0100
0010
0001
1000
0100
0010
0001
0100
0010
1000
0100
0010
0001
0100
0010
1000
0100
0010
0001
,
0010
0001
0010
1000
0100
0010
0001
0100
0010
0001
0010
1000
0100
0010
0001
0100
0010
0001
0010
1000
0100
0010
0001
0100
1000
0100
0010
1000
0100
0010
0001
0100
1000
0100
0010
1000
0100
0010
0001
1000
0100
0010
0001
1000
0100
0010
0001
1000
,
0011
0000
1000
0100
0011
0000
1001
0000
0100
0010
1001
0000
0001
0010
1100
0000
0001
0010
1100
0000
0001
0010
1100
0000
0101
0010
1000
0010
0101
0000
1000
0100
,
1010
0000
1000
0100
1010
0000
1001
0000
0100
0010
1001
0000
0010
0001
1010
0000
0010
0100
1010
0000
0010
0100
1010
0000
0001
0010
0100
1000
0010
0100
1000
0100
,
0011
0000
1000
0100
0011
0000
1001
0000
0010
0100
1001
0000
0001
0010
1100
0000
0001
0010
1100
0000
0001
0010
1100
0000
0101
0000
1000
0010
0101
0000
1000
0100
,
0001
0010
0100
1000
0010
0001
0010
0100
0001
0010
0100
1000
0010
0001
0010
0100
0001
0010
0100
1000
0010
0001
0010
0100
1000
0100
0010
0001
1000
0100
0010
0001
,
0011
0000
1000
0100
0011
0000
1001
0000
0100
0010
1001
0000
0001
0010
1100
0000
0001
0010
1100
0000
0001
0010
1100
0000
0101
0010
1000
0010
0101
0000
1000
0100
,
1010
0000
1000
0100
1010
0000
1001
0000
0100
0010
1001
0000
0010
0001
1010
0000
0010
0100
1010
0000
0010
0100
1010
0000
0001
0010
0100
1000
0010
0100
1000
0100
,
0011
0000
1000
0100
0011
0000
1001
0000
0010
0100
1001
0000
0001
0010
1100
0000
0001
0010
1100
0000
0001
0010
1100
0000
0101
0000
1000
0010
0101
0000
1000
0100
,
0101
0000
0010
0000
0101
0000
1000
0000
0101
0000
0010
0000
0101
0000
1000
0000
0101
0000
0010
0000
0101
0000
1000
0000
0101
0000
0010
0000
0101
0000
1000
0000
0101
0000
0010
0000
0101
0000
1000
0000
0101
0000
0010
0000
0101
0000
1000
0000
0010
0000
0100
0000
1000
0000
0100
0000
0020
0030
0100
0000
1000
0000
0100
0000
,
0011
0000
1000
0100
0011
0000
1001
0000
0100
0010
1001
0000
0001
0010
1100
0000
0001
0010
1100
0000
0001
0010
1100
0000
0101
0010
1000
0010
0101
0000
1000
0100
,
1010
0000
1000
0100
1010
0000
1001
0000
0100
0010
1001
0000
0010
0001
1010
0000
0010
0100
1010
0000
0010
0100
1010
0000
0001
0010
0100
1000
0010
0100
1000
0100
,
0011
0000
1000
0100
0011
0000
1001
0000
0010
0100
1001
0000
0001
0010
1100
0000
0001
0010
1100
0000
0001
0010
1100
0000
0101
0000
1000
0010
0101
0000
1000
0100
,
0001
0010
0100
1000
0010
0001
0010
0100
0001
0010
0100
1000
0010
0001
0010
0100
0001
0010
0100
1000
0010
0001
0010
0100
1000
0100
0010
0001
1000
0100
0010
0001
,
0011
0000
1000
0100
0011
0000
1001
0000
0100
0010
1001
0000
0001
0010
1100
0000
0001
0010
1100
0000
0001
0010
1100
0000
0101
0010
1000
0010
0101
0000
1000
0100
,
1010
0000
1000
0100
1010
0000
1001
0000
0100
0010
1001
0000
0010
0001
1010
0000
0010
0100
1010
0000
0010
0100
1010
0000
0001
0010
0100
1000
0010
0100
1000
0100
,
0011
0000
1000
0100
0011
0000
1001
0000
0010
0100
1001
0000
0001
0010
1100
0000
0001
0010
1100
0000
0001
0010
1100
0000
0101
0000
1000
0010
0101
0000
0001
0010
,
0101
0010
0100
1000
0010
0100
1000
0100
0001
0010
0100
1000
0010
0100
1000
0100
0001
0010
0100
1000
0010
0100
1000
0100
1010
0100
0010
1000
0001
0100
0010
1000
,
0101
0010
0100
1000
0010
0100
1000
0100
0001
0010
0100
1000
0010
0100
1000
0100
0001
0010
0100
1000
0010
0100
1000
0100
1010
0100
0010
1000
0001
0100
0010
1000
,
0201
0000
0000
0000
0000
0000
0000
0000
0000
0000
0000
0000
0000
0000
0000
0000
0000
0300
0000
0000
0000
0000
0000
0000
0000
0000
0000
0000
0000
0000
0000
0000
0000
0000
0000
0000
0000
0000
0000
0000
0000
0000
0000
0000
0000
0000
0000
0000
0000
0000
0000
0000
0000
0000
0000
0000
0000
0000
0000
0000
0000
0000
0000
0000
;

//---------------dance-single - Copied from----------------
#NOTES:
     dance-single:
     Copied from:
     Challenge:
     13:
     1.000,1.000,1.000,0.179,1.000,856.000,198.000,21.000,0.000,1.000:
0000
0000
0000
0000
,
0000
0000
0000
0000
,
0101
0000
0110
0000
1000
0000
1000
0000
0011
0000
0110
0000
1000
0000
1000
0000
0101
0000
0110
0000
1000
0000
1000
0000
0101
0010
0100
1000
0001
0010
0100
1000
,
0101
0000
0110
0000
1000
0000
1000
0000
1001
0000
0110
0000
1000
0000
1000
0000
0101
0000
0110
0000
1000
0000
1000
0000
0101
0010
0100
1000
0001
0010
0100
1000
,
0011
0000
0000
0000
0110
0000
0000
0000
1000
0000
0000
0000
1000
0000
0000
0000
1010
0000
0000
0000
0110
0000
0000
0000
1000
0000
0000
0000
1000
0000
0000
0000
0011
0000
0000
0000
0110
0000
0000
0000
1000
0000
0000
0000
1000
0000
0000
0000
0102
0003
0010
0000
0100
0000
1000
0000
0102
0003
0010
0000
0100
0000
1000
0000
,
0010
0100
1000
0100
1010
0001
0100
0010
0001
0010
0200
0001
1000
1000
0001
0301
,
0010
0000
0000
0000
0000
0000
0000
0000
0000
0000
0000
0000
0001
0000
0000
0000
0000
0000
0000
0000
0000
0000
0000
0000
0010
0000
0000
0000
0000
0000
0000
0000
0000
0000
0000
0000
0100
0000
0000
0000
0000
0000
0000
0000
0000
0000
0000
0000
1001
0000
0000
0000
0000
0000
0000
0000
0000
0000
0000
0000
0010
0000
0000
0000
0000
0000
0000
0000
0000
0000
0000
0000
0100
0000
0000
0000
0000
0000
0000
0000
0000
0000
0000
0000
2000
0000
0000
0000
0000
0000
0000
0000
0000
0000
0000
0000
0001
0000
0000
0000
0000
0000
0000
0000
0000
0000
0000
0000
0001
0000
0000
0000
0000
0000
0000
0000
0000
0000
0000
0000
0100
0000
0000
0000
0000
0000
0000
0000
0010
0000
0000
0000
0000
0000
0000
0000
0100
0000
0000
0000
0000
0000
0000
0000
0001
0000
0000
0000
0000
0000
0000
0000
0010
0000
0000
0000
0000
0000
0000
0000
0100
0000
0000
0000
0000
0000
0000
0000
0001
0000
0000
0000
0000
0000
0000
0000
0010
0000
0000
0000
0000
0000
0000
0000
0100
0000
3000
0000
0000
0000
0000
0000
,
0010
0000
0100
0000
1000
0000
0100
0000
1010
0000
0001
0000
0100
0000
0010
0000
0001
0000
0010
0000
0200
0000
0010
0000
1000
0000
1000
0000
0010
0000
0010
0300
,
0001
0000
0000
0000
0000
0000
0000
0000
0010
0000
0000
0000
0000
0000
0000
0000
0100
0000
0000
0000
0000
0000
0000
0000
0010
0000
0000
0000
0000
0000
0000
0000
0000
0000
0000
0000
0100
0000
0000
0000
0000
0000
0000
0000
0000
0000
0000
0000
1001
0000
0000
0000
0000
0000
0000
0000
0000
0000
0000
0000
0010
0000
0000
0000
0000
0000
0000
0000
0000
0000
0000
0000
0100
0000
0000
0000
0000
0000
0000
0000
0000
0000
0000
0000
2000
0000
0000
0000
0000
0000
0000
0000
0000
0000
0000
0000
0010
0000
0000
0000
0000
0000
0000
0000
0000
0000
0000
0000
0001
0000
0000
0000
0000
0000
0010
0000
0000
0000
0000
0000
0100
0000
0000
0000
0000
0000
0000
0000
0000
0000
0000
0000
0100
0000
0000
0000
0000
0000
0000
0000
0000
0000
0000
0000
0001
0000
0000
0000
0000
0000
0000
0000
0000
0000
0000
0000
0010
0000
0000
0000
0000
0000
0000
0000
0000
0000
0000
0000
0010
0000
0000
0000
0000
0000
0000
0000
0000
0000
0000
0000
0100
0000
0000
0000
0000
0000
3000
0000
0000
0000
0000
0000
,
0010
0000
0100
0000
1000
0000
0100
0000
1010
0000
0001
0000
0100
0000
0010
0000
0001
0000
0010
0000
0200
0000
0001
0000
1000
0000
1000
0000
0001
0000
0001
0300
,
0010
0000
0000
0000
0000
0000
0000
0000
0000
0000
0000
0000
0001
0000
0000
0000
0000
0000
0000
0000
0000
0000
0000
0000
0010
0000
0000
0000
0000
0000
0000
0000
0000
0000
0000
0000
0100
0000
0000
0000
0000
0000
0000
0000
0000
0000
0000
0000
1001
0000
0000
0000
0000
0000
0000
0000
0000
0000
0000
0000
0010
0000
0000
0000
0000
0000
0000
0000
0000
0000
0000
0000
0100
0000
0000
0000
0000
0000
0000
0000
0000
0000
0000
0000
2000
0000
0000
0000
0000
0000
0000
0000
0000
0000
0000
0000
0010
0000
0000
0000
0000
0000
0000
0000
0000
0000
0000
0000
0010
0000
0000
0000
0000
0000
0000
0000
0000
0000
0000
0000
0100
0000
0000
0000
0000
0000
0000
0000
0010
0000
0000
0000
0000
0000
0000
0000
0100
0000
0000
0000
0000
0000
0000
0000
0001
0000
0000
0000
0000
0000
0000
0000
0010
0000
0000
0000
0000
0000
0000
0000
0100
0000
0000
0000
0000
0000
0000
0000
0001
0000
0000
0000
0000
0000
0000
0000
0010
0000
0000
0000
0000
0000
0000
0000
0100
0000
3000
0000
0000
0000
0000
0000
,
0010
0000
0100
0000
1000
0000
0100
0000
1010
0000
0001
0000
0100
0000
0010
0000
0001
0000
0010
0000
0200
0000
0010
0000
1000
0000
1000
0000
0010
0000
0010
0300
,
0001
0010
0100
1000
0100
0000
0010
0000
1001
0000
0010
0000
0100
0000
2000
0000
0010
0000
0010
0000
0100
0000
0100
0000
0001
0010
0100
0010
0001
0010
0100
3010
,
1000
0100
0010
0001
1100
0010
0001
0010
1000
0100
0010
0001
1100
0010
0001
0010
1000
0100
0010
0001
1100
0010
0001
0010
0100
1000
0100
0010
0101
1000
0100
0010
,
1000
0100
0010
0001
1010
0100
0010
0001
0100
0010
1000
0001
1100
0010
1000
0001
0010
0100
0001
1000
0011
0100
0001
1000
0020
0000
0000
0000
1000
0000
0000
0030
,
0100
1000
0100
0010
0101
0010
0100
0010
0002
0000
0000
0003
0110
0000
2000
0000
0000
0000
0000
0000
0100
0000
0000
3000
0100
1000
0100
0010
0101
0010
0100
0000
,
0010
0000
0010
0000
0101
0010
0100
1000
0001
0010
0100
1000
0101
0010
0100
1000
0101
0010
0100
1000
0100
0010
0100
1000
0200
0000
0000
0000
0000
0000
0000
0300
,
0020
0000
0000
0000
1000
0000
0000
0000
0000
0030
0001
0000
1010
0000
0200
0000
0000
0000
0000
0000
1000
0000
0000
0300
1000
0000
0000
0100
1001
0000
0010
0000
,
0002
0000
0000
0000
1000
0000
0000
0003
0010
0000
0100
0000
1010
0100
1000
0100
0010
0000
0200
0000
0010
0000
0010
0000
0300
0000
1000
0100
0012
0000
0000
0003
,
1000
0100
0010
0001
1100
0010
1000
0100
0010
0001
0100
0010
1001
0100
0010
0001
1000
0100
0010
0001
1100
0010
1000
0100
0010
0001
0100
0010
1001
0100
0010
0001
,
0010
0001
0010
1000
0100
0010
1001
0100
0010
0001
0010
1000
0100
0010
0001
0100
0010
0001
0110
1000
0100
0010
0001
0100
1000
0100
0010
1000
0100
0010
1001
0100
1000
0100
0010
1000
0100
0010
0001
1000
0100
0010
0001
1000
0100
0010
0001
1000
,
0011
0000
1000
0100
0011
0000
1001
0000
0101
0010
1001
0000
0001
0010
1100
0000
0001
0010
1100
0000
0001
0010
1100
0000
0101
0010
1000
0010
0101
0000
1000
0100
,
1010
0000
1000
0100
1010
0000
1001
0000
0101
0010
1001
0000
0010
0001
1010
0000
0010
0100
1010
0000
0010
0100
1010
0000
0101
0010
0100
1000
0010
0100
1000
0100
,
0011
0000
1000
0100
0011
0000
1001
0000
0011
0100
1001
0000
0001
0010
1100
0000
0001
0010
1100
0000
0001
0010
1100
0000
0101
0000
1000
0010
0101
0000
1000
0100
,
0001
0010
0100
1000
0010
0001
0010
0100
1001
0010
0100
1000
0010
0001
0010
0100
1001
0010
0100
1000
0010
0001
0010
0100
1000
0100
0010
0001
1000
0100
0010
0001
,
0011
0000
1000
0100
0011
0000
1001
0000
0101
0010
1001
0000
0001
0010
1100
0000
0001
0010
1100
0000
0001
0010
1100
0000
0101
0010
1000
0010
0101
0000
1000
0100
,
1010
0000
1000
0100
1010
0000
1001
0000
0101
0010
1001
0000
0010
0001
1010
0000
0010
0100
1010
0000
0010
0100
1010
0000
0101
0010
0100
1000
0010
0100
1000
0100
,
0011
0000
1000
0100
0011
0000
1001
0000
0011
0100
1001
0000
0001
0010
1100
0000
0001
0010
1100
0000
0001
0010
1100
0000
0101
0000
1000
0010
0101
0000
1000
0100
,
0101
0000
0010
0000
0101
0000
1000
0000
0101
0000
0010
0000
0101
0000
1000
0000
0101
0000
0010
0000
0101
0000
1000
0000
0101
0000
0010
0000
0101
0000
1000
0000
0101
0000
0010
0000
0101
0000
1000
0000
0101
0000
0010
0000
0101
0000
1000
0000
0010
0000
0100
0000
1000
0000
0100
0000
1020
0030
0100
0000
1000
0000
0100
0000
,
0011
0000
1000
0100
0011
0000
1001
0000
0101
0010
1001
0000
0001
0010
1100
0000
0001
0010
1100
0000
0001
0010
1100
0000
0101
0010
1000
0010
0101
0000
1000
0100
,
1010
0000
1000
0100
1010
0000
1001
0000
0101
0010
1001
0000
0010
0001
1010
0000
0010
0100
1010
0000
0010
0100
1010
0000
0101
0010
0100
1000
0010
0100
1000
0100
,
0011
0000
1000
0100
0011
0000
1001
0000
0011
0100
1001
0000
0001
0010
1100
0000
0001
0010
1100
0000
0001
0010
1100
0000
0101
0000
1000
0010
0101
0000
1000
0100
,
0001
0010
0100
1000
0010
0001
0010
0100
1001
0010
0100
1000
0010
0001
0010
0100
0001
0010
0100
1000
0010
0001
0010
0100
1000
0100
0010
0001
1000
0100
0010
0001
,
0011
0000
1000
0100
0011
0000
1001
0000
0101
0010
1001
0000
0001
0010
1100
0000
0001
0010
1100
0000
0001
0010
1100
0000
0101
0010
1000
0010
0101
0000
1000
0100
,
1010
0000
1000
0100
1010
0000
1001
0000
0101
0010
1001
0000
0010
0001
1010
0000
0010
0100
1010
0000
0010
0100
1010
0000
0101
0010
0100
1000
0010
0100
1000
0100
,
0011
0000
1000
0100
0011
0000
1001
0000
0011
0100
1001
0000
0001
0010
1100
0000
0001
0010
1100
0000
0001
0010
1100
0000
0101
0000
1000
0010
0101
0000
0001
0010
,
1101
0010
0100
1000
0011
0100
1000
0100
1001
0010
0100
1000
0011
0100
1000
0100
1001
0010
0100
1000
0011
0100
1000
0100
1010
0100
0010
1000
0011
0100
0010
1000
,
0101
0010
0100
1000
0010
0100
1000
0100
0001
0010
0100
1000
0011
0100
1000
0100
0001
0010
0100
1000
0010
0100
1000
0100
1010
0100
0010
1000
0001
0100
0010
1000
,
0201
0000
0000
0000
0000
0000
0000
0000
0000
0000
0000
0000
0000
0000
0000
0000
0000
0300
0000
0000
0000
0000
0000
0000
0000
0000
0000
0000
0000
0000
0000
0000
0000
0000
0000
0000
0000
0000
0000
0000
0000
0000
0000
0000
0000
0000
0000
0000
0000
0000
0000
0000
0000
0000
0000
0000
0000
0000
0000
0000
0000
0000
0000
0000
;
