#TITLE:葛西覇亜怒孤亜魂;
#SUBTITLE:(Kobaryo's FTN-Remix);
#ARTIST:葛西ハーコーズ;
#TITLETRANSLIT:Kasai Hoa Alexander Soul;
#SUBTITLETRANSLIT:;
#ARTISTTRANSLIT:Kasai Harko's;
#CREDIT:Owem;
#BANNER:../banner.png;
#BACKGROUND:../bg.png;
#LYRICSPATH:;
#CDTITLE:../cdtitleowem.png;
#MUSIC:Kasai Harko's - Kasai Hoa Alexander Soul (Kobaryo's FTN-Remix).ogg;
#OFFSET:-2.031;
#SAMPLESTART:30.831;
#SAMPLELENGTH:19.200;
#SELECTABLE:YES;
#BPMS:0.000=200.000,296.000=150.000,500.000=160.000,504.000=170.000,508.000=180.000,512.000=190.000,516.000=195.000,519.000=196.000,520.000=197.000,521.000=198.000,522.000=199.000,523.000=200.000;
#STOPS:;
#BGCHANGES:;
// cache tags:
#FIRSTBEAT:0.000;
#LASTBEAT:696.500;
#SONGFILENAME:Songs/Owem's Simfiles 08 - 1.2/Kasai Hoa Alexander Soul (Kobaryo's FTN-Remix) - [Owem]/Kasai Hoa Alexander Soul (Kobaryo's FTN-Remix).sm;
#HASMUSIC:1;
#HASBANNER:1;
#MUSICLENGTH:237.244;
// end cache tags

//---------------dance-single - 15 (Owem)----------------
#NOTES:
     dance-single:
     15 (Owem):
     Challenge:
     15:
     1.000,1.000,0.447,1.000,1.000,1597.000,106.000,278.000,19.000,0.000:
1000
0000
0100
0100
0020
0032
0003
2000
,
0000
3020
0230
0302
0203
0320
2030
3002
,
1003
0000
0010
0010
2000
3002
0003
0200
,
0000
0320
2030
3002
2003
3200
0320
0032
,
1003
0000
0010
0010
0200
0302
0003
2000
,
0000
3200
0320
0032
2003
3002
0203
0320
,
1030
0000
0001
0000
1000
0000
0100
0000
0010
0001
1000
0000
0001
0000
0100
0000
,
0010
0000
0100
0000
0001
1000
0001
0000
0010
0000
0100
0000
2000
0000
0000
0000
,
3002
0003
0000
0201
0300
0010
2000
3000
,
1002
0003
0000
2010
3000
0010
0200
0300
,
0102
0003
0000
2001
3000
0010
0200
0300
,
0102
0003
0200
0300
0120
0030
2010
3000
,
1002
0003
0000
0201
0300
0010
2000
3001
,
0201
0000
0300
0000
0000
0000
0120
0000
0000
0030
1000
0000
0002
0000
1003
0000
,
1200
0000
0300
0000
0000
0000
0120
0000
0000
0030
0001
0000
0100
0000
0010
0000
,
2010
3000
1002
0003
0201
0300
0120
0030
,
200M
3100
0010
0001
2000
3001
0200
0310
,
0200
0302
1003
0000
0200
0300
0020
0032
2003
3000
0010
0000
0100
0000
0001
0000
,
1MM2
1003
0100
0010
0002
1003
0020
0130
,
0002
2003
3001
0000
0020
0000
0230
0000
1300
0000
0001
0100
0001
0000
1000
0000
,
0100
0010
0001
1000
0001
0100
0010
1000
0001
0100
0001
0010
0100
1000
0001
0010
,
0001
0100
0010
1000
0001
1000
0100
0010
0100
1000
0001
0010
0001
0100
0010
1000
,
0001
0100
0010
0100
0001
1000
0100
1000
0010
1000
0001
0100
0010
1000
0001
0010
,
0200
0000
1300
0000
0002
0000
0103
0010
0200
0301
1000
0000
0002
0000
0000
0000
,
1003
0100
0010
0001
1000
0001
0100
0010
1000
0001
0100
0001
0010
0100
1000
0001
,
0010
0001
0100
0010
0100
0001
1000
0010
1000
0001
0100
0010
1000
0001
0010
0100
,
1000
0100
0010
0001
1000
0100
1000
0001
1000
0010
0100
0001
0100
0010
1000
0001
,
0100
0001
0010
0100
1000
0001
0010
0001
0100
0010
1000
0001
1000
0100
0010
0100
,
1000
0001
1000
0010
0100
0001
1000
0100
1000
0001
0010
0100
0010
0001
1000
0100
,
1000
0001
0010
0001
1000
0010
1000
0001
0100
0010
1000
0001
0100
0001
1000
0001
,
0100
0010
0100
0001
1000
0010
1000
0100
0010
0001
1000
0100
1000
0001
0010
0100
,
2000
3010
0200
0301
2000
3100
0020
0031
,
1000
0100
1000
0001
0100
0010
0100
0001
1000
0010
1000
0001
1000
0100
0010
0001
,
0010
0100
1000
0001
1000
0100
0010
0100
1000
0001
0100
0001
0100
0010
1000
0001
,
0100
0010
0100
0001
1000
0010
1000
0001
0100
0001
1000
0100
0010
0001
1000
0100
,
1000
0001
0010
0001
0100
0010
1000
0001
0100
0001
1000
0010
1000
0001
0100
0010
,
0100
0001
1000
0100
1000
0001
0010
0001
1000
0100
0010
0001
1000
0100
1000
0001
,
0010
0001
0100
0010
1000
0001
0100
0001
1000
0010
0100
0001
0100
0010
1000
0001
,
0100
0001
0010
0100
1000
0001
0010
0001
1000
0100
1000
0010
0100
0001
0100
0010
,
2000
0000
3100
0010
0002
0000
0103
0010
2000
0000
3001
0010
0200
0000
0000
0000
,
4300
0000
0000
0000
3010
0000
0100
0000
0002
0000
0000
0000
2003
3000
0000
0000
,
0100
0000
0010
0000
0001
0000
1000
0001
0100
0010
0200
0000
0302
0000
0000
0000
,
2003
0000
3100
0020
0000
0031
0401
0000
,
0320
0000
0000
0030
1000
0000
0002
0000
0000
0000
0103
0000
0140
0000
0000
0000
,
2030
0000
0000
3000
0001
0000
0020
0000
0000
0000
0130
0000
4100
0000
0000
0000
,
3002
0000
0103
0110
0000
0010
1010
0000
,
2001
0000
0000
3000
0001
0000
0201
0000
0000
0000
0310
0000
4000
0000
0000
0000
,
3002
0000
0000
0003
0010
0000
0210
0000
0000
0000
2300
0000
3004
0000
0000
0000
,
0203
0000
0000
0300
0010
0000
2010
0000
0000
0000
3002
0000
0403
0000
0000
0000
,
0310
0000
1000
0000
0001
0000
1000
0100
0010
0001
1000
0000
0020
0000
0000
0000
,
2030
0000
3004
0000
0103
0040
4030
3040
,
2030
3004
0403
0304
1003
0100
0040
0000
,
0032
0000
0000
0003
2000
0000
0000
0000
3040
0000
0430
0000
0340
0000
0430
0000
,
0301
0000
4000
0000
3400
0000
0340
0000
0032
0000
0000
0003
0400
0000
0000
0300
,
M12M
0000
0000
0030
4000
0000
0000
0000
3001
0000
0400
0000
0340
0000
0430
0000
,
0302
0000
4003
0000
3400
0000
4300
0000
3010
0000
0000
0000
0400
0000
0000
0300
,
M1M2
0000
0000
0003
4000
0000
0000
0000
3100
0000
0010
0000
0002
0000
2003
0000
,
3010
0000
0100
0001
0100
0000
0010
1000
0001
0000
1000
0100
0020
0000
0000
0030
,
MM12
0000
0000
0000
1003
0000
1000
0000
0200
0000
0000
0300
0010
0000
0001
0000
,
2000
0000
0000
3000
1020
0000
0030
0000
0210
0000
0300
0000
0102
0000
0003
0000
,
2000
0000
0000
0000
3100
0000
0100
0000
0020
0000
0000
0030
0001
0000
0100
0000
,
0002
0000
0000
0003
2001
0000
3000
0000
1020
0000
0030
0000
2100
0000
3000
0000
,
0200
0000
0000
0300
0010
0000
0010
0000
0002
0000
0000
0003
1000
0000
0010
0000
,
2000
0000
0000
3000
1200
0000
0300
0000
0120
0000
0030
0000
0012
0000
0003
0000
,
2000
0000
3010
0100
0002
0000
1003
0100
,
0010
0000
0001
0000
1000
0000
0010
1000
0010
0100
0001
0000
2000
0000
0000
3000
,
1200
0000
0310
0000
,
0004
0000
0003
0000
2001
0000
0000
0000
3010
0000
0210
0000
0000
0000
0000
0300
,
0102
0000
0000
0000
0000
0000
0000
0000
0000
0000
0000
0000
1003
0000
0000
0000
0000
0000
0010
0200
0000
0000
0000
0000
,
0304
0000
0003
0000
2001
0000
0000
3000
0010
0000
2010
0000
0000
0000
0000
3000
,
1002
0000
0000
0000
0013
0000
0100
1000
,
0004
0003
0400
0300
0120
0000
0000
0000
1030
0000
1002
0000
0000
0000
0000
0003
,
0201
0000
0000
0300
2010
0000
3002
0000
,
1003
0000
0100
0010
0001
0000
1000
0010
0100
0000
0001
1000
0001
0000
0100
0000
,
0020
0000
0000
0000
,
0000
0000
0000
0000
,
0030
0000
0000
0000
,
0000
0000
0000
0000
,
0000
0000
0000
0000
,
0000
0000
0000
0000
,
0000
0000
0000
0000
,
0000
0000
0000
0000
,
1000
0000
0000
0000
0100
0000
0140
0030
0000
0000
0004
0003
0100
0000
0040
0030
,
1000
0000
0001
0000
1000
0000
0200
0000
0000
0000
0340
0030
0011
0000
0004
0003
,
2000
0000
3000
0000
0010
0000
0200
0000
0000
0000
0304
0003
1000
0000
0400
0300
,
0010
0001
1000
0001
0100
0010
1000
0001
0100
0001
1000
0100
0010
0001
1000
0010
,
0100
0001
0100
0010
1000
0001
1000
0100
0010
0001
1000
0100
1000
0010
0100
0001
,
1000
0001
0100
0010
1000
0001
0100
0001
1000
0100
0010
0001
1000
0100
1000
0010
,
0100
0001
0100
0010
1000
0001
0010
0001
1000
0100
0010
0001
1000
0100
1000
0001
,
0100
0001
0010
0100
1000
0001
1000
0010
0100
0001
1000
0100
0020
0000
0030
0000
,
0012
0000
0000
0003
0000
0000
2001
0000
0000
3000
0010
0000
0100
0000
0001
0000
,
0201
0000
0000
0300
0000
0000
0120
0000
0000
0030
1000
0000
0001
0000
1000
0000
,
1200
0000
0000
0300
0000
0000
0120
0000
0000
0030
0001
0000
1000
0000
0001
0000
,
0201
0300
0120
0030
2010
3000
1002
0003
,
2M1M
0000
3000
0000
0001
0000
0201
0000
0000
0300
0010
0000
1000
0000
0001
0000
,
2001
0000
3000
0000
0010
0000
0210
0000
0000
0300
0001
0000
0010
0000
0100
0000
,
2100
0000
3000
0000
1000
0000
1020
0000
0000
0030
0100
0000
0001
0000
1000
0000
,
1020
0030
0210
0300
0102
0003
2001
3000
,
1M2M
0000
1030
0000
0001
0000
0010
0000
0200
1300
0100
0000
0010
0000
0002
0000
,
1003
0020
2030
0000
3100
0000
0020
0032
1003
0000
0010
0000
0100
0000
0001
0000
,
1MM2
0000
1003
0000
0100
0000
0020
0000
0031
0000
0200
0000
0320
1030
0002
0000
,
2003
3020
0230
0302
0203
0310
1000
0001
,
1000
0100
0010
0001
1000
0001
0100
0010
1000
0001
0100
0001
0010
0100
1000
0001
,
0010
0001
0100
0010
1000
0001
0100
0010
0100
0001
1000
0100
0010
0001
1000
0010
,
0100
0000
0000
00M0
0000
0000
0000
0000
0000
0000
0000
0000
0000
0000
0000
0000
,
0000
0000
0000
0000
0000
0000
1000
0000
0100
0010
0002
0000
1003
0000
0200
0000
,
0310
0000
0001
0000
1000
0000
0020
0030
0100
0000
0002
0000
2003
0000
0000
0000
,
3001
0000
0000
0000
0010
0000
0100
1000
0010
1000
0001
0000
0200
0000
0000
0000
,
0310
0000
0001
2000
3010
0200
0301
2000
,
3100
0000
0000
0000
0010
0000
0002
0000
1003
0000
0020
0000
0130
0000
0002
0003
,
0001
0000
1000
0020
0130
0002
1003
0200
,
0310
0000
0000
0000
0001
0000
0001
0000
1000
0010
1000
0000
0002
0000
0000
0003
,
1001
0000
0000
0000
1010
0000
0020
0030
0110
0000
0200
0300
0101
0000
0002
0003
,
1001
0000
0000
0000
0000
0000
0000
0000
1010
0000
0000
0000
2000
0000
3000
0000
1100
0000
0000
0000
0200
0000
0300
0000
0110
0000
0000
0000
0040
0000
0000
0030
,
0011
0000
0000
0000
1001
0000
2000
3000
1010
0000
0020
0030
0100
0000
0001
0000
,
1001
0000
1000
0000
0100
0000
0010
0001
1000
0010
0100
0001
0200
0000
0000
0000
,
0310
1000
0001
1000
0100
0010
0010
0001
,
1001
1000
0010
0100
0001
1000
1000
0100
,
0110
0010
0001
1000
0010
0100
0100
0001
,
2000
3100
0020
0031
2000
3010
0200
0301
,
1MM1
1000
0100
0010
0001
1000
1000
0010
,
0110
0100
0001
1000
0100
0010
0010
0001
,
0101
0100
0010
1000
0001
1000
1000
0100
,
0010
0000
0001
1000
0001
0000
0010
0100
1000
0000
0001
0100
0020
0000
0000
0030
,
1010
0000
1000
0000
0001
0000
1000
0000
0200
0000
0310
0000
0002
0203
0310
0000
,
2000
0000
3002
0000
2003
0000
3200
0320
0031
0000
1000
0000
0010
0100
0001
1000
,
0200
0000
0310
0000
0001
0000
1000
0000
0002
0000
0103
0020
2030
0000
3001
0000
,
2000
0000
3200
0000
0320
0000
0031
2000
3020
0000
0130
0000
0001
0000
1000
0000
,
0010
0100
0001
1000
0100
1000
0001
0100
0001
0010
0100
1000
0001
0010
0001
0100
,
0010
1000
0001
0100
0010
0100
0001
1000
0010
1000
0001
0100
0001
1000
0100
0010
,
0001
1000
0100
1000
0001
0010
0100
0010
0001
1000
0001
0100
0010
1000
0001
0100
,
0001
1000
0010
0100
0001
0100
0010
1000
0001
1000
0100
0010
0001
1000
0010
0100
,
0001
0000
0000
0000
0000
0000
0000
0000
0000
0000
1000
0000
0000
0000
0000
0000
0000
0000
0000
0010
0000
0000
0000
0000
0000
0000
0000
0000
0000
1000
0000
0000
0000
0000
0000
0000
0000
0000
0001
0000
0000
0000
0000
0000
0000
0000
0000
0000
0100
0000
0000
0000
0000
0000
0000
0000
0000
0000
0010
0000
0000
0000
0000
0000
0000
0000
0000
0100
0000
0000
0000
0000
0000
0000
0000
0000
0000
0001
0000
0000
0000
0000
0000
0000
0000
0000
1000
0000
0000
0000
0000
0000
0000
0000
0000
0000
0100
0000
0000
0000
0000
0000
0000
0000
0000
0000
1000
0000
0000
0000
0000
0000
0000
0000
0000
0001
0000
0000
0000
0000
0000
0000
0000
0000
0000
0010
0000
0000
0000
0000
0000
0000
0000
0000
0001
0000
0000
0000
0000
0000
0000
0000
0000
0000
1000
0000
0000
0000
0000
0000
0000
0000
0000
0000
0100
0000
0000
0000
0000
0000
0000
0000
0000
0010
0000
0000
0000
0000
0000
0000
0000
0000
0000
0001
0000
0000
0000
0000
0000
0000
0000
0000
1000
0000
0000
0000
0000
0000
0000
0000
0000
0000
,
0020
0000
0130
0000
0002
0000
1003
0100
0010
0001
1000
0000
0020
0000
0000
0000
,
1030
0100
0010
0001
1000
0100
1000
0001
0100
0010
1000
0001
0100
0001
0010
0100
,
1000
0001
0010
0001
1000
0100
1000
0001
0100
0010
0100
0001
1000
0010
1000
0001
,
0100
0001
1000
0010
0100
0001
0100
0010
1000
0001
0010
0001
1000
0100
0010
0001
,
0100
0001
0010
0100
1000
0001
1000
0010
0100
0001
1000
0100
1000
0001
0100
0010
,
0100
0001
1000
0010
1000
0001
0100
0001
1000
0100
0010
0100
1000
0001
0010
0001
,
0100
0001
1000
0010
1000
0001
0100
0010
1000
0001
0100
0001
0010
0100
1000
0001
,
0010
0001
1000
0100
0010
0001
1000
0010
1000
0001
0100
0010
0100
0001
1000
0010
,
1000
0001
0200
0000
0310
1000
0002
0000
,
1003
0010
0100
0001
1000
0100
1000
0001
0100
0001
0010
0100
1000
0001
0010
0001
,
1000
0010
1000
0001
0100
0010
0100
0001
1000
0100
0010
0001
1000
0100
1000
0001
,
0100
0001
1000
0010
0100
0001
1000
0010
1000
0001
0100
0001
0010
0100
1000
0001
,
0010
0001
1000
0100
0010
0001
1000
0010
1000
0001
0100
0001
1000
0010
0100
0001
,
0100
0010
1000
0001
0010
0001
1000
0100
0010
0001
1000
0100
1000
0010
1000
0001
,
0100
0001
0010
0100
1000
0001
0010
0001
1000
0010
0100
0001
0100
0010
1000
0100
,
1000
0001
0100
0001
0010
0100
1000
0001
1000
0010
0100
0001
1000
0010
1000
0001
,
0100
0000
0010
1000
0001
0000
0010
0100
1000
0000
0001
0100
0020
0000
0000
0000
,
1030
0100
1000
0001
0100
0010
1000
0001
0100
0001
0010
0100
1000
0001
0010
0001
,
0100
0010
1000
0001
0100
0010
0100
0001
1000
0010
1000
0001
0100
0010
0100
0001
,
1000
0100
0010
0001
1000
0100
1000
0001
0010
0001
1000
0010
0100
0001
0100
0010
,
1000
0000
0100
0010
0001
0000
1000
0001
0100
0000
0010
0000
1000
0100
0010
0000
,
0001
1000
0010
0100
0001
1000
0100
1000
0010
0100
0001
1000
0100
1000
0001
0010
,
0001
0100
0010
1000
0001
0100
0001
0010
0100
1000
0001
1000
0010
0100
0001
1000
,
0100
1000
0010
1000
0001
0100
0001
0010
0100
1000
0001
0010
0001
1000
0010
0100
,
0002
1003
0200
0310
0002
1003
0020
0000
,
1030
0100
1000
0001
0010
0001
0100
0010
1000
0001
0100
0001
0010
0100
1000
0001
,
0010
0001
0100
0010
1000
0001
0100
0010
0100
0001
1000
0010
1000
0001
0100
0001
,
1000
0100
0010
0001
1000
0100
1000
0001
0010
0001
0100
0010
1000
0001
0100
0001
,
1000
0100
0010
0100
1000
0001
0010
0001
0100
0010
1000
0001
0100
0010
0100
0001
,
1000
0010
1000
0100
1000
0001
0010
0001
0100
0010
1000
0001
0010
0001
1000
0010
,
1000
0100
0010
0001
0010
0100
1000
0001
1000
0010
1000
0001
0100
0001
0010
0100
,
1000
0001
0100
0001
1000
0010
0100
0001
0100
0010
1000
0100
1000
0001
0010
0001
,
1000
0000
0100
0010
0001
0000
1000
0001
1000
0000
0010
0100
0002
0000
0000
0000
,
1003
0000
0010
0010
0200
0302
0003
2000
,
0000
3020
0230
0302
2003
3020
0230
0302
,
1003
0000
0100
0100
2000
3002
0003
0200
,
0000
0320
2030
3002
2003
3200
0320
0032
,
1003
0000
0010
0010
0200
0302
0003
2000
,
0000
3200
0320
0032
2003
3002
0203
0320
,
1030
0000
0001
0000
1000
0000
0100
0000
0010
0001
1000
0000
0001
0000
0100
0000
,
0010
0000
0100
0000
0001
1000
0001
0000
0010
0000
0100
0000
1000
0000
0010
0000
,
1000
M000
0000
0000
0000
0000
0000
0000
;
