#TITLE:Unkown Soldier;
#SUBTITLE:;
#ARTIST:Warmen;
#TITLETRANSLIT:;
#SUBTITLETRANSLIT:;
#ARTISTTRANSLIT:;
#CREDIT:DukAmok;
#BANNER:Unkown_Soldier.png;
#BACKGROUND:Unkown_Soldier-bg.png;
#LYRICSPATH:;
#CDTITLE:!duktitle.png;
#MUSIC:Unknown_Soldier.mp3;
#OFFSET:1.130;
#SAMPLESTART:37.500;
#SAMPLELENGTH:10.000;
#SELECTABLE:YES;
#BPMS:0.000=174.000;
#STOPS:;
#BGCHANGES:;
// cache tags:
#FIRSTBEAT:4.000;
#LASTBEAT:572.000;
#SONGFILENAME:Songs/StepmaniaFreak's Favorites/Unkown_Soldier [DukAmok]/Unkown_Soldier.sm;
#HASMUSIC:1;
#HASBANNER:1;
#MUSICLENGTH:198.008;
// end cache tags

//---------------dance-single - Heavy----------------
#NOTES:
     dance-single:
     Heavy:
     Hard:
     12:
     1.000,1.000,0.253,0.359,1.000,1763.000,50.000,71.000,0.000,0.000:
0000
0000
0000
0000
,
1001
0100
0010
0001
1000
0001
0010
0100
1000
0001
0100
0010
1000
0010
0100
0001
,
0010
0100
0010
0001
1000
0010
0100
0001
1000
0001
1000
0010
1000
0100
0011
0000
,
0110
0001
1000
0010
0100
0001
0010
0001
0100
0010
0100
0001
1000
0100
0010
0001
,
1000
0010
1000
0001
0010
0001
0100
0010
0100
0010
1000
0100
0010
0100
0010
0001
,
1100
0000
0010
0000
0011
0100
1000
0001
0100
0001
0010
0001
0100
0010
1000
0100
,
0010
0100
1000
0001
0010
0100
0010
0001
0100
0010
1000
0010
0100
0001
0010
0001
,
0110
0000
0010
0001
1100
0000
0010
1000
0101
0000
0010
0100
1001
0000
1000
0100
,
0011
0100
1000
0010
0100
0001
0010
0100
1000
0001
0100
0010
0100
0001
0010
0100
,
2002
0000
0000
0000
0000
0000
0000
0000
0000
0000
0000
0000
0000
0000
0000
0000
0000
0000
0000
0000
0000
0000
0000
0000
0000
0000
0000
0000
0000
0000
0000
0000
0003
0000
0000
0000
0000
0000
0000
0000
0000
0000
0000
0000
0000
0000
0000
0000
3001
0100
0000
0000
0000
0000
0000
0000
0000
0000
0000
0000
0000
0000
0000
0000
,
2000
0000
0000
0000
0001
0000
0000
0000
3100
0000
0100
0000
0010
0000
0001
0010
,
0200
0000
0000
0000
1300
0000
0000
0000
0010
0100
0001
0010
0100
1000
0100
0010
,
0001
1000
0010
0100
0001
1000
0100
0010
0001
0010
0100
0010
0001
0100
0010
1000
,
0100
0010
0001
0100
0010
1000
0100
0010
0001
0100
0010
1000
0100
0010
0001
0010
,
0100
1000
0010
1000
0100
0010
0001
0100
0001
0010
0100
0010
0001
0100
0010
1000
,
0200
0000
0300
0010
0001
1000
0010
0100
,
0002
0000
0000
0000
0003
0000
1000
0100
2000
0000
0000
0000
3000
0000
0100
0010
,
0001
0100
0020
0000
0100
0100
1030
0000
,
0001
0010
0100
0010
0001
1000
0010
0100
0010
1000
0100
1000
0001
0010
0001
0100
,
0001
0010
0100
1000
0010
1000
0010
0100
0001
0010
0100
1000
0100
1000
0010
0100
,
0002
0000
0000
0000
0000
0000
0000
0000
0000
0000
0000
0000
0010
0000
0000
0000
0000
0000
0000
0000
0000
0000
0000
0000
0003
0000
0000
0000
0000
0000
1000
0000
0000
0100
0000
0000
0010
0000
0000
0000
0001
0000
0000
0000
1000
0000
0000
0000
,
0020
0000
0000
0000
0000
0130
0001
0020
,
0000
0000
0000
0000
0030
0000
0000
0000
0100
1000
0001
0010
0001
1000
0010
1000
,
0100
0010
0001
1000
0010
0100
0010
1000
0100
1000
0010
0100
0001
0010
0001
0100
,
0010
1000
0100
1000
0010
0100
0001
0010
0100
1000
0100
0010
0001
0100
0001
1000
,
0200
0000
0000
0000
0300
0000
0000
0010
0001
1000
0100
0010
0001
1000
0010
0100
,
0010
0000
1000
0010
0100
0001
0010
0100
1000
0001
0010
0100
0010
0001
1000
0010
,
0200
0000
0301
0010
0200
0000
0000
0000
,
1300
0100
0010
0001
0100
0001
0010
0100
1000
0010
1000
0100
0010
0001
0100
0001
,
0010
0100
1000
0010
0100
0010
1000
0100
1000
0010
0100
0001
0010
0001
0100
0010
,
1010
1000
0100
0010
0001
0010
0100
1000
0001
0100
0010
1000
0001
0010
0100
1000
,
1001
0001
1000
0010
0100
0001
1000
0100
0010
0001
1000
0010
0100
0001
1000
0100
,
0110
0010
0001
1000
0010
0100
0001
0010
0100
1000
0100
0010
0001
0100
0010
1000
,
1010
0010
0100
0001
0010
0100
0010
0001
1000
0010
0100
0001
1000
0100
0010
0001
,
0011
0010
0100
0010
0001
0010
0100
1000
0001
0100
0010
1000
0001
0010
0100
1000
,
1001
0001
1000
0010
0100
0001
1000
0100
0010
0001
1000
0010
0100
0001
1000
0100
,
0110
0010
0001
1000
0010
0100
0001
0010
0100
1000
0100
0010
0001
0100
0010
1000
,
1010
0010
0100
0001
0010
0100
0010
0001
1000
0010
0100
0001
1000
0100
0010
0001
,
0011
0010
0100
1000
0001
0100
0010
1000
0001
0010
0100
1000
0100
0010
0001
0010
,
0100
1000
0001
0100
0001
0010
0100
0010
0001
1000
0010
1000
0100
0010
0100
1000
,
0001
0100
0010
1000
0001
0010
0100
1000
0100
1000
0100
0010
0001
0010
0100
0010
,
0001
1000
0010
1000
0010
0100
0001
0010
0100
0010
0001
1000
0100
1000
0001
0010
,
0100
0010
0001
1000
0100
1000
0010
0100
0001
0010
0100
0010
0001
1000
0001
1000
,
0001
0100
0010
0100
0001
0100
0010
1000
0100
1000
0010
0100
0010
0100
0001
0010
,
0100
1000
0001
0010
0100
1000
0001
0100
0010
1000
0001
0100
0010
0100
0001
0010
,
0100
0010
0001
1000
0100
1000
0001
0010
0100
0010
0001
1000
0010
0100
0001
0010
,
0100
2000
0010
0000
0001
0001
3020
0000
,
0130
0001
0010
0100
1000
0001
0010
0100
1000
0100
1000
0010
0100
0001
0010
0100
,
1000
0010
0100
0001
1000
0100
0010
0001
1000
0010
0100
0001
0010
0100
1000
0100
,
0010
0001
1000
0010
0100
0001
0010
0100
1000
0010
0100
0010
1000
0100
0010
0001
,
0010
0001
0100
0010
1000
0001
0100
0001
0010
0100
1000
0010
1000
0100
0010
0001
,
0100
0000
0001
0010
0001
0010
0100
1000
0001
0100
0001
0100
0010
1000
0100
0010
,
0001
0010
0001
1000
0010
0100
0001
0100
0010
1000
0100
0010
0001
1000
0010
0100
,
0001
1000
0010
1000
0100
0010
0001
1000
0100
1000
0001
0100
0001
1000
0001
0100
,
0010
1000
0100
0010
0001
0100
0010
1000
0100
1000
0001
0100
0001
0010
0001
0010
,
0100
1000
0001
0100
0010
1000
0001
0100
0001
0010
0001
1000
0010
0100
0001
0010
,
0200
0000
0000
0000
0000
0000
0000
0000
0000
0000
0000
0000
0000
0000
0000
0000
0000
0000
0000
0000
0000
0000
0000
0000
0000
0000
0000
0000
0000
0000
0000
0000
0000
0000
0000
0000
0000
0000
0000
0000
0000
0000
0000
0000
0000
0000
0000
0000
0000
0000
0000
0000
0000
0000
0000
0000
0000
0000
0000
0000
0000
0000
0000
0000
0000
0000
0000
0000
0000
0000
0000
0000
0000
0000
0000
0000
0000
0000
0000
0000
0000
0000
0000
0000
0000
0000
0000
0000
0000
0000
0000
0000
0000
0000
0000
0000
0000
0000
0000
0000
0000
0000
0000
0000
0000
0000
0000
0000
0000
0000
0000
0000
0000
0000
0000
0000
0000
0000
0000
0000
1300
0000
0000
0000
0000
0000
0000
0000
0000
0000
0000
0000
0010
0000
0000
0000
0000
0000
0000
0000
0000
0100
0000
0000
0000
0000
0000
0000
0000
0000
0000
0000
0001
0000
0000
0000
0000
0000
0000
0020
0000
0000
0000
0000
0000
0000
0000
0000
0000
0000
0000
0000
0000
0000
0000
0000
0000
0000
0000
0000
0000
0000
0000
0000
0000
0000
0000
0000
0000
0000
0000
0000
,
0000
0000
0000
0000
0000
0000
0000
0000
0000
0000
0000
0000
0000
0000
0000
0000
0000
0000
0000
0000
0000
0000
0000
0000
0000
0000
0000
0001
0030
0000
0000
0000
0000
0100
0000
0000
0000
0000
0000
0000
0010
0000
0000
0000
0000
0000
0000
0000
1000
0000
0000
0000
0000
0000
0000
0000
0010
0000
0000
0000
0000
0000
0000
0000
0100
0000
0000
0000
0000
0000
0000
0000
0010
0000
0000
0000
0000
0000
0000
0000
2000
0000
0000
0000
0000
0000
0000
0000
0000
0000
0000
0000
0000
0000
0000
0000
0000
0000
0000
0000
0000
0000
0000
0000
0000
0000
0000
0000
0000
0000
0000
0000
0000
0000
0000
0000
0000
0000
0000
0000
0000
0000
0000
0000
0000
0000
0000
0000
0000
0000
0000
0000
0000
0000
0000
0000
0000
0000
0000
0000
0000
0000
0000
0000
0000
0000
0000
0000
0000
0000
0000
0000
0000
0000
0000
0000
0000
0000
0000
0000
0000
0000
0000
0000
0000
0000
0000
0000
0000
0000
0000
0000
0000
0000
0000
0000
0000
0000
0000
0000
0000
0000
0000
0000
0000
0000
0000
0000
0000
0000
0000
0000
,
3010
0100
0001
0010
0200
0000
0000
0300
,
1000
0001
0100
0001
0010
0100
1000
0010
1000
0100
0010
0001
1000
0001
0010
0100
,
1000
0001
1000
0100
0010
0001
0100
0001
0010
0100
1000
0010
0100
0001
0010
0100
,
1000
0010
0100
0001
0010
0100
0010
0001
1000
0010
0100
0010
1000
0100
0010
0001
,
1000
0010
0100
0001
0010
0001
1000
0001
0010
0001
0100
0010
1000
0100
0010
0100
,
1000
0001
0100
0001
1000
0100
1000
0100
0010
0001
0010
0100
0010
0001
1000
0010
,
0100
0001
0010
0100
1000
0001
0100
0001
0010
0100
1000
0001
0010
0001
1000
0010
,
0100
0001
1000
0010
0100
0001
0010
0100
1000
0001
0010
0100
0010
0001
1000
0010
,
0100
0000
0000
0002
0000
0023
0000
0230
,
0000
2300
0000
3002
0000
0000
0103
0010
,
1000
0000
0100
0120
0030
1001
0000
0011
,
0000
0000
0000
0000
0000
0000
0000
0000
1000
0000
0000
0000
0010
1000
0000
0000
0000
0000
0000
0000
0010
0000
0000
0000
0100
0001
0000
0000
1000
0000
0000
0000
,
0020
0000
0130
0011
0000
0010
0000
1200
,
0000
0000
0000
0000
0000
0000
0310
0011
,
0000
0000
0000
0001
0000
0000
2001
0000
0000
0000
0000
0000
0000
0000
0000
0000
0000
0000
0000
0000
3002
0000
0000
0000
,
0203
0000
0320
0000
2030
0000
3200
0000
0000
0000
0000
0000
,
0320
0000
0000
0000
0000
0000
0000
0000
0000
0030
0000
0000
0001
0000
0000
1000
0000
0000
0010
0000
0000
0100
0001
1000
,
0020
0000
0030
0000
,
0000
0000
1000
0100
0010
0001
0010
0001
1000
0010
0100
0001
0100
0001
0010
0100
,
1000
0100
0010
0001
1000
0010
0100
0001
0010
0100
1000
0001
0100
0001
0010
0100
,
2000
0000
0000
3020
0000
0230
0000
0302
,
0000
0000
0000
0000
0000
0000
0000
0000
0000
0000
0003
0010
0100
0000
1000
0000
,
0020
0000
0030
0101
0000
0011
0000
1000
,
0001
1000
0001
1000
0001
0000
1000
0100
1000
0100
1000
0000
0100
0010
0001
0100
,
0020
0000
0000
0100
1000
0000
1000
0230
,
0000
0301
0010
0200
0000
1300
0001
0000
,
1200
0000
0000
0000
1300
0100
2000
0000
0000
3001
0010
0100
,
1000
0000
0110
0000
0010
0000
0000
0000
0001
0010
0100
0000
0010
0000
0001
0000
,
1000
0010
0100
0001
1100
0001
0010
0100
,
1000
0100
0001
0010
0100
1000
0010
0100
,
0000
0000
0001
0100
0010
0000
1000
0000
0100
0000
1000
0000
0010
0000
0100
0000
0001
0000
0010
0000
0100
0000
1000
0000
0100
0000
1000
0000
0010
0000
0100
0000
,
0001
0000
0010
0100
1000
0001
0100
0001
1000
0010
0100
0001
0010
0100
1000
0001
,
0200
0000
0000
0010
0001
0000
0310
1000
,
0001
0010
0000
0000
0000
0000
0000
0000
0000
0000
0000
0000
0000
0000
0000
0000
0001
0100
0000
0000
0000
0000
0000
0000
0000
0000
0000
0000
0000
0000
0000
0000
1000
0000
0000
0000
0000
0000
0000
0000
0000
0000
0000
0000
0000
0000
0000
0000
0000
0000
0000
0000
0000
0000
0000
0000
0000
0000
0000
0000
0000
0000
2000
0000
,
3200
0000
0000
0000
0000
0000
0000
0000
0000
0000
0000
0000
0000
0000
0000
0000
0000
0000
0000
0000
0000
0000
0000
0000
0310
0000
0000
0001
0000
0000
0200
0000
,
0000
0000
0000
0000
0000
0000
0310
1000
,
0001
0000
0010
0000
0100
0000
0200
0000
0000
0000
0000
0000
0000
1300
0100
0020
,
0000
0000
0100
0000
0031
0000
0000
0010
0000
0000
0100
0000
0010
0000
0001
0000
,
0100
0010
0100
0010
1001
0000
0001
0100
0001
0100
1010
0000
1000
0100
1000
0100
,
0011
0100
1000
0010
0100
0001
0010
0100
0010
0001
1000
0010
0100
0001
0010
0100
,
1000
0000
0000
0000
0000
0000
0000
0000
0000
0000
0000
0000
1100
0000
0000
0000
0000
0000
0000
0000
0000
0000
0000
0000
0100
0000
0000
0000
0000
0000
0100
0000
0000
0000
0000
0000
0010
0000
0000
0001
0000
0000
0100
0000
0010
0000
1000
0000
,
0002
0000
0000
0000
0000
0000
0000
0000
0000
0000
0000
0000
0003
0000
1000
0010
0100
0001
0010
0100
1000
0100
0010
0001
,
0100
0000
0000
0000
0000
0000
0000
0000
0000
0000
0000
0000
0010
0000
0000
0000
0000
0000
0000
0000
0000
0000
0000
0000
0100
0000
0000
0000
0000
0000
0000
0000
0000
0000
0000
0000
0001
0000
0000
0000
0000
0000
1000
0000
0000
0000
0000
0000
0100
0000
0000
0000
0000
0000
0000
0000
0000
0000
0000
0000
0010
0000
0000
0000
0000
0000
0000
0000
0000
0000
0000
0000
0001
0000
0000
0000
0000
0000
0000
0000
1000
0000
0000
0000
0000
0000
0000
0000
0010
0000
0000
0000
0000
0000
0000
0000
0100
0000
0000
0000
0000
0000
0000
0000
0001
0000
0000
0000
0000
0000
0000
0000
0010
0000
0000
0000
0000
0000
0000
0000
0100
0000
0000
0000
0000
0000
0000
0000
0000
0000
0000
0000
2000
0000
0000
0000
0000
0000
0000
0000
0000
0000
0000
0000
0000
0000
0000
0000
0000
0000
0000
0000
0000
0000
0000
0000
0000
0000
0000
0000
0000
0000
0000
0000
0000
0000
0000
0000
0000
0000
0000
0000
0000
0000
0000
0000
0000
0000
0000
0000
0000
0000
0000
0000
0000
0000
0000
0000
0000
0000
0000
0000
,
0100
0000
0000
0000
0001
0000
0000
0000
0001
0000
0001
0000
3010
0000
0000
0100
,
0002
0000
0000
0000
0000
0000
0000
0000
0000
0000
0000
0000
0003
0000
1000
0000
0010
0000
0100
0000
0001
0000
0010
0000
0100
0000
1000
0000
0000
0000
0100
0000
0000
0010
0000
0001
0000
1000
0000
0010
0000
0100
0000
0001
0000
1000
0000
0000
,
0000
0000
0010
0000
0000
0100
0000
0000
0001
0000
0100
0000
0000
0010
0000
1000
0000
0000
0100
0000
0000
0010
0000
0000
0000
0001
0000
0000
0010
0000
0000
0100
0000
0000
1000
0000
0000
0100
0000
0000
0010
0000
0000
0001
0000
0000
1000
0000
0000
0010
0000
0100
0000
0000
0000
0001
0000
0000
0100
0000
0000
0010
0000
0000
,
2000
0000
0000
0000
0000
0000
0000
0000
0000
0000
0000
0000
0000
0000
0000
0000
0000
0000
0000
0000
0000
0000
0000
0000
0000
0000
0000
0000
0000
0000
0000
0000
0000
0000
0000
0000
0000
0000
0000
0000
0000
0000
0000
0000
0000
0000
0000
0000
0000
0000
0000
0000
0000
0000
0000
0000
0000
0000
0000
0000
0000
0000
0000
0000
0000
0000
0000
0000
0000
0000
0000
0000
0000
0000
0000
0000
0000
0000
0000
0000
0000
0000
0000
0000
0000
0000
0000
0000
0000
0000
0000
0000
0000
0000
0000
0000
3001
0000
0000
0000
0000
0000
0000
0000
0100
0000
0000
0000
0000
0000
0000
0000
0010
0000
0000
0000
0000
0000
0000
0000
1000
0000
0000
0000
0000
0000
0000
0000
0100
0000
0000
0000
0000
0000
0000
0000
0010
0000
0000
0000
0000
0000
0000
0000
0001
0000
0000
0000
0000
0000
1000
0000
0000
0000
0000
0000
0100
0000
0000
0000
0000
0000
0000
0000
0000
0000
0000
0000
1000
0000
0000
0000
0000
0000
0000
0000
0000
0000
0000
0000
0010
0000
0000
0000
0000
0000
0000
0000
0000
0000
0000
0000
,
0100
0000
0000
0000
0000
0000
0000
0000
0001
0000
0000
0000
0000
0000
0000
0000
0100
0000
0000
0000
0000
0000
0000
0000
0010
0000
0000
0000
0000
0000
1000
0000
0000
0000
0000
0000
0000
0000
0000
0000
0000
0000
0000
0000
0000
0000
0000
0000
0001
0000
0000
0000
0000
0000
0000
0000
0100
0000
0000
0000
0000
0000
0000
0000
0010
0000
0000
0000
0000
0000
0000
0000
1000
0000
0000
0000
0000
0000
0100
0000
0000
0000
0000
0000
0000
0000
0000
0000
0000
0000
0000
0000
0010
0000
0000
0000
0000
0000
0000
0000
0001
0000
0000
0000
0000
0000
0000
0000
1000
0000
0000
0000
0000
0000
0000
0000
0010
0000
0000
0000
0000
0000
0000
0000
0100
0000
0000
0000
0001
0000
0000
0000
0000
0000
0000
0000
1000
0000
0000
0000
0000
0000
0000
0000
0000
0000
0000
0000
0000
0000
0100
0000
0000
0000
0000
0000
0000
0000
0000
0000
0010
0000
0000
0000
0000
0000
0000
0000
0001
0000
0000
0000
0000
0000
0000
0000
1000
0000
0000
0000
0000
0000
0000
0000
0010
0000
0000
0000
0000
0000
0000
0000
,
0100
0000
0000
0000
0000
0000
0000
0000
0010
0000
0000
0000
0000
0000
0000
0000
1000
0000
0000
0000
0000
0000
0000
0000
0001
0000
0000
0000
0000
0000
0000
0000
0100
0000
0000
0000
0000
0000
0000
0000
0010
0000
0000
0000
0000
0000
0000
0000
1000
0000
0000
0000
0000
0000
0000
0000
0100
0000
0000
0000
0000
0000
0000
0000
0010
0000
0000
0000
0000
0000
0000
0000
0001
0000
0000
0000
0000
0000
0000
0000
1000
0000
0000
0000
0000
0000
0000
0000
0100
0000
0000
0000
0000
0000
0000
0000
0010
0000
0000
0000
0000
0000
0001
0000
0000
0000
0000
0000
1000
0000
0000
0000
0000
0000
0100
0000
0000
0000
0000
0000
0010
0000
0000
0000
0000
0000
0001
0000
0000
0000
0000
0000
1000
0000
0000
0000
0000
0000
0100
0000
0000
0000
0000
0000
0010
0000
0000
0000
0000
0000
0000
0000
0000
0000
0000
0000
0000
0000
0000
0000
0000
0000
0000
0000
0000
0000
0000
0000
0000
0000
0000
0000
0000
0000
0000
0000
0000
0000
0000
0000
0002
0000
0000
0000
0000
0000
0000
0000
0000
0000
0000
0000
,
0000
0000
0000
0000
0000
0000
0000
0000
0003
0000
0000
0001
0200
0000
0000
0000
,
0000
0000
0000
0000
0000
0000
0000
0000
0000
0000
0000
0000
0000
0000
0000
0000
0000
0000
0000
0000
0000
0000
0000
0000
0000
0000
0000
0000
0000
0000
0000
0000
0000
0000
0000
0000
0000
0000
0000
0000
0000
0000
0000
0000
0000
0000
0000
0000
0301
0000
0000
0000
0000
0000
0000
0000
0010
0000
0000
0000
0000
0000
0000
0000
0100
0000
0000
0000
0000
0000
0000
0000
1000
0000
0000
0000
0000
0000
0000
0000
0000
0000
0000
0000
0001
0000
0000
0000
0000
0000
0010
0000
0000
0000
0000
0000
0100
0000
0000
0000
0000
0000
1000
0000
0000
0000
0000
0000
0001
0000
0000
0000
0000
0000
0010
0000
0000
0000
0000
0000
0100
0000
0000
0000
0000
0000
1000
0000
0000
0000
0000
0000
0001
0000
0000
0000
0000
0000
0100
0000
0000
0000
0000
0000
0010
0000
0000
0000
0000
0000
1000
0000
0000
0000
0000
0000
0001
0000
0000
0000
0000
0000
0100
0000
0000
0000
0000
0000
0010
0000
0000
0000
0000
0000
0000
0000
1000
0000
0000
0000
0000
0000
0000
0000
0100
0000
0000
0000
0000
0000
0000
0000
,
0010
0000
0000
0001
0000
0100
0000
0001
0000
0000
1000
0000
0100
0000
0010
0000
0001
0000
1000
0000
0020
0000
0000
0000
0000
0000
0000
0000
0000
0000
0230
0000
0000
0000
0000
0000
0301
0000
1000
0000
0100
0000
0010
0000
0001
0000
0000
1000
,
0000
0000
0000
0000
0010
0000
0000
0000
0000
0000
0000
0000
0100
0000
0000
0000
0000
0000
0001
0000
0000
0000
0000
0000
0000
0000
0000
0000
1000
0000
0000
0000
0000
0000
0000
0000
0100
0000
0000
0000
0000
0000
0000
0000
0010
0000
0000
0000
0000
0000
0000
0000
0001
0000
0000
0000
0000
0000
0000
0000
0000
0000
0000
0000
0010
0000
0000
0000
0000
0000
0000
0000
0100
0000
0000
0000
0000
0000
0000
0000
1000
0000
0000
0000
0000
0000
0000
0000
0010
0000
0000
0000
0000
0000
0000
0000
0100
0000
0000
0000
0000
0000
0000
0000
0001
0000
0000
0000
0000
0000
0000
0000
1000
0000
0000
0000
0000
0000
0000
0000
0100
0000
0000
0000
0000
0000
0000
0000
0010
0000
0000
0000
0000
0000
0000
0000
0100
0000
0000
0000
0000
0000
0000
0000
1000
0000
0000
0000
0000
0000
0000
0000
0001
0000
0000
0000
0000
0000
0000
0000
0100
0000
0000
0000
0000
0000
0000
0000
0010
0000
0000
0000
0000
0000
0000
0000
1000
0000
0000
0000
0000
0000
0000
0000
0001
0000
0000
0000
0000
0000
0000
0000
,
2000
0000
0000
3100
0010
0001
1000
0010
,
0200
0000
0000
0000
0000
0000
0300
0000
0000
0001
1000
0100
0010
0001
1000
0010
0100
0010
1000
0001
0010
0100
1000
0001
,
0100
0010
1000
0100
0010
0001
1000
0100
0010
0001
1000
0010
0100
0001
1000
0100
0010
0100
1000
0010
0100
0001
1000
0200
,
0000
0000
0000
0000
0000
0310
0002
0000
0000
0000
0000
0000
1000
0000
0000
1000
0000
0000
0010
0000
0000
1000
0000
0000
,
1000
0000
0010
0000
1003
1000
0100
0010
,
0010
0000
0000
0001
1000
0100
0010
0001
2000
0000
0000
0000
3000
0000
0000
0000
,
0010
1000
0100
0010
0001
0100
0001
0010
0100
1000
0010
1000
0100
0010
0001
0100
,
0010
1000
0100
1000
0010
0100
0010
1000
0100
0010
0001
0010
0100
0010
0001
1000
,
0010
0100
0001
0100
0001
0100
0010
1000
0100
0010
0001
0010
0001
0010
0100
1000
,
0010
0100
0001
1000
0001
1000
0001
1000
0001
0100
0001
0100
0010
0100
0010
0100
,
0001
0010
0100
1000
0100
1000
0100
1000
0010
0100
0001
0010
0100
1000
0001
0100
,
0010
1000
0100
0010
0001
0010
0100
1000
0010
0100
0001
0100
0010
1000
0100
0010
,
0001
0100
0001
0010
0100
1000
0010
1000
0100
0010
0001
0100
0010
1000
0100
0010
,
0002
0000
0000
0000
0000
0000
0000
0000
0000
0003
0010
0100
,
2000
0000
0000
0000
0000
0000
3001
0010
0001
1000
0100
1000
0001
0010
0001
1000
0100
1000
0001
0010
0001
1000
0100
1000
,
0001
0010
0100
1000
0100
0010
0001
0010
0100
1000
0100
0010
0001
0010
0100
1000
0100
0010
0001
0010
0100
1000
0010
0100
,
0001
0010
0001
0010
0100
0010
0001
1000
0100
0010
0100
1000
0010
0100
0001
1000
,
0100
0010
0001
0100
0001
0010
0100
1000
0010
0100
0010
1000
0100
0010
0001
1000
,
0020
0000
0000
0000
0000
0000
0000
0000
0000
0000
0000
0000
0000
0000
0000
0000
0000
0000
0030
0000
0000
0000
0000
0000
0000
0000
0000
0000
0000
0000
0100
0000
0000
1000
0000
0000
0100
0000
0010
0000
0001
0000
1000
0000
0000
0000
0000
0000
,
0100
0000
0000
0001
0000
0000
1000
0000
0010
0000
0100
0000
0001
0000
0000
0000
0000
0000
1000
0000
0000
0100
0000
0000
0010
0000
0000
0001
0000
0000
0100
0000
0000
0001
0000
0000
1000
0000
0000
0100
0000
0000
0010
0000
0000
0100
0000
0000
,
1000
0000
0000
0000
0001
0100
0002
0000
1000
0000
1000
0000
0010
0000
0000
0000
,
1003
0100
0010
0001
0010
0100
1000
0001
1000
0100
0010
0001
0100
0010
0100
0001
,
0010
0100
1000
0010
1000
0100
0010
0100
1000
0010
0100
0001
0010
0001
0100
0010
,
1001
0100
0001
1000
0010
0100
0001
0010
0100
0010
0001
1000
0010
0100
0010
1000
,
0100
0010
0001
1000
0100
1000
0010
0100
0001
1000
0100
1000
0001
0100
1010
0001
,
1010
0100
0001
1000
0010
0100
0001
1000
0100
1000
0010
0100
0001
0010
0100
1000
,
0010
0100
0001
1000
0100
1000
0010
0100
0001
1000
0100
1000
0010
0100
0001
0010
,
1100
0001
0100
0010
1001
0100
0010
0100
0001
0010
0100
0010
0001
1000
0010
0100
,
0001
1000
0100
0010
0001
0010
0100
1000
0100
1000
0010
0100
0001
0010
0100
0010
,
1001
0100
0010
0100
1001
0010
0100
0010
1001
0100
0010
0100
1001
0010
0100
0010
,
1001
0100
0010
1000
0101
0010
1000
0100
0011
1000
0100
0010
1001
0100
0010
1000
,
0202
0000
0000
0000
0000
0000
0000
0000
0000
0000
0000
0000
0000
0000
0000
0000
0000
0000
0300
0000
0000
1003
0100
0010
,
0001
0000
0000
0000
;
