#TITLE:A Love Fantasy;
#SUBTITLE:;
#ARTIST:Unknown;
#TITLETRANSLIT:;
#SUBTITLETRANSLIT:;
#ARTISTTRANSLIT:;
#CREDIT:;
#BANNER:banner.png;
#BACKGROUND:background.png;
#LYRICSPATH:;
#CDTITLE:;
#MUSIC:A Love Fantasy.ogg;
#OFFSET:-0.200;
#SAMPLESTART:73.881;
#SAMPLELENGTH:20.000;
#SELECTABLE:YES;
#BPMS:0.000=70.005,16.000=140.010,44.000=70.005,47.000=140.010,145.000=70.005,161.000=140.010,201.000=70.005,205.000=140.010,261.000=70.005;
#STOPS:;
#BGCHANGES:;
// cache tags:
#FIRSTBEAT:16.000;
#LASTBEAT:263.250;
#SONGFILENAME:Songs/Rodd's Rad Christmas Pack/A Love Fantasy (Rodd Steps)/A Love Fantasy (Rodd Steps).sm;
#HASMUSIC:1;
#HASBANNER:1;
#MUSICLENGTH:105.000;
// end cache tags

//---------------dance-single - R. Farias----------------
#NOTES:
     dance-single:
     R. Farias:
     Challenge:
     10:
     0.898,1.000,0.171,0.343,0.929,606.000,18.000,36.000,27.000,0.000:

0000
0000
0000
0000
,
0000
0000
0000
0000
,
0000
0000
0000
0000
,
0000
0000
0000
0000
,
1000
0000
0100
0010
0000
0001
0100
0000
0010
1000
0000
1000
0001
0000
1000
0000
,
0100
0000
0010
0001
0000
0100
0010
0000
0100
0001
0000
0001
1000
0000
0100
0000
,
0010
0000
0001
0100
0000
0010
1000
0000
0100
0010
0000
0010
0001
0000
0100
0000
,
0010
0000
0100
0001
0000
1000
0100
0000
0010
0001
0000
0001
0100
0000
0010
0000
,
1000
0000
0100
0010
0000
0100
1000
0000
0001
0100
0000
0100
0010
0000
1000
0000
,
0100
0000
1000
0010
0000
0100
0001
0000
1000
0100
0000
0100
0010
0000
0001
0000
,
1000
0000
0001
0100
0000
0010
1000
0000
0100
0010
0000
0010
0001
0000
0100
0010
,
1000
0000
0000
0001
0000
0000
1000
0000
0000
0100
0000
0000
0010
0000
0001
0000
2000
0000
0000
0000
0000
0000
0000
0000
3001
0000
0100
0000
0001
0000
0100
0000
,
0010
1000
0010
1000
0001
0000
1000
0000
0100
0000
0010
0001
1000
0000
0001
0000
,
0100
0000
0010
0000
0100
0000
0001
1000
0100
0000
0010
0000
0001
0000
0100
0010
,
1000
0000
0001
0000
1000
0000
0100
0000
1000
0000
0010
0000
0100
0000
0001
1000
,
0100
0000
0010
0000
0001
0000
0100
0001
0100
0000
0010
0000
1000
0000
0100
1000
,
0100
0000
0010
0000
0001
0000
0100
0000
0010
0000
1000
0001
1000
0000
0100
0000
,
0010
0100
0010
0000
0100
0000
1000
0001
0100
0000
0010
0000
2000
0000
0000
0000
,
3200
0000
0000
0000
0310
0000
0001
0100
0000
0001
0100
0000
0010
0000
1000
0001
,
0000
1000
0001
0000
1000
0000
0100
0000
0010
0000
0002
0000
0000
0000
0000
0000
,
0103
0000
0100
0000
0010
0000
1000
0100
0010
0000
0001
0100
0010
0000
0100
0001
,
1000
0000
0100
0010
0001
0000
0010
0100
1000
0000
0001
0100
0010
0000
0100
0001
,
0010
0000
0001
0100
0010
0000
1000
0001
1000
0000
0100
0010
0001
0000
0100
0010
,
1000
0000
0001
1000
0100
0000
0010
0000
0001
0000
0200
0000
0000
0000
0000
0300
,
0010
0000
0010
0000
1000
0000
0001
1000
0100
0000
0010
0000
0001
0000
0100
0010
,
1000
0000
0100
0000
1000
0000
0010
0100
0001
0000
1000
0000
0100
0000
0010
0001
,
0010
0000
0001
0000
0100
0000
0010
1000
0010
0000
1000
0001
1000
0000
0100
1000
,
0100
0000
0010
0001
0100
0010
1000
0100
1000
0010
0100
0001
1000
0010
0100
0001
,
1000
0100
1000
0010
0100
0000
0000
0001
0000
0000
1000
0000
0000
1000
0000
0000
,
0100
0000
0010
0000
0001
0000
0000
0001
0000
0000
1000
0000
0000
1000
0000
0000
,
0001
0000
0100
0000
0010
0000
0000
0010
0000
0000
1000
0000
0000
0001
0000
0000
,
1000
0000
0000
0010
1000
0000
0000
1010
0000
0000
1100
0000
0000
0110
0000
0000
,
0011
0000
0001
0000
0100
0000
0010
1000
0000
1000
0100
0000
0100
0010
0000
0010
,
0001
0000
0100
0000
0010
0000
1000
0001
0000
0001
1000
0000
1000
0001
0000
0001
,
0100
0000
0010
0000
1000
0100
0010
0001
0010
0100
1000
0001
0100
0010
1000
0001
,
0100
0010
0100
0001
1000
0100
1000
0001
0100
0001
1000
0100
1000
0010
0100
0001
,
0100
0000
0010
0000
1000
0000
0100
0000
0020
0000
0000
000M
0000
0000
M000
0000
0M00
0000
0000
000M
0000
0000
0000
0M00
M000
0000
0000
000M
0000
0000
M000
0000
,
0M00
0000
0000
000M
0000
0000
0000
0000
0031
0000
0100
0010
1000
0000
0001
0000
2000
0000
0000
0000
3M01
0000
0000
0000
1000
0000
10M0
0000
0000
0000
0100
0000
,
1100
0000
0000
0000
000M
0000
0100
0000
0010
0000
0001
0100
M010
0000
0100
0000
0002
0000
0000
0000
10M3
0000
0000
0000
0100
0000
0100
0000
M000
0000
001M
0000
,
0110
0000
0010
0000
M001
0000
0100
0000
0010
0000
0100
0001
1000
0000
0100
0000
00M2
0000
0000
0000
1003
0000
0M10
0000
0002
0000
0000
0000
0103
0000
0010
0000
,
2000
0000
30M1
0000
0101
0000
0100
0010
1000
0000
0100
0000
0011
0000
0001
0100
,
0010
0000
1000
0000
1010
0000
1000
0000
1100
0000
0100
0000
0010
0001
0010
0001
,
0100
0001
0100
0001
0100
0000
0010
1000
0001
0000
2000
0000
0100
0000
3100
0000
,
0020
0000
0001
0000
0031
0000
0200
0000
0010
0300
0010
0000
0200
0000
0001
0000
,
0301
0000
1000
0000
0100
0000
0010
0001
1000
0000
0001
0000
0100
0000
0010
1000
,
0001
0000
0100
0000
0010
0000
1000
0100
0010
0000
0001
0000
0100
0000
0010
0000
,
0010
0000
0010
0000
1000
0000
0001
1000
0100
0000
0010
0000
0001
0000
0010
0100
,
1000
0000
0001
0000
0100
0000
0010
1000
0001
0000
0100
0000
0010
0000
0100
0001
,
1000
0000
0100
0000
0010
0000
0001
0100
0010
0000
0100
0001
1000
0000
0100
0010
,
0001
0000
0100
0010
1000
0000
0001
1000
0100
0000
0010
0001
0100
0010
0100
0001
,
1000
0001
1000
0100
0010
M002
0003
00M1
0200
M300
0100
0020
003M
0010
2M00
3000
,
2020
3030
220M
3300
0110
0000
0010
0001
1000
0000
0001
0000
0100
0000
0010
1000
,
0001
0000
1000
0000
0100
0000
0010
0001
0010
0000
0001
0000
0100
0000
0010
1000
,
0100
0010
0002
0203
0000
0320
2030
0000
,
3200
0000
0000
0000
0000
0000
0320
0000
0000
0000
0000
0000
0000
0000
0000
0000
0000
0000
0032
0000
0000
0000
0000
0000
2003
0000
0000
0000
0000
0000
0000
0000
0000
0000
0000
3000
0101
0000
0000
0000
0000
0000
0000
0000
0000
0000
0000
0000
,
0110
0000
0000
0000
1010
0000
0010
1000
0000
1000
0001
0000
1000
0000
0100
0010
,
0000
0010
0001
0000
0100
0000
0010
0000
1000
0000
0002
0000
0000
0000
0000
0000
,
1003
0000
1000
0000
1100
0000
0100
0010
0001
0000
0100
0000
0010
0000
0100
0001
,
1000
0100
0010
0001
0100
0020
0000
1030
,
0200
0000
0000
0000
0310
0000
0001
0100
0010
0000
1000
0100
0010
0000
0001
0100
,
0010
0000
0100
0001
1000
0000
0100
0000
0010
0000
0020
0000
0000
0000
0000
0000
,
0031
0000
0001
0000
0100
0000
0010
1000
0001
0000
1000
0000
0100
0000
0010
0001
,
1000
0000
0001
0000
0100
0000
0010
1000
0010
0000
1000
0000
0001
0000
1000
0001
,
1000
0000
0100
0000
1100
0000
0010
0001
0100
0000
0010
1000
0100
0000
0010
0001
,
0100
0000
0010
1000
0100
0010
0001
0100
0010
1000
0100
1000
0010
0100
0001
0010
,
0001
1000
0010
0100
0002
0000
0000
0000
0000
0000
0000
0000
0000
0003
0000
0000
;
