#TITLE:Bowser the Shredder;
#SUBTITLE:;
#ARTIST:Unknown artist;
#TITLETRANSLIT:;
#SUBTITLETRANSLIT:;
#ARTISTTRANSLIT:;
#CREDIT:;
#BANNER:;
#BACKGROUND:;
#LYRICSPATH:;
#CDTITLE:;
#MUSIC:Bowser the Shredder.mp3;
#OFFSET:0.000;
#SAMPLESTART:100.000;
#SAMPLELENGTH:12.000;
#SELECTABLE:YES;
#BPMS:0.000=80.900,33.000=163.940,52.000=327.879,68.000=163.940,176.000=80.900,184.000=327.879,252.000=163.940,331.500=163.320,331.563=162.720,331.625=162.120,331.688=160.320,331.750=158.720,331.813=157.920,331.875=156.320,331.938=155.520,332.000=153.920,332.063=153.120,332.125=152.320,332.188=151.520,332.250=150.720,332.313=148.320,332.375=147.520,332.438=146.720,332.500=145.920,332.563=145.120,332.625=144.320,332.688=143.520,332.750=142.720,332.813=141.920,332.875=141.120,332.938=140.320,333.000=139.520,333.063=137.120,333.125=136.320,333.188=135.520,333.250=133.120,333.313=131.520,333.375=130.720,333.438=129.920,333.500=129.120,333.563=128.320,333.625=127.520,333.688=126.720,333.750=125.920,333.813=123.520,333.875=121.920,334.000=120.320,334.063=119.520,334.188=117.920,334.313=117.120,334.375=115.520,334.500=113.920,334.563=113.120,334.625=112.320,334.688=111.520,334.813=109.920,334.938=108.320,335.000=107.520,335.063=106.720,335.188=105.120,335.250=104.320,335.313=103.520,335.375=102.720,335.438=101.920,335.500=101.120,335.563=100.320,335.625=99.520,335.750=97.920,335.875=96.320,336.000=94.720,336.125=93.120,336.188=92.320,336.250=91.520,336.313=90.720,336.375=89.920,336.500=88.320,336.563=87.520,336.688=85.920,336.750=85.120,336.813=84.320,336.875=83.520,337.000=81.920,337.063=81.120,337.188=79.520,337.313=77.920,337.375=77.120,337.500=75.520,337.563=74.720,337.688=73.920,337.750=72.320,337.813=71.520,337.938=69.920,338.000=69.120,338.063=68.320,338.188=66.720,338.250=65.920,338.313=65.120,338.375=64.320,338.438=63.520,338.563=61.920,338.688=60.320,338.750=59.520,338.813=58.720,338.938=57.120,339.000=56.320,339.125=54.720,339.188=53.920,339.250=53.120,339.375=51.520,339.438=50.720,339.500=49.920,339.563=49.120,339.688=47.520,339.750=46.720,339.875=45.120,339.938=44.320,340.063=41.920,340.125=41.880,340.188=41.480,340.250=41.280,340.313=41.080,340.375=40.440,340.500=40.000;
#STOPS:;
#BGCHANGES:;
// cache tags:
#FIRSTBEAT:0.000;
#LASTBEAT:342.625;
#SONGFILENAME:Songs/juju steps/Bowser the Shredder V2/Bowser the Shredder.sm;
#HASMUSIC:1;
#HASBANNER:0;
#MUSICLENGTH:132.414;
// end cache tags

//---------------dance-single - ----------------
#NOTES:
     dance-single:
     :
     Hard:
     14:
     0.836,1.000,0.415,0.091,0.585,708.000,55.000,12.000,0.000,8.000:
2002
0000
0000
0000
0000
0000
0000
0100
,
0100
0100
0200
0000
0000
0000
0000
0000
,
0000
3303
0000
0000
0000
0000
0000
0000
,
0000
0000
0220
0000
,
0000
0001
1000
0002
0000
0000
0000
0000
,
0000
0000
0000
0000
0000
0000
0000
0000
0333
1001
0000
0000
0000
0000
0000
0000
0000
0000
0000
0000
0000
0000
0000
0000
0000
0000
0000
0000
0000
0000
0000
0000
0000
0000
0000
0000
0000
0000
0000
0000
0000
0000
0000
0000
0000
0000
0000
0000
0000
0000
0000
0000
0000
0000
0000
0000
0000
0000
0000
0000
0000
0000
0000
0000
,
0000
0000
2020
0000
,
0000
0000
0000
0000
,
0000
3131
1000
0100
1000
0100
0010
0100
,
0001
1000
0100
0010
0100
0010
0001
0100
,
1000
0100
0010
0001
0010
0100
1000
0100
,
0001
0010
0100
1000
0100
0010
0001
1000
,
0010
0100
0001
1000
0001
0010
0100
0001
,
2000
0000
0000
0000
,
0000
0000
0000
3000
,
1000
0100
0010
0001
0010
0100
1000
0100
,
1000
0000
0010
0000
0001
0000
0100
0000
0010
0000
0100
0000
1000
0001
1000
0001
,
1000
0010
0000
1000
0001
0100
0001
1000
,
0010
0100
0001
1000
0010
0100
0001
1000
,
0000
1000
1000
0100
0100
0010
0010
0001
,
0001
0001
0000
1000
0000
0000
0100
0000
0000
0010
0000
0000
0100
0000
0000
1000
0000
0000
0100
0000
0000
0010
0000
0000
,
0001
0010
0100
1000
0100
0010
0001
0010
,
0001
0100
1000
0010
0100
0001
0010
1000
,
0100
0001
0010
0100
0010
0001
1000
0100
,
0010
0001
0010
0100
0010
1000
0001
1000
,
0100
0001
0010
0100
0010
1000
0100
0010
,
0001
0010
1000
0001
1000
0100
0001
0010
,
0100
0001
1000
0100
0010
0001
0010
0010
,
0001
0100
1000
1000
0100
1000
0010
0010
,
0001
0100
0010
0001
0010
0100
0010
1000
,
0100
0010
0001
0010
0100
1000
0100
0001
,
1001
0000
0000
0000
0000
0000
1001
0000
0000
0000
0000
0000
1001
0000
0000
0000
0000
0000
0000
0000
1001
0000
0000
0000
0000
0000
0000
0000
0000
0000
1000
0000
0000
0001
0000
0000
1000
0000
0000
0001
0000
0000
1000
0000
0000
0001
0000
0000
,
1000
0000
0000
0001
0000
0000
1000
0000
0000
0001
0000
0000
1000
0000
0000
0001
0000
0000
1000
0000
0000
0001
0001
0000
0000
0000
0000
0000
0000
0000
0100
0000
0000
0010
0000
0000
0100
0000
0000
0010
0000
0000
0100
0000
0000
0010
0000
0000
,
0100
0000
0000
0010
0000
0000
0100
0000
0000
0010
0000
0000
0100
0000
0000
0010
0000
0000
0100
0000
0000
0010
0110
0000
0000
0000
0000
0000
0000
0000
1000
0000
0000
0000
0000
0000
0100
0000
0000
0000
0000
0000
0010
0000
0000
0000
0000
0000
,
0100
0010
1000
0001
0100
0010
1000
0001
,
0100
0010
1000
0100
0010
0100
0001
1000
,
0100
0010
1000
0001
0100
0010
0001
0001
,
1000
0100
0010
0100
1000
1000
0001
0010
,
0100
0010
0001
1000
0001
0010
0100
1000
,
0100
0100
0010
0010
0001
0001
1000
0100
,
0010
1000
0001
0010
0100
1000
0100
0010
,
1100
0000
0000
0000
0000
0000
0110
0000
0000
0000
0000
0000
0011
0000
0000
0000
0000
0000
0000
0000
1010
0000
0000
0000
0000
0000
0000
0000
0000
0000
1000
0000
0000
0100
0000
0000
0010
0000
0000
0001
0000
0000
0010
0000
0000
0100
0000
0000
,
1000
0000
0000
0100
0000
0000
0010
0000
0000
0001
0000
0000
0010
0000
0000
0100
0000
0000
0010
0000
0000
0001
0000
0000
1000
0000
0110
0000
0000
0000
1000
0000
0000
0100
0000
0000
0010
0000
0000
0001
0000
0000
1000
0000
0000
0100
0000
0000
,
0010
0000
0000
0000
0001
0000
0000
0000
1000
0000
0000
0000
0100
0000
0000
0000
0010
0000
0000
0000
0001
0000
0000
0000
1000
0000
0000
0000
0100
0000
0000
0000
0010
0001
0010
0000
0000
0000
0000
0000
1000
0000
0000
0000
0000
0000
0000
0000
1000
0000
0000
0000
0100
0000
0000
0000
0010
0000
0000
0000
0001
0000
0000
0000
,
0100
1000
0000
0100
0000
0000
0011
0000
0001
0000
0000
0000
1000
0100
0000
0000
0000
0011
0000
0000
0000
0100
0000
1000
0000
0000
0001
0000
0010
0000
0000
0100
0000
1000
0000
0000
0001
0000
0010
0000
0000
0100
0000
0000
1000
0000
0000
0001
0000
0000
0100
0000
0010
0000
0000
1000
0000
0001
0000
0000
0000
0100
0010
0000
,
0000
0000
1001
0000
0000
0000
0000
0110
0000
0000
0000
0001
0000
0000
1000
0000
0000
0010
0000
0100
0000
0000
0001
0000
0000
0010
0000
0100
0000
0000
1000
0000
0000
0001
0000
0000
0100
0010
0000
0000
0000
1000
0000
0000
0000
0000
0110
0000
0000
0000
1001
0000
0000
0010
0000
0100
1000
0001
0000
0000
0000
0100
1000
0000
,
0002
0000
0000
0000
,
0000
0000
0000
0000
,
1003
0100
1000
0100
0010
0001
0010
0100
,
0010
0000
1000
0000
0100
0000
0001
0000
0010
0001
1000
0100
1000
0010
0001
0000
,
1000
0100
1000
0100
0010
0001
0010
0100
,
0010
1000
0100
0001
0100
1000
0010
0001
,
0100
0010
1000
0100
1000
0010
0001
0010
,
0100
0001
1000
0100
0010
1000
0100
0001
,
0010
1000
0001
0100
0010
0001
0010
0100
,
1000
0010
0001
0100
1000
0001
0010
0100
,
0010
0001
0010
0100
1000
0100
0010
0001
,
0100
0010
0100
0001
0010
0100
1000
0100
,
1000
0001
0010
0100
0010
0001
1000
0100
,
0010
1000
0001
0100
0010
1000
0100
0001
,
0010
0100
0001
0010
0100
1000
0001
0010
,
0100
0001
0010
1000
0100
0001
1000
0001
,
0100
0001
0010
0001
1000
0001
0100
1000
,
0010
1000
1000
0100
0100
0010
0010
0001
,
0001
0100
0100
1000
1000
0001
0001
0100
,
0100
0010
0010
1000
1000
0001
0001
0100
,
0100
0010
0010
1000
1000
0010
0010
0100
,
0100
0001
0001
0010
0010
0100
0100
0010
,
0010
0001
0001
0010
0010
0001
0001
0010
,
0010
0100
0100
0010
0010
1000
1000
0001
,
0001
0000
0000
0100
0000
0000
0100
0000
0000
1000
0000
0000
1001
0000
0000
0110
0000
0000
0011
0000
0000
0000
1100
0000
,
0000
0000
1000
0100
1000
0100
1000
0100
1000
0100
1000
0100
1000
0100
1000
0100
,
1000
0000
0100
0000
0000
0000
0001
0000
0000
0010
0000
0000
0001
0000
0000
0010
0000
0000
0001
0000
0000
0010
0000
0000
0001
0000
0000
0010
0000
0000
0001
0000
0000
0010
0000
0000
0001
0000
0000
0010
0000
0000
0001
0000
0000
0010
0000
0000
,
0001
0010
0000
1000
0000
0000
1000
0000
0000
0100
0000
0000
0100
0000
0000
0010
0000
0000
0010
0000
0000
0001
0000
0000
,
0001
0001
0001
0010
0010
0100
0100
1000
,
1000
0010
0010
0100
0100
0001
0001
1000
,
1001
0110
0011
1100
1010
0101
0110
1001
,
0101
1001
0101
1010
0101
1010
0011
1100
,
0110
0011
0110
1001
0101
1010
0101
0011
,
1100
0000
0000
0110
0000
0000
0011
0000
0000
0110
0000
0000
1000
0000
0000
0100
0000
0000
0010
0000
0000
0000
1001
0000
,
0000
0000
1000
0100
0010
0010
0100
1000
1000
0100
0010
0010
0100
1000
0100
0010
,
0100
0000
1000
0000
0000
0000
0001
0000
0000
0010
0000
0000
0100
0000
0000
0100
0000
0000
0010
0000
0000
0001
0000
0000
0001
0000
0000
0010
0000
0000
0100
0000
0000
0100
0000
0000
0010
0000
0000
0001
0000
0000
0010
0000
0000
0100
0000
0000
,
0010
0000
0000
0000
0000
0000
0000
0000
0001
0000
0000
0000
0000
0000
0000
0000
0000
0000
0000
0000
0000
0000
0000
0000
1000
0000
0000
0000
0000
0000
0000
0000
0000
0000
0000
0000
0001
0000
0000
0000
0000
0000
0000
0000
0000
0000
0000
0000
0000
0000
0000
0000
0000
0000
0000
0000
0000
0000
0000
0000
0000
0000
0000
0000
0000
0000
0000
0000
0000
0000
0000
0000
0010
0000
0000
0000
0000
0000
0000
0000
0000
0000
0000
0000
0100
0000
0000
0000
0000
0000
0000
0000
0000
0000
0000
0000
0000
0000
0000
0000
0000
0000
0000
0000
0000
0000
0000
0000
0000
0000
0000
0000
0000
0000
0000
0000
0000
0000
0000
0000
1000
0000
0000
0000
0000
0000
0000
0000
0000
0000
0000
0000
0001
0000
0000
0000
0000
0000
0000
0000
0000
0000
0000
0000
0000
0000
0000
0000
0000
0000
0000
0000
0000
0010
0000
0000
0000
0000
0000
0000
0000
0000
0000
0000
0000
0000
0000
0000
0000
0000
0000
1000
0000
0000
0000
0000
0000
0000
0000
0000
0000
0000
0000
0000
0000
0000
0000
0000
0000
0000
0000
0000
,
0000
0001
0000
0000
0000
0100
0000
0000
0000
0000
0000
0010
0000
0000
0000
0000
0000
1000
0000
0000
0000
0000
0000
0000
0000
0001
0000
0000
0100
0000
0000
0000
0000
0000
0000
0010
0000
0000
0000
0000
1000
0000
0000
0000
0000
0001
0000
0000
0000
0010
0000
0000
0000
0000
0000
0000
0100
0000
0000
0000
0000
1000
0000
0000
,
0000
0000
0001
0000
0000
0000
0000
0100
0000
0000
0000
0000
0010
0000
0000
0000
0000
0000
1000
0000
0000
0000
0001
0000
0000
0100
0000
0000
0000
0010
0000
0000
0000
1000
0000
0000
0000
0001
0000
0000
0000
0100
0000
0000
0010
0000
0000
0000
1000
0000
0000
0000
0001
0000
0000
0100
0000
0000
0000
0010
0000
0000
1000
0000
,
0000
0000
0001
0000
0000
0001
0000
0000
0000
2002
0000
0000
0000
0000
0000
0000
0000
0000
0000
0000
0000
0000
0000
0000
0000
0000
0000
0000
0000
0000
0000
0000
0000
0000
0000
0000
0000
0000
0000
0000
0000
0003
3000
0000
0000
0000
0000
0000
0000
0000
0000
0000
0000
0000
0000
0000
0000
0000
0000
0000
0000
0000
0000
0000
:

a=note=20.000000,
,b=note=20.000000,
;
