#TITLE:37Dicks;
#SUBTITLE:;
#ARTIST:M1dy;
#TITLETRANSLIT:;
#SUBTITLETRANSLIT:;
#ARTISTTRANSLIT:;
#CREDIT:;
#BANNER:banner.jpg;
#BACKGROUND:background.jpg;
#LYRICSPATH:;
#CDTITLE:!hr2Title.png;
#MUSIC:m1dy - speedcore dandy xxx - 10 - 37 dicks.mp3;
#OFFSET:-0.140;
#SAMPLESTART:105.087;
#SAMPLELENGTH:17.520;
#SELECTABLE:YES;
#BPMS:0.000=400.000,496.000=200.002,504.000=400.000,624.000=200.002,648.000=100.001,652.000=400.000;
#STOPS:;
#BGCHANGES:;
// cache tags:
#FIRSTBEAT:0.000;
#LASTBEAT:844.000;
#SONGFILENAME:Songs/hard shit/37dicks/zen.sm;
#HASMUSIC:1;
#HASBANNER:1;
#MUSICLENGTH:134.269;
// end cache tags

//---------------dance-single - ----------------
#NOTES:
     dance-single:
     :
     Challenge:
     15:
     1.000,1.000,1.000,0.320,0.752,1500.000,234.000,43.000,0.000,75.000:
1000
0100
0010
0001
0100
0000
1000
0100
,
0010
0001
0010
0000
1000
0100
0001
1000
,
0100
0001
1000
0100
0010
0000
1000
0100
,
0010
0001
0100
0000
1000
0100
0001
0000
,
1000
0100
0001
1000
0100
0000
0010
0001
,
1000
0100
0010
0000
0001
0010
0100
1000
,
0100
0001
0010
0100
1000
0000
0010
0001
,
0100
0010
1000
0000
0001
1000
0010
0000
,
1100
0001
0010
0100
1000
0000
0001
0100
,
0010
0001
0010
0000
1000
0100
0001
0010
,
0100
0010
1000
0100
0010
0000
0001
0010
,
0100
1000
0100
0000
0010
0001
0010
0000
,
1000
0010
0100
0010
1000
0000
0100
0010
,
0001
0100
1000
0000
0010
0001
0010
0000
,
0001
1000
0010
0100
0001
1000
0010
0100
0001
1000
0010
0100
0001
1000
0010
0100
,
0001
1000
0010
0100
0001
1000
0010
0100
2002
0000
0000
0000
3003
0000
0000
0000
,
1001
0010
0100
1000
0100
0001
0010
0100
,
1010
0001
0010
1000
0001
0010
0001
0010
,
1001
0100
0010
0001
0010
1000
0001
0010
,
0101
1000
0100
0001
0010
0100
0010
0100
,
1010
0100
0010
0001
0010
1000
0001
0010
,
0101
1000
0100
0001
1000
0100
0010
0001
,
1010
0100
0010
0001
0010
0100
1000
0001
,
1010
0000
0100
0000
1000
0000
0001
0000
1000
0000
0010
0000
1000
0001
0010
0000
,
1001
0100
0010
0001
0010
1000
0001
0010
,
0101
1000
0100
0001
0010
0100
0010
0100
,
0011
1000
0100
0010
0100
1000
0001
0010
,
1100
0010
0001
1000
0100
0010
0001
0010
,
0101
1000
0001
0010
0100
0010
0001
1000
,
0101
0010
0100
1000
0010
0100
1000
0001
,
1100
0000
0000
0000
0001
0010
0100
1000
0100
0010
0000
0000
1000
0100
0010
0001
,
0010
0000
0000
0100
0000
0000
0000
0000
0000
0000
0000
0000
0001
0000
0000
0010
0000
0000
0100
0000
0000
1000
0000
0000
0100
0000
0000
0010
0000
0000
0000
0000
0000
0010
0000
0000
0001
0000
0010
0000
0100
0000
1000
0000
0100
0000
0010
0000
,
0001
1110
0110
1011
,
0111
1100
1110
0011
,
1110
0110
1011
0110
,
1011
0110
1011
0101
,
1110
0110
1011
0011
,
1101
0110
1101
1001
,
1110
0101
1101
0011
,
0111
0000
1001
0000
1101
0000
1001
0110
,
1001
1010
1101
1100
,
1011
0110
1101
0011
,
0111
0011
1011
0110
,
0111
1100
0111
0110
,
1100
0001
0010
0100
1000
0001
0010
0100
1000
0001
0010
0100
1000
0001
0010
0100
,
1000
0001
0010
0100
1000
0001
0010
0100
1000
0001
0010
0100
1000
0001
0010
0100
,
1000
0000
0000
0000
,
0000
0000
1002
0000
,
1003
0000
0000
0000
1000
0000
0000
0000
1000
0000
0000
0001
1000
0001
1000
0001
,
1000
0001
1000
0000
0100
0000
0000
0000
0100
0000
0000
0000
0100
0000
0000
0000
,
0110
0000
0000
0000
0010
0000
0000
0000
0010
0000
0000
0000
0010
0001
1000
0001
,
1000
0001
1000
0001
1000
0001
0000
0000
1000
0000
0000
0000
1000
0000
0000
0000
,
1100
0000
0000
0000
0100
0000
0000
0000
0100
0000
0000
0000
0100
0001
1000
0001
,
1000
0001
1000
0001
1000
0000
0000
0000
1000
0000
0000
0000
1000
0000
0000
0000
,
1010
0000
0000
0000
0010
0000
0000
0000
0010
0000
0000
0000
0010
1000
0001
1000
,
0001
1000
0001
1000
0001
0000
0000
0000
0001
0000
0000
0000
0001
0000
0000
0000
,
1001
0000
0000
0000
1000
0000
0000
0000
1000
0000
0000
0000
1000
0001
1000
0001
,
1000
0001
1000
0001
1000
0000
0000
0000
1000
0000
0000
0000
1000
0000
0000
0000
,
1001
0000
0000
0000
0001
0000
0000
0000
0001
0000
0000
0000
0001
0010
0100
0010
,
0100
0010
0100
0010
0100
0000
0000
0000
0100
0000
0000
0000
0100
0000
0000
0000
,
1100
0000
0000
0000
1000
0000
0000
0000
1000
0000
0000
0000
1000
0010
0001
0010
,
0001
0010
0001
0010
0001
0000
0000
0000
0001
0000
0000
0000
0001
0000
0000
0000
,
0101
1000
0001
0010
,
1000
0000
0000
0000
0000
0000
0000
0000
1000
0100
0010
0001
1000
0100
0010
0001
,
1100
0001
0010
0100
1000
0100
0001
1000
,
0101
0010
0001
0010
1000
0001
0010
0100
,
1001
0100
0001
1000
0100
0010
0001
0010
,
1001
0100
0010
0100
1000
0100
0010
0001
,
1010
0100
1000
0100
0010
0100
1000
0010
,
0101
0010
0100
1000
0010
0001
1000
0100
,
1010
0001
0100
0010
1000
0100
0010
0001
,
1010
0100
0001
0010
0100
1000
0010
0100
,
1010
0001
0100
0000
1000
0000
0100
0000
0010
0000
0001
0000
1000
0000
0100
0000
,
1010
0001
0010
1000
0010
0001
0100
0010
,
0101
1000
0100
0010
0001
0010
1000
0001
,
1010
0100
1000
0100
0001
0010
1000
0010
,
1100
0001
0010
0100
0001
1000
0100
0010
,
1100
0001
1000
0010
0100
1000
0001
0010
,
1100
1100
0011
0011
0110
0110
1001
1001
,
1100
1100
0011
0011
0110
0110
1100
1100
,
0011
0011
1100
0010
0100
1000
0100
0010
,
0001
0000
0010
0000
0100
0000
1000
0000
0001
0000
1000
0000
0010
0001
0100
0000
,
0001
0100
0010
0001
0100
0010
0001
0100
,
1000
0000
0010
0000
0100
0000
1000
0000
0001
1000
0010
0000
0100
0000
0010
0000
,
1000
0100
0010
0001
0100
0010
1000
0100
,
0001
0000
0010
0000
0100
0000
1000
0000
0010
0000
0100
0000
0001
0010
0100
0000
,
0001
0100
0010
0001
0010
1000
0010
0100
,
1000
0000
0010
0000
0100
0000
0001
0000
0010
1000
0001
0000
0100
0000
0010
0000
,
0100
1000
0010
0001
0010
1000
0010
0100
,
1000
0000
0010
0000
0100
0000
1000
0000
0010
0000
0001
0000
0100
1000
0010
0000
,
0001
0100
0010
0001
1000
0010
0100
0001
,
1000
0000
0010
0000
0100
0000
1000
0000
0010
0000
0100
0010
0001
0000
0010
0000
,
0001
1000
0010
0001
0010
1000
0100
0001
,
0010
0000
1000
0000
0010
0000
0001
0000
0100
0000
1000
0000
0010
0001
0100
0000
,
1000
0100
0001
0010
,
1001
0000
0000
0000
,
1010
0100
1001
0000
0110
0000
0000
0100
,
1001
0000
0000
0001
0110
0000
0011
1000
,
0101
0000
1100
0000
0101
0010
0101
0000
,
1001
0100
0000
0010
0000
0001
0110
0000
,
1100
0010
0101
0000
0011
0000
1010
0000
,
1100
0001
0000
0010
0101
0000
1001
0100
,
1010
0000
0011
0000
1001
0100
1010
0000
,
1001
0010
0000
1000
0000
0001
0110
0000
,
1001
0100
1010
0000
0011
0000
0000
1000
,
0101
0000
0000
0010
1100
0000
1100
0010
,
0101
0000
1001
0000
0000
0100
0011
0000
,
1010
0100
0000
0010
0000
0100
0011
0000
,
1001
0100
0011
0000
1100
0000
0000
0001
,
0110
1000
0000
0010
1001
0000
0110
0000
,
1010
0000
0000
0001
0000
0100
1010
0000
,
1001
0100
0000
0010
0000
1000
0011
0000
,
1001
0020
2000
3002
,
0233
0001
2000
0000
0000
0000
3020
0000
,
0300
0030
0002
0000
2000
0000
3020
0000
,
0233
0001
2000
0000
0000
0000
3002
0000
,
0323
2000
3002
0203
,
2330
0010
0002
0000
0000
0000
0023
0000
,
3000
0200
0032
2303
,
3002
0100
2000
0000
0000
0000
3020
0003
,
0200
0302
2003
3002
,
0233
0001
2000
0000
0000
0000
3020
0000
,
0300
2000
0032
3020
,
2003
0030
0200
0000
0000
0000
0302
0000
,
3113
0000
0000
1000
0000
0000
0100
0000
0000
0010
0000
0000
0001
0000
1000
0000
0100
0000
0000
0000
0000
0010
0000
0000
,
0001
0001
0010
0010
0001
0001
0100
0100
0010
0010
1000
1000
0001
0001
0010
0010
,
0100
0001
1000
0001
1000
0010
0100
1000
,
0100
1000
0010
0001
1000
0000
0010
0000
0001
0000
0100
0000
0010
0000
1000
0000
,
0010
0001
0010
0001
0100
1000
0100
1000
,
0010
1000
0100
0010
0001
0000
0010
0000
1000
0000
0010
0000
0100
0000
1000
0000
,
0010
1000
0001
1000
0001
0100
0010
0001
,
0010
0001
0100
1000
0001
0000
0100
0000
1000
0000
0010
0000
0100
0000
0001
0000
,
0100
1000
0100
1000
0010
0001
0100
0010
,
1000
0001
0010
0100
1000
0000
0100
0000
0001
0000
0010
0000
0001
0000
0110
0000
,
1100
0010
0100
0010
0100
1000
0001
0100
,
0001
0010
1000
0100
0001
0000
1000
0000
0010
0000
0001
0000
1000
0000
0100
0000
,
0001
0010
1000
0010
0001
0100
0001
0010
,
1000
0100
0010
0001
0100
0000
1000
0000
0100
0000
0010
0000
0001
0000
0100
0000
,
0010
0001
1000
0001
1000
0010
0100
1000
,
0100
0001
0010
1000
0100
0000
0010
0000
0001
0000
0100
0000
0010
0000
1000
0000
,
0100
0001
0010
0001
0100
1000
0100
0001
,
0010
1000
0001
0100
1001
0000
0110
0000
0110
0000
0000
0000
0110
0000
1001
0000
,
1100
0011
1000
0100
0010
0001
1000
0010
,
1000
0100
0001
0010
1000
0000
0001
0000
0100
0000
1000
0000
0001
0000
0010
0000
,
1000
0100
0001
0100
1000
0010
1000
0100
,
0001
0010
0100
1000
0010
0000
0001
0000
0010
0000
0100
0000
1000
0000
0010
0000
,
0001
0010
0100
0010
0100
1000
0001
0100
,
0001
0010
1000
0100
0001
0000
1000
0000
0010
0000
0001
0000
1000
0000
0100
0000
,
0001
0010
1000
0010
0001
0100
0001
0010
,
1000
0100
0010
0001
0100
0000
1000
0000
0100
0000
0010
0000
1100
0000
0011
0000
,
1010
0100
0001
1000
0001
0100
0010
0001
,
0010
1000
0100
0001
0010
0000
0100
0000
1000
0000
0010
0000
0100
0000
0001
0000
,
0010
1000
0100
1000
0010
0001
0010
1000
,
0100
0001
1000
0010
0001
0000
0100
0000
0001
0000
1000
0000
0010
0000
0001
0000
,
0010
0001
1000
0001
1000
0010
0100
1000
,
0100
0001
0010
1000
0100
0000
0010
0000
0001
0000
0100
0000
0010
0000
1000
0000
,
0000
0000
0100
0000
0010
0010
0001
0001
0010
0010
0001
0001
1000
1000
0010
0010
,
1100
0000
0000
0010
0000
0000
0001
0000
0000
0100
0000
0000
0010
0000
0001
0000
1000
0000
0000
0000
0000
0010
0000
0000
,
0000
0000
0100
0000
0010
0010
0001
0001
1000
1000
0010
0010
0100
0100
0001
0001
,
1100
0000
0000
0010
0000
0000
0100
0000
0000
1000
0000
0000
0001
0000
1000
0000
0100
0000
0000
0000
0000
0010
0000
0000
,
0000
0000
0001
0000
1000
1000
0010
0010
0100
0100
0001
0001
0010
0010
0001
0001
,
0110
0000
0000
1000
0000
0000
0010
0000
0000
0100
0000
0000
0001
0000
0010
0000
1000
0000
0000
0000
0000
0100
0000
0000
,
0000
0000
0000
0000
0000
0001
0000
0000
1000
0000
0000
0000
0010
0000
0100
0000
0010
0000
1000
0000
0000
0000
0000
0000
,
1100
0000
0000
0000
,
0001
0100
0010
1000
0001
0100
0010
1000
0001
0100
0010
1000
0001
0100
0010
1000
,
0001
1010
1011
0110
,
1110
0011
1110
0011
,
1101
0011
1101
1001
,
0111
1100
1110
0011
,
1011
0110
1101
0011
,
1101
1001
1011
0110
,
1101
0011
1101
0110
,
1011
0101
1011
0011
,
1101
0101
1011
0110
,
1101
0011
1011
1100
,
1101
0110
0111
0110
,
1110
0011
1011
0110
,
1101
0110
1011
1100
,
0111
0000
1011
0000
1101
0010
1000
0001
,
1000
0000
0000
0000
0001
0010
0100
1000
0100
0010
0000
0000
1000
0100
0010
0001
,
0010
0000
0000
0100
0000
0000
0000
0000
0000
0000
0000
0000
1000
0000
0000
0100
0000
0000
0010
0000
0000
0001
0000
0000
0000
0000
0000
1000
0000
0000
0100
0000
0000
0010
0000
0000
0001
0000
0010
0000
0100
0000
1000
0000
0100
0000
0010
0000
,
0001
0010
0100
1000
0001
1000
0100
0010
,
0001
0010
0001
0010
0100
1000
0100
0010
,
0001
0010
0100
1000
0100
1000
0100
0010
,
0001
0010
0100
1000
0001
1000
0100
0010
,
0001
0010
0100
1000
0100
0001
0010
1000
,
0100
0001
0010
1000
0100
0001
0010
0100
,
1000
0100
0010
0001
0010
0001
0010
0100
,
1000
0100
0010
0001
1000
0001
0010
0100
,
1000
0010
0001
0100
1000
0010
0001
0100
,
1000
0010
0001
0100
1000
0010
0001
0100
,
1000
0100
0010
0100
1000
0001
0010
0100
,
0010
0001
1000
0100
0010
0001
0010
0100
,
1001
0000
0020
0030
2000
3000
0010
0001
,
1000
0100
0010
0000
1000
0100
0010
0100
,
0010
0000
0000
0000
,
0000
0000
0000
0000
,
1000
0000
0000
0000
1000
0000
0000
0000
1000
0000
0000
0000
1000
0000
1000
0001
,
1000
0001
1000
0001
1000
0001
0000
0000
1000
0000
0000
0000
1000
0000
0000
0000
,
1010
0000
0000
0000
0010
0000
0000
0000
0010
0000
0000
0000
0010
0000
0010
0100
,
0010
0100
0010
0100
0010
0100
0000
0000
0010
0000
0000
0000
0010
0000
0000
0000
,
0110
0000
0000
0000
0100
0000
0000
0000
0100
0000
0000
0000
0100
0000
0100
0001
,
0100
0001
0100
0001
0100
0001
0000
0000
0100
0000
0000
0000
0100
0000
0000
0000
,
0101
0000
0000
0000
0001
0000
0000
0000
0001
0000
0000
0000
0001
0000
0010
0001
,
0010
0001
0010
0001
0010
0001
0000
0000
0010
0000
0000
0000
0010
0000
0000
0000
,
1010
0000
0000
0000
1000
0000
0000
0000
1000
0000
0000
0000
1000
0000
0010
1000
,
0010
1000
0010
1000
0010
1000
0000
0000
0010
0000
0000
0000
0010
0000
0000
0000
,
0011
0000
0000
0000
0001
0000
0000
0000
0001
0000
0000
0000
0001
0000
0001
0100
,
0001
0100
0001
0100
0001
0100
0000
0000
0001
0000
0000
0000
0001
0000
0000
0000
,
0011
0000
0000
0000
0010
0000
0000
0000
0010
0000
0000
0000
0010
0000
0100
0010
,
0100
0010
0100
0010
0100
0010
0000
0000
0100
0000
0000
0000
0100
0000
0000
0000
,
0011
0000
0000
0000
;
