#TITLE:Boss machine;
#SUBTITLE:;
#ARTIST:DM Ashura;
#TITLETRANSLIT:;
#SUBTITLETRANSLIT:;
#ARTISTTRANSLIT:;
#CREDIT:;
#BANNER:Boss Machine-bn.png;
#BACKGROUND:Boss Machine-bg.png;
#LYRICSPATH:;
#CDTITLE:!dan23title.png;
#MUSIC:Boss Machine.mp3;
#OFFSET:-1.572;
#SAMPLESTART:78.040;
#SAMPLELENGTH:15.000;
#SELECTABLE:YES;
#BPMS:0.000=160.000;
#STOPS:;
#BGCHANGES:;
// cache tags:
#FIRSTBEAT:12.000;
#LASTBEAT:334.000;
#SONGFILENAME:Songs/Keyboard Collaboration I/Dan23 - Boss Machine/Boss Machine.sm;
#HASMUSIC:1;
#HASBANNER:1;
#MUSICLENGTH:129.718;
// end cache tags

//---------------dance-single - ----------------
#NOTES:
     dance-single:
     :
     Hard:
     11:
     0.937,1.000,0.524,0.162,0.790,762.000,68.000,21.000,0.000,0.000:
0000
0000
0000
0000
,
0000
0000
0000
0000
,
0000
0000
0000
0000
,
1010
0100
0100
1001
0010
0010
0101
0011
,
1100
0010
0100
0001
1010
0100
0001
0010
,
1100
0010
0010
0101
1000
1000
0011
0110
,
1001
0010
0100
0001
1010
0100
0001
0010
,
1000
0000
0010
0100
0010
0000
0001
0000
0010
0100
0010
0000
1000
0000
0001
0000
,
0100
0010
1000
0100
0010
0001
0100
0001
,
0010
0000
1000
0100
1000
0000
0010
0000
0100
0001
0100
0000
0010
0000
1000
0000
,
0001
0100
0001
0010
0100
0010
0100
0001
,
0110
0000
0000
0000
1100
0000
0000
0000
0110
0000
0000
0000
0011
0000
1000
0100
,
1000
0010
0100
0001
0100
0010
1000
0100
,
0011
0000
0000
0000
1100
0000
0000
0000
0110
0000
0000
0000
0011
0000
1000
0010
,
1000
0100
0001
0100
1010
0000
0101
0000
,
1001
0000
0000
0000
0110
0000
0000
0000
0011
0000
0000
0000
1100
0000
0001
0100
,
0001
0010
0100
1000
0010
0100
0001
0100
,
0001
0010
0100
1000
0001
0100
0010
1000
0001
0100
0010
0100
0001
0100
0010
1000
,
0100
0010
0001
0010
0100
1000
0010
0100
0001
1000
0100
0010
0100
1000
0010
0100
,
0010
0000
0001
0100
0001
0000
0000
0000
1100
0000
0000
0000
0101
0000
0000
0000
,
1010
0000
0101
0000
0011
0000
1100
0000
0000
0000
0001
0100
0001
0000
0000
0000
,
0001
0100
0001
0100
0001
0000
0000
0000
1010
0000
0101
0000
0011
0000
0000
0000
,
1100
0000
0110
0000
0011
0000
0110
0000
1100
0000
0001
0100
0001
0000
0010
0000
,
1000
0000
0010
0100
0010
0000
0000
0000
1100
0000
0000
0000
0011
0000
0000
0000
,
1100
0000
0011
0000
0110
0000
1100
0000
0000
0000
0010
1000
0010
0000
0000
0000
,
0010
1000
0010
1000
0010
0000
0000
0000
1100
0000
0011
0000
0110
0000
0000
0000
,
1100
0000
0011
0000
0110
0000
1010
0000
0101
0000
1000
0010
1000
0000
0100
0000
,
0001
0100
0001
0100
0001
0000
0010
0000
0100
0000
1000
0000
0010
0000
0100
0000
,
0001
0000
1000
0100
1000
0000
0011
0000
0000
0000
0100
0010
0100
0000
0000
0000
,
0001
1000
0010
0100
0001
0000
1000
0000
0010
0000
0100
0000
0001
0000
1000
0000
,
0010
0100
0001
0010
0100
1000
0100
1000
0010
0100
0001
0010
0100
1000
0010
1000
,
0001
0000
0100
0000
0010
0000
0100
0001
0100
0000
0010
0000
1000
0000
0001
0000
,
0010
0000
1000
0001
1000
0000
0010
0000
1000
0000
0001
0010
0100
1000
0001
0100
,
0010
1000
0010
0100
0001
0010
0100
1000
0001
0100
0001
0010
0100
1000
0010
1000
,
0100
0010
0001
0100
0010
0100
0001
0010
0100
1000
0010
0100
0001
0010
0001
1000
,
0002
0000
0000
0000
0010
0000
0000
0000
1000
0000
1003
0000
1000
0000
0001
0100
,
0010
0000
1000
0000
0010
1000
0000
0010
1000
0000
0100
0000
0001
0010
0000
0001
,
0020
0000
0000
0000
0001
0000
0000
0000
0100
0000
0130
0000
0100
0000
1000
0010
,
0100
0000
0001
0000
0010
0100
0000
0010
0100
0000
0001
0000
1000
0001
0000
1000
,
0002
0000
0000
0000
0010
0000
0000
0000
1000
0000
1003
0000
1000
0000
0001
0100
,
0010
0000
1000
0000
0010
1000
0000
0010
1000
0000
0100
0000
0001
0010
0000
0001
,
0020
0000
0000
0000
0001
0000
0000
0000
0100
0000
0130
0000
0100
0000
1000
0010
,
0100
0000
0001
0000
0010
0100
0000
0010
0100
0000
0001
0000
2200
0000
0000
3300
,
0001
0100
0010
1000
0001
0010
0100
1000
0010
0100
0001
1000
0100
0010
0001
0100
,
0010
1000
0001
1000
0010
1000
0100
0010
0001
0100
0001
0100
0010
1000
0100
0010
,
0001
0100
0010
0100
0001
1000
0100
0010
0001
1000
0010
1000
0001
0100
0010
1000
,
0001
0010
0100
1000
0010
0100
0001
1000
0100
0010
0001
0010
0100
1000
0100
0010
,
0100
1000
0010
0100
0001
0100
0001
1000
0010
1000
0100
0010
0001
0100
0010
1000
,
0001
0100
0010
1000
0001
0010
0100
1000
0001
0010
0100
1000
0010
0100
0001
1000
,
0010
0100
0001
1000
0010
1000
0010
0100
0010
0100
0001
0010
0100
1000
0010
0100
,
0001
1000
0100
0010
0001
0100
0010
1000
0001
0010
0100
1000
0001
0100
0010
1000
,
0001
0100
0010
0001
1100
0000
0110
0000
,
0001
0000
0100
0010
0100
0000
0001
0000
0000
0000
1000
0010
1000
0000
0000
0000
,
0101
0000
0010
0100
0010
0000
1000
0000
0101
0000
0000
0000
0011
0000
0000
0000
,
1000
0010
0100
0001
1000
0010
0100
0001
2000
0000
0000
0000
3010
0000
0000
0000
,
0001
0100
0001
0100
0001
0000
0010
0000
1100
0000
0000
0000
0101
0000
0000
0000
,
0001
0000
1000
0010
1000
0000
0001
0000
0000
0000
0100
0010
0100
0000
0000
0000
,
1001
0000
0100
0001
0100
0000
0010
0000
1100
0000
0000
0000
0011
0000
0000
0000
,
0001
0100
0010
1000
0001
0100
0010
1000
0002
0000
0000
0000
1003
0000
0000
0000
,
1000
0010
1000
0010
1000
0000
0100
0000
0001
0010
0001
0010
0001
0000
0100
0000
,
0001
1000
0001
1000
0001
0000
0100
0000
0010
0100
0010
0100
0010
0000
1000
0000
,
0001
0100
0010
1000
0001
0000
0010
0000
0001
0100
0010
1000
0001
0000
0100
0000
,
1000
0001
0100
1000
0101
0000
1100
0000
,
0001
0100
0010
1000
0001
0000
0100
0000
0010
1000
0001
0100
0010
0000
1000
0000
,
0010
0100
0001
1000
0100
0000
0001
0000
1000
0010
0100
0001
1000
0000
0010
0000
,
1000
0000
0010
0000
0100
0000
0001
0010
0001
0000
0010
0000
0100
0000
1000
0000
,
0010
0100
0001
1000
0100
0010
0001
0100
0010
1000
0001
0010
0100
1000
0001
0100
,
0010
0000
1000
0000
0010
0000
0100
0000
0001
0000
0010
0000
0100
0000
0100
1000
,
0200
0301
0020
1030
,
0001
0000
0010
0000
0100
0000
1000
0000
0010
0000
0100
0000
0001
0000
1000
0010
,
1000
0010
0100
0001
0020
0000
0130
0000
,
1000
0000
0010
0000
0100
0000
0001
0000
0010
0000
0100
0000
1000
0000
0001
0100
,
0002
1003
0020
0130
,
1000
0000
0010
0000
0100
0000
0001
0000
1000
0000
0100
0000
0010
0000
0001
1000
,
0001
0010
0100
1000
0020
0000
0130
0000
,
1000
0000
1000
0000
1000
0000
1000
0000
0010
0000
0010
0000
0010
0000
0010
0100
,
0002
1003
0020
0130
,
0001
0000
0001
0000
0001
0000
0001
0000
0100
0000
0100
0000
0100
0000
0100
0010
,
1000
0001
1000
0010
0200
0000
0301
0000
,
1000
0000
1000
0000
0010
0000
0010
0000
0100
0000
0100
0000
0001
0000
0001
0100
,
0020
1030
0200
0310
,
0001
0000
0001
0000
0100
0000
0100
0000
0010
0000
0010
0000
1000
0000
1000
0010
,
0100
0000
0010
0000
1000
0000
0001
0000
0200
0000
0000
0000
0310
1000
0100
0010
,
0002
0000
0003
0000
;
