#TITLE:Beastcore;
#SUBTITLE:;
#ARTIST:Aoreo;
#TITLETRANSLIT:;
#SUBTITLETRANSLIT:;
#ARTISTTRANSLIT:;
#CREDIT:;
#BANNER:../speedcore rejects ban.png;
#BACKGROUND:../speedcore rejects bg.png;
#LYRICSPATH:;
#CDTITLE:;
#MUSIC:Beastcore.ogg;
#OFFSET:-0.023;
#SAMPLESTART:7.763;
#SAMPLELENGTH:12.000;
#SELECTABLE:YES;
#BPMS:0.000=230.000,260.000=242.000,320.000=245.000,332.000=261.000,344.000=245.000;
#STOPS:;
#BGCHANGES:;
// cache tags:
#FIRSTBEAT:0.000;
#LASTBEAT:551.000;
#SONGFILENAME:Songs/Speedcore Rejects/Beastcore - [Aoreo]/Beastcore.sm;
#HASMUSIC:1;
#HASBANNER:1;
#MUSICLENGTH:139.589;
// end cache tags

//---------------dance-single - J. Nero----------------
#NOTES:
     dance-single:
     J. Nero:
     Challenge:
     16:
     1.000,1.000,0.609,0.000,0.842,1111.000,85.000,0.000,0.000,0.000:
1000
0000
0000
0000
0001
0000
0000
0000
0100
0000
0000
0000
0010
0000
1000
0001
,
1000
0000
0000
0000
0001
0000
0000
0000
0100
0000
0000
0000
0010
0000
0100
0001
,
0100
0000
0000
0000
0001
0000
0000
0000
0010
0000
0000
0000
0100
0000
1000
0100
,
1000
0000
0010
0000
0100
0000
0000
0000
0001
0000
0000
0000
1000
0001
1000
0001
,
1000
0001
0100
0101
,
1000
0000
1010
0000
0100
0000
0001
0010
,
0100
1100
1000
1010
,
0110
0100
0101
1001
,
1100
0000
0100
0000
0110
0000
0010
0001
,
0100
0010
1010
1001
,
0001
0000
1000
0000
0100
0000
0000
0000
1000
0000
0000
0000
0001
0100
0010
1000
,
0100
0000
0000
0000
1100
0000
1000
0001
,
0101
0100
0010
1000
0100
0010
0001
0010
,
0110
0100
1000
0010
0100
0001
1000
0001
,
0101
0100
0010
1000
0100
0010
0100
1000
,
1100
0000
1001
0000
0001
0100
0010
0000
,
0110
0100
0001
1000
0100
0010
0100
1000
,
1010
0010
0100
0001
1000
0001
0100
0010
,
1010
1000
0100
0010
0001
0100
0010
0100
,
0011
0000
0110
0000
0100
1000
0010
0000
,
0100
0100
0001
0001
0010
0010
0100
0100
,
1000
1000
0001
0001
0100
0100
0010
0010
,
1000
1000
0100
0100
0010
0010
0001
0001
,
1001
0000
1001
0000
1000
0010
0100
0000
,
0110
0010
1000
1000
0001
0001
0010
0010
,
0100
0100
1000
1000
0010
0010
0100
0100
,
0001
0001
1000
1000
0010
0010
0100
0100
,
0001
0000
0010
0100
0010
0000
0100
0000
1000
0100
1000
0000
0010
1000
0010
0000
,
0100
0000
0001
1000
0001
0000
1000
0000
0100
0000
0010
0000
0100
0000
1000
0000
,
0001
1001
1000
0110
,
0101
1001
1100
1010
,
1001
0001
0010
0100
1000
0100
1000
0010
,
0110
0100
0001
0010
0100
1000
0010
0100
,
0101
0000
0100
0000
,
1010
0000
1000
0000
,
1100
0000
0100
0000
,
1000
0010
0000
0010
,
0110
0000
0100
0000
,
1010
0000
1000
0000
,
1001
0000
0001
0000
,
0011
0010
1100
0100
,
1000
0000
0010
0100
0000
0000
0000
0000
,
0001
0100
0010
1000
0010
1000
0001
0100
0001
0010
0100
1000
0100
1000
0010
0100
,
0001
0010
0100
1000
0100
1000
0001
1000
0001
0100
0010
1000
0001
0100
0010
1000
,
0001
0100
0010
1000
0001
1000
0001
0100
0001
0100
0010
1000
0010
1000
0100
0010
,
0001
1000
0100
0010
0001
1000
0100
1000
0001
1000
0001
0100
0001
0100
0001
1000
,
0100
1000
0010
0100
0001
0010
0100
1000
,
0010
1000
0010
1000
0010
1000
0001
1000
0001
0100
0010
1000
0001
0100
0010
1000
,
0001
1000
0100
1000
0100
0010
0100
0010
0001
0010
0001
0100
0001
0100
0010
1000
,
0010
1000
0100
1000
0001
0010
0100
1000
0010
0100
0010
1000
0010
0100
0001
0010
,
0001
0010
0100
1000
0100
0010
0001
0100
0010
1000
0100
1000
0001
0010
0100
0010
,
0001
0010
0100
1000
0100
1000
0010
0100
,
0001
1000
0100
1000
0010
0100
0001
1000
,
0100
0000
1000
0100
1000
0000
0001
0000
0100
0001
0100
0000
0010
1000
0010
0000
,
1000
0000
0001
1000
0001
0000
1000
0000
0100
0000
0010
0000
0100
0000
1000
0000
,
0001
0000
0100
0001
0100
0000
0010
0000
1000
0100
1000
0000
0001
1000
0001
0000
,
0100
0000
0010
1000
0010
0000
0100
0000
0001
0000
0010
0000
0100
0000
1000
0000
,
0100
0010
0001
0100
0010
1000
0001
1000
,
0100
1000
0010
0100
0001
0010
0100
1000
,
0010
0100
0010
1010
,
1000
0000
0001
0000
0010
0000
0100
1000
,
0010
0100
0001
1001
,
1000
0100
0010
0110
,
0100
0000
1000
0000
0001
0000
0100
0010
,
1000
0001
1000
0010
,
1000
0001
1000
0001
1000
0001
1000
0000
0001
0000
0100
0000
0001
0000
1000
0000
,
0100
1000
0100
0000
1000
0001
1000
0000
0001
0100
0001
0000
1000
0000
0000
0000
,
0001
0010
0001
0010
0001
0010
0001
0000
0010
0000
0100
0000
1000
0000
0001
0000
,
1000
0001
1000
0000
0001
0100
0001
0000
0100
0010
0100
0000
0010
0000
0000
0000
,
1010
1000
0100
0010
0100
1000
0010
0100
,
0101
0001
0010
0100
1000
0010
0100
0001
,
1001
1000
0100
0010
0100
1000
0010
0100
,
0101
0000
1001
0000
1000
0100
0010
0000
,
1100
1000
0010
0100
0001
0010
0100
1000
,
1100
0100
1000
0010
0100
0001
1000
0100
,
0110
0010
0001
0100
0010
1000
0001
0100
,
0101
0000
1001
0000
1000
0010
0100
0000
,
0001
0100
0001
1000
0100
1000
0100
0010
0001
0010
0100
1000
0010
1000
0010
0100
,
0001
0100
0010
1000
0010
0100
0001
0010
0001
0010
0100
0010
0100
1000
0100
1000
,
0100
0000
1100
0000
1000
0001
0100
0000
,
0001
0100
0001
0100
0010
1000
0100
1000
0100
1000
0100
0010
0100
0010
0001
0010
,
0001
0100
0001
1000
0010
0100
0001
1000
0010
0100
0010
1000
0100
0010
0001
1000
,
0100
0000
1100
0000
1000
0001
0010
0000
,
0001
0100
0001
0100
0001
1000
0100
1000
0100
1000
0100
1000
0100
0010
0001
1000
,
0100
0010
0001
1000
0001
0010
0100
1000
0100
1000
0010
0100
0001
1000
0001
1000
,
0001
0000
1001
0000
1000
0010
0100
0000
,
0010
1000
0001
0100
0001
0000
0010
0100
,
1000
0000
0100
0000
1000
0000
0000
0000
0010
0100
0010
1000
0001
0010
0100
1000
,
0100
1000
0010
0100
0001
0000
0010
0100
,
1000
0001
0100
0000
0110
0000
0000
0000
,
1010
1000
0100
0010
0001
0000
0010
0100
,
1000
0000
0010
0000
0100
0000
0000
0000
0001
1000
0001
1000
0100
0010
0001
0010
,
0100
1000
0010
0100
0001
0000
1000
0010
,
0100
0001
1000
0000
1100
0000
0000
0000
,
0110
0010
0001
0010
0100
0000
1000
0010
,
0100
0000
0001
0000
1000
0000
0000
0000
0001
0100
0010
1000
0100
1000
0100
0010
,
0001
0010
0100
1000
0010
0000
0100
0001
,
0010
0100
1000
0000
1010
0000
0000
0000
,
0110
0010
0100
0001
0010
0100
1000
0010
,
0110
0100
0001
0010
0100
1000
0010
0100
,
0101
0001
0010
0100
1000
0010
1000
0001
,
0101
0110
1010
1100
,
0100
0000
1000
0010
0000
0000
0000
0000
,
0110
0000
0100
0001
0000
0001
0010
0000
,
0100
0000
1000
0010
1000
0000
0010
0000
,
0100
0000
0001
0010
0000
0100
1000
0000
,
0010
0000
0100
0001
1000
0000
0010
0000
,
0100
0000
0001
0010
0000
0010
0100
0000
,
1000
0000
0010
0100
0001
0000
1000
0000
,
0100
0000
1000
0100
0000
0100
0010
0000
,
0100
0000
1000
0001
1000
0000
0010
0000
,
1010
1000
0100
0010
0001
0000
0010
0100
,
1000
0000
0010
0000
0100
0000
0000
0000
0001
1000
0100
1000
0100
0010
0001
0010
,
0100
1000
0010
0100
0001
0000
0100
0010
,
1000
0001
0010
0000
0110
0000
0000
0000
,
0110
0100
1000
0010
0100
0000
0001
1000
,
0010
0000
0100
0000
0001
0000
0000
0000
1000
0001
0100
0010
0100
0001
1000
0010
,
0100
0001
0010
0100
1000
0000
0010
0100
,
0001
0010
0100
0000
1100
0000
0000
0000
,
1001
1000
0010
0100
0001
0010
0100
1000
,
1010
0010
0100
0001
0010
0100
1000
0010
,
0110
0100
0001
1000
0100
1000
0010
0100
,
0101
0000
1001
0000
1000
0010
0100
0000
,
0110
0010
1000
0001
0100
0010
1000
0100
,
1100
1000
0010
0100
0001
1000
0100
0010
,
0011
0001
0100
0010
0100
0001
1000
0010
,
0110
0100
0101
0001
,
1001
0000
1000
0001
0000
0000
0000
0000
,
1000
0001
1000
0001
1000
0100
1000
0100
0010
0001
1000
0100
0010
0001
0010
0001
,
0010
0001
0100
0001
0100
0001
0100
0010
1000
0100
1000
0100
0010
0001
1000
0100
,
0010
0001
0010
0100
1000
0010
1000
0010
1000
0010
0100
0010
0100
0001
0100
0001
,
0100
0001
0010
0100
1000
0100
1000
0001
1000
0001
0100
0010
0100
0001
0100
0010
,
1000
0100
1000
0100
0010
0100
0010
0001
0010
0001
0100
0001
0100
0010
1000
0010
,
0100
0001
1000
0100
0010
0001
0010
0100
1000
0010
0100
0001
1000
0001
1000
0001
,
0100
0010
1000
0001
0100
0010
1000
0001
0010
0100
1000
0100
1000
0001
1000
0001
,
0100
0010
1000
0010
1000
0100
0010
0001
0010
0100
1000
0100
0010
0001
0100
0010
,
0100
0001
1000
0010
1000
0010
1000
0100
1000
0100
0010
0001
0010
0100
1000
0010
,
0100
0000
0010
1000
0010
0000
1000
0000
;
