#TITLE:桜;
#SUBTITLE:;
#ARTIST:RevenG;
#TITLETRANSLIT:SAKURA;
#SUBTITLETRANSLIT:;
#ARTISTTRANSLIT:;
#CREDIT:;
#BANNER:../Zeppelin_bn.png;
#BACKGROUND:../bg_Zeppelin.png;
#LYRICSPATH:;
#CDTITLE:../cdtitle_ZAiA.png;
#MUSIC:RevenG - SAKURA.ogg;
#OFFSET:1.609;
#SAMPLESTART:12.780;
#SAMPLELENGTH:25.700;
#SELECTABLE:YES;
#DISPLAYBPM:150.000:160.000;
#BPMS:0.000=150.000,4.000=150.000,100.000=150.003,110.000=141.000,110.500=130.000,111.500=124.000,112.000=121.000,112.500=114.000,113.000=100.700,113.500=80.000,114.000=60.000,115.000=25.000,115.125=40.380,116.875=150.001,148.875=85.401,149.875=160.000,231.875=300.001,233.875=273.000,234.375=262.000,234.875=273.000,235.875=250.000,237.875=220.000,238.875=180.000,239.375=165.000,239.875=144.000,241.375=122.000,241.875=100.000,242.375=80.000;
#STOPS:;
#BGCHANGES:;
// cache tags:
#FIRSTBEAT:4.000;
#LASTBEAT:245.000;
#SONGFILENAME:Songs/Cirque du Zeppelin/Sakura - [Zaia]/SAKURA.sm;
#HASMUSIC:1;
#HASBANNER:1;
#MUSICLENGTH:99.548;
// end cache tags

//---------------dance-single - 4/11----------------
#NOTES:
     dance-single:
     4/11:
     Hard:
     11:
     1.000,1.000,0.100,0.100,1.000,718.000,10.000,10.000,0.000,0.000:
0000
0000
0000
0000
,
1001
0000
0000
1100
0000
0000
0000
0000
1000
0100
1000
0001
1000
0000
0010
0100
,
0001
0000
0000
0101
0000
0000
0000
0000
0100
0010
0100
0001
1000
0000
0001
0010
,
0100
0000
0000
1100
0000
0000
0000
0000
1000
0001
0010
0001
1000
0000
0100
0010
,
0001
0000
0000
1001
0000
0000
0000
1000
0001
0100
0001
0010
0100
0000
0000
0000
,
1001
0000
0001
0100
0001
0000
0010
0100
1000
0001
1000
0010
0100
0000
0010
0100
,
0001
0000
1000
0001
0010
0000
0001
1000
0001
0100
0010
1000
0100
0000
0010
0100
,
1000
0000
0001
0100
0010
0000
1000
0001
0100
0001
0010
0100
1000
0000
0001
0100
,
0010
0000
0000
1010
0000
0000
1001
0000
0001
1000
0010
0100
0010
0100
0001
1000
,
0010
0100
0001
0010
0100
1000
0001
1000
,
0100
1000
0010
0100
0001
0000
0000
0000
,
0010
0100
1000
0001
1000
0010
1000
0001
0010
0001
1000
0100
0010
0001
0100
0001
,
1000
0010
0100
0001
0010
0100
1000
0010
0100
0001
1000
0001
0010
0001
1000
0010
,
0100
0000
0001
1000
0001
0000
0010
0000
0100
0000
1000
0000
0001
0000
0100
0000
,
0010
0000
1000
0100
1000
0000
0010
0000
0100
0000
0001
0000
1000
0000
0001
0000
,
0010
0100
1000
0010
1000
0001
0100
0001
0010
0001
1000
0010
1000
0100
1000
0001
,
0100
0001
0010
0100
0010
0001
0100
0010
1000
0001
0010
0001
1000
0001
0100
0010
,
1000
0100
1000
0001
0100
0010
1000
0001
1000
0010
1000
0100
0010
0000
0100
0000
,
0010
0001
1000
0100
0010
0001
1000
0001
0010
0001
0100
0010
1000
0000
0100
0000
,
0010
0001
0100
0010
0100
0001
0010
0001
1000
0100
0010
0001
1000
0001
0100
0010
,
1000
0001
0010
0001
0100
0010
1000
0001
0100
0001
1000
0100
1000
0001
1000
0100
,
0010
0000
0001
0000
1000
0000
0001
0000
0100
0000
0010
1000
0001
0000
0010
0000
,
0100
0000
1000
0000
0010
0000
1000
0000
0001
0000
1000
0100
0010
0000
0001
0000
,
1000
0000
0010
0100
0010
0000
1000
0000
0001
0000
0010
0100
0010
0000
0001
0000
,
1000
0100
1000
0001
1000
0010
0100
0001
1000
0001
0010
0100
0010
0001
0010
0100
,
2000
3010
1000
0100
0010
0100
1000
0001
,
0200
0310
1000
0000
0100
0000
1000
0000
0010
0000
0100
0000
0001
0000
0010
0000
,
0200
0300
0010
0000
0001
0000
0000
0000
0100
0000
0000
0000
0001
0000
0000
0000
0010
0000
0000
0000
0001
0000
0000
0000
1000
0000
0000
0000
0010
0000
0000
0000
,
0100
0000
0000
0000
0000
0000
0000
0000
0000
0000
0000
0000
0001
0000
0000
0000
0000
0000
0000
0000
0000
0000
0000
0000
0010
0000
0000
0000
0000
0000
0000
0000
0000
0000
0000
0000
0001
0000
0000
0000
0000
0000
0000
0000
0000
0000
0000
0000
1000
0000
0000
0000
0000
0000
0000
0000
0000
0000
0000
0000
0000
0000
0000
0000
0000
0000
0000
0000
0000
0000
0000
0000
0010
0000
0000
0000
0000
0000
0000
0000
0000
0000
0000
0000
0000
0000
0000
0000
0000
0000
0000
0000
0000
0000
0000
0000
0100
0000
0000
0000
0000
0000
0000
0000
0000
0000
0000
0000
0001
0000
0000
0000
0000
0000
0000
0000
0000
0000
0000
0000
0000
0000
0000
0000
1000
0000
0000
0000
0000
0000
0000
0000
0000
0000
0000
0000
0000
0000
0000
0000
0000
0000
0000
0000
0000
0000
0000
0000
0000
0000
0001
0000
0000
0100
0000
0000
0010
0000
0000
1000
0000
0000
0001
0000
0000
0000
0000
0000
0000
0000
0000
0000
0000
0000
0000
0000
0000
0000
0000
0000
0000
0000
0000
0000
0000
0000
0000
0000
0000
0000
0000
0000
,
0000
0000
0000
0000
0000
0000
0000
0000
0000
0000
0000
0000
0001
0000
0000
0010
0000
0000
0001
0000
0000
0000
0000
0000
1000
0000
0000
0010
0000
0000
1000
0000
0000
0000
0000
0000
0001
0000
0000
0000
0000
0000
0000
0000
0010
0000
0000
0000
,
0000
0000
0000
0000
0000
0000
0100
0000
0000
0000
0000
0000
1000
0000
0000
0001
0000
0000
1000
0000
0000
0000
0000
0000
0010
0000
0000
0100
0000
0000
0010
0000
0000
0000
0000
0000
1000
0000
0000
0000
0000
0000
0000
0000
0001
0000
0000
0000
,
1000
0000
0000
0000
0000
0000
0000
0000
0100
0000
0000
0000
0010
0000
0000
0001
0000
0000
0010
0000
0000
0000
0000
0000
0001
0000
0000
1000
0000
0000
0010
0000
0000
0000
0000
0000
0100
0000
0000
0000
0000
0000
0000
0000
0010
0000
0000
0000
,
0000
0000
0000
0000
0000
0000
0000
0000
1000
0000
0000
0000
0001
0000
0000
0010
0000
0000
0001
0000
0000
0000
0000
0000
0010
0000
0000
0100
0000
0000
1000
0000
0000
0000
0000
0000
0001
0000
0000
0100
0000
0000
0010
0000
0000
0000
0000
0000
,
1000
0001
0010
0000
0100
1000
0001
1000
0010
0100
0001
1000
0001
1000
0100
0010
,
0001
0100
0010
1000
0100
1000
0001
0100
0001
1000
0100
0010
0100
1000
0001
0100
,
0010
0100
0001
0010
0001
1000
0100
0010
0001
1000
0001
0100
0010
0100
0001
1000
,
0100
1000
0001
0100
0010
1000
0100
0010
0001
0100
0001
1000
0010
1000
0001
1000
,
0001
0100
0001
0010
0000
0000
0000
0000
0000
0000
0000
0000
0000
0000
0000
0000
,
0100
1000
0001
1000
0010
0100
0001
0010
,
0100
0000
1000
0000
0001
0100
0001
0010
0001
0000
1000
0000
0010
0000
0100
0000
,
0001
0000
1000
0000
0100
1000
0010
1000
0001
0000
0100
0000
0001
0000
0010
0000
,
0100
0000
1000
0001
0100
0010
0100
0010
1000
0000
0001
0100
0000
0001
1000
0001
,
0010
0000
0100
0000
1000
0001
0010
0001
1000
0000
0010
0000
0100
0000
0001
0000
,
1000
0000
0100
0000
1000
0001
0010
0001
0100
0000
0001
0000
1000
0000
0001
0000
,
0010
0001
0100
0010
1000
0100
1000
0001
,
0010
0100
1000
0000
0010
0100
0001
0000
1000
0001
1000
0001
0010
0100
1000
0001
,
0100
0001
1000
0001
0010
0100
1000
0100
1000
0010
0100
0010
1000
0100
0010
0001
,
0100
0010
1000
0010
1000
0100
0010
0100
1000
0010
0100
0001
1000
0100
0010
0001
,
1000
0010
1000
0100
1000
0001
0010
0001
1000
0010
0100
0001
0010
0001
1000
0100
,
1000
0001
0010
0001
0100
0010
1000
0001
0010
0100
1000
0001
1000
0001
0100
0010
,
2000
0000
0000
3000
0000
0000
0000
0000
0000
0000
0000
0000
0200
0000
0000
0000
0300
0000
0000
0000
0000
0000
0000
0000
0020
0000
0000
0000
0000
0000
0030
0000
0000
0000
0000
0000
0002
0000
0000
0000
0000
0000
0000
0000
0003
0000
0000
0000
0200
0000
0000
0000
0000
0000
0000
0000
0000
0000
0000
0000
0320
0000
0000
0000
0000
0000
0000
0000
0000
0000
0000
0000
1000
0000
0000
0030
0000
0000
0000
0000
0000
0000
0000
0000
0001
0000
0000
0000
0000
0000
0000
0000
0000
0000
0000
0000
1000
0000
0000
0000
0000
0000
0000
0000
0000
0000
0000
0000
0100
0000
0000
0000
0000
0000
0000
0000
0000
0000
0000
0000
1000
0000
0000
0000
0000
0000
0000
0000
0000
0000
0000
0000
0001
0000
0000
0000
0000
0000
0000
0000
0000
0000
0000
0000
1000
0000
0000
0000
0000
0000
0000
0000
0000
0000
0000
0000
0001
0000
0000
0000
0000
0000
0000
0000
0000
0000
0000
0000
0100
0000
0000
0000
0000
0000
0000
0000
0000
0000
0000
0000
0010
0000
0000
0000
0000
0000
0000
0000
0000
0000
0000
0000
,
1000
0100
0010
0001
0100
0001
0010
0100
1000
0010
0100
0010
0100
0001
1000
0100
,
1000
0001
0100
0010
1000
0100
0010
0001
1000
0001
0010
0001
0100
0010
1000
0001
,
1000
0100
1000
0010
0100
0001
1000
0100
0010
0001
1000
0001
1000
0010
0100
0001
,
0010
0100
0010
0001
1000
0010
1000
0100
1000
0001
0100
0010
0100
0001
1000
0001
,
0010
0100
1000
0001
0100
0001
0010
0001
1000
0100
0010
0001
1000
0010
0100
0010
,
1000
0100
0010
0100
1000
0010
0100
0010
1000
0001
0100
0001
0010
0100
0010
0001
,
0100
0000
0000
0110
0000
0000
0010
1000
0001
0000
0000
0011
0000
0000
0010
0100
,
1000
0010
0100
0001
0010
0001
0100
0010
,
1000
0100
0010
0001
1000
0010
0100
0001
,
0010
0100
1000
0010
0100
0001
0020
0000
,
0000
0030
0000
0000
;

//---------------dance-single - ----------------
#NOTES:
     dance-single:
     :
     Medium:
     9:
     0.720,0.708,0.110,0.050,0.306,486.000,11.000,5.000,0.000,0.000:
0000
0000
0000
0000
,
1001
0000
0000
1100
0000
0000
0000
0000
1000
0000
0001
0000
1000
0000
0010
0100
,
0001
0000
0000
0101
0000
0000
0000
0000
0100
0000
0010
0000
1000
0000
0001
0010
,
0100
0000
0000
1100
0000
0000
0000
0000
1000
0000
0001
0000
0010
0000
0100
0010
,
0001
0000
0000
1001
0000
0000
0000
0000
0001
0000
1000
0000
0010
0000
0000
0000
,
1000
0000
0000
0100
0000
0000
0010
0000
0100
0000
1000
0000
0100
0000
0010
0100
,
1000
0000
0001
0000
0010
0000
0001
0000
1000
0000
0010
0000
1000
0000
0001
0010
,
0001
0000
1000
0000
0100
0000
1000
0000
0001
0000
0010
0000
0100
0000
1000
0010
,
0100
0000
0000
0101
0000
0000
1001
0000
1000
0000
0001
0000
0001
0000
0001
0000
,
0100
0010
1000
0100
0010
0001
1000
0001
,
0010
0001
0100
0010
1000
0000
0000
0000
,
0100
0010
0001
0100
0001
1000
0010
1000
,
0100
0000
0010
0000
0100
0000
1000
0000
0010
0000
0100
0001
1000
0000
0100
0000
,
0010
0000
0001
1000
0001
0000
0010
0000
0100
0000
1000
0000
0001
0000
0100
0000
,
0010
0000
1000
0100
1000
0000
0010
0000
0100
0000
0001
0000
1000
0000
0001
0000
,
0010
0100
1000
0010
1000
0001
0010
0001
,
0100
0000
0010
0000
1000
0000
0100
0000
0010
0000
0001
0100
0001
0000
0010
0000
,
0100
1000
0010
1000
0100
1000
1010
0010
,
0100
0001
0010
0001
1000
0100
1100
1000
,
0001
0100
0001
1000
0001
0010
0001
0100
,
0010
1000
0100
0010
0100
1000
1000
1000
,
0100
0000
1000
0000
0001
0000
1000
0000
0010
0000
0100
0001
1000
0000
0100
0000
,
0010
0000
0001
0000
0100
0000
0001
0000
1000
0000
0001
0010
0100
0000
1000
0000
,
0001
0000
0100
0010
0100
0000
0001
0000
1000
0000
0100
0010
0100
0000
1000
0000
,
0001
0000
0100
0000
0010
0000
0010
0000
1000
0010
0100
0001
1000
0001
1000
0100
,
2000
3010
1000
0100
0010
0100
1000
0001
,
0200
0300
0001
0000
0100
0000
0001
0000
0010
0000
0100
0000
1000
0000
0010
0000
,
0200
0300
0000
0000
0001
0000
0000
0000
1000
0000
0000
0000
0001
0000
0000
0000
0010
0000
0000
0000
0001
0000
0000
0000
1000
0000
0000
0000
0010
0000
0000
0000
,
0100
0000
0000
0000
0000
0000
0000
0000
0000
0000
0000
0000
0000
0000
0000
0000
0000
0000
0000
0000
0000
0000
0000
0000
0010
0000
0000
0000
0000
0000
0000
0000
0000
0000
0000
0000
0000
0000
0000
0000
0000
0000
0000
0000
0000
0000
0000
0000
1000
0000
0000
0000
0000
0000
0000
0000
0000
0000
0000
0000
0000
0000
0000
0000
0000
0000
0000
0000
0000
0000
0000
0000
0010
0000
0000
0000
0000
0000
0000
0000
0000
0000
0000
0000
0000
0000
0000
0000
0000
0000
0000
0000
0000
0000
0000
0000
0100
0000
0000
0000
0000
0000
0000
0000
0000
0000
0000
0000
0000
0000
0000
0000
0000
0000
0000
0000
0000
0000
0000
0000
0000
0000
0000
0000
0000
0000
0000
0000
0000
0000
0000
0000
0000
0000
0000
0000
0000
0000
0000
0000
0000
0000
0000
0000
0000
0000
0000
0000
0000
0000
0002
0000
0000
0000
0000
0000
0000
0000
0000
0000
0000
0000
0000
0000
0000
0000
1003
0000
0000
0000
0000
0000
0000
0000
0000
0000
0000
0000
0000
0000
0000
0000
0000
0000
0000
0000
0000
0000
0000
0000
0000
0000
,
0000
0000
0000
0001
0000
0000
1000
0000
0000
0001
0000
0010
,
0000
0000
0000
0000
0000
0000
0000
0000
0000
0000
0000
0000
0000
0000
0000
0000
0000
0000
0000
0000
0000
0000
0000
0000
0100
0000
0000
0000
0000
0000
0000
0000
0000
0000
0000
0000
0000
0000
0000
0000
0000
0000
0000
0000
0000
0000
0000
0000
0000
0000
0000
0000
0000
0000
0000
0000
0000
0000
0000
0000
0000
0000
0000
0000
0000
0000
0000
0000
0000
0000
0000
0000
0000
0000
0000
0000
0000
0000
1000
0000
0000
0000
0000
0000
0000
0000
0000
0000
0000
0000
0000
0000
0000
0000
0000
0000
0001
0000
0000
0000
0000
0000
0000
0000
0000
0000
0000
0000
0000
0000
0000
0000
0000
0000
0000
0000
0000
0000
0000
0000
0000
0000
0000
0000
0000
0000
0000
0000
1000
0000
0000
0000
0000
0000
0000
0000
0000
0000
0000
0000
0000
0000
0000
0000
0010
0000
0000
0000
0000
0000
0000
0000
0000
0000
0000
0000
0000
0000
0000
0000
0000
0000
0000
0000
0000
0000
0000
0000
0000
0000
0000
0000
0000
0000
0000
0000
0100
0000
0000
0000
0000
0000
0000
0000
0000
0000
0000
0000
0000
0000
0000
0000
,
0001
0000
0000
0100
0000
0000
0010
0000
0000
0000
0000
0000
1000
0000
0000
0000
0000
0000
0001
0000
0000
0000
0010
0000
,
0000
0000
0000
0100
0000
0000
0000
0000
0000
0000
1000
0000
0001
0000
0000
0000
0010
0000
0100
0000
0000
0000
1000
0000
,
0001
0000
0000
0000
0010
0000
0100
0000
0000
1000
0000
0000
0010
0000
0000
1000
0000
0000
0100
0000
0000
0010
0000
0000
,
0001
0100
0010
1000
0100
1000
0001
0100
,
0010
1000
0001
0010
0100
1000
0010
0100
,
0010
1000
0001
0010
0100
0010
0001
1000
,
0010
0100
0001
0000
0000
0000
0000
0000
0000
0000
0000
0000
0000
0000
0000
0000
,
1000
0001
1000
0001
0100
0010
1000
0100
,
0010
0001
1000
0100
1000
0001
0100
0010
,
1000
0001
0010
0100
1000
0010
1000
0100
,
0010
0000
0001
0000
1000
0000
0010
0000
1000
0100
1000
0001
0100
0001
0010
0001
,
1000
0010
1000
0100
1000
0010
0100
0001
,
1000
0100
1000
0010
0100
0001
1000
0001
,
0010
0001
0100
0010
1000
0100
1000
0001
,
0010
0100
1000
0000
0010
0100
0001
0000
1000
0001
1000
0001
0100
0010
0100
0010
,
1000
0000
0000
0001
0010
0000
0100
0000
0010
0000
0001
0000
0100
0000
0010
0000
,
1000
0000
0000
0100
1000
0000
0010
0000
0100
0000
0001
0000
1000
0000
0100
0000
,
0010
0001
1000
0001
0100
0001
0010
0100
,
1000
0010
1000
0001
1000
0100
0100
0100
,
0010
0001
0100
0010
1000
0100
0010
0000
0001
0000
0100
0000
0001
0000
1000
0000
,
0010
1000
0100
0010
0100
1000
0001
0100
,
0010
1000
0100
0010
0001
0100
0010
1000
,
0100
0010
0001
0100
0010
1000
1000
0001
,
1000
0100
1000
0000
0010
0000
0100
0000
0001
0000
0010
0000
0100
0000
1000
0000
,
0010
0100
0010
0000
1000
0000
0100
0000
0010
0000
0001
0000
0100
0000
0010
0000
,
1000
0000
0001
1000
0100
0000
1000
0001
0010
0000
0100
1000
0001
0000
0100
0010
,
1000
0000
0000
1010
0000
0000
0010
1000
0001
0000
0000
0011
0000
0000
0010
0100
,
1000
0010
1000
0010
0100
0001
0100
0001
,
1000
0100
1000
0100
0010
0001
0100
0010
,
0100
0001
0010
0100
1000
0010
0200
0000
,
0000
0300
0000
0000
;

//---------------dance-single - 16/19----------------
#NOTES:
     dance-single:
     16/19:
     Challenge:
     12:
     1.000,1.000,0.100,0.040,1.000,825.000,10.000,4.000,0.000,0.000:
0000
0000
0000
0000
,
1001
0000
0000
1100
0000
0000
0000
0000
1000
0100
1000
0001
1000
0000
0010
0100
,
0001
0000
0000
0101
0000
0000
0000
0000
0100
0010
0100
0001
1000
0000
0001
0010
,
0100
0000
0000
1100
0000
0000
0000
0000
1000
0001
0010
0001
1000
0000
0100
0010
,
0001
0000
0000
1001
0000
0000
0000
1000
0001
0100
0001
0010
0100
0000
0000
0000
,
1001
0000
0001
0100
0001
0000
0010
0100
1000
0001
1000
0010
0100
0000
0010
0100
,
0001
0000
1000
0001
0010
0000
0001
1000
0001
0100
0010
1000
0100
0000
0010
0100
,
1000
0000
0001
0100
0010
0000
1000
0001
0100
0001
0010
0100
1000
0000
0001
0100
,
0010
0000
0000
1010
0000
0000
1001
0000
0001
1000
0010
0100
0010
0100
0001
1000
,
0010
0100
0001
1000
0001
0010
0100
1000
0001
0100
0001
1000
0100
1000
0001
0100
,
0010
0100
0001
1000
0100
0010
0100
1000
0001
0100
0010
0100
0001
1000
0001
1000
,
0100
0010
0001
1000
0001
0100
0001
1000
0100
1000
0001
0010
0100
1000
0010
1000
,
0001
0100
0010
1000
0100
0010
0001
0100
0010
1000
0001
1000
0100
1000
0001
0100
,
0010
1000
0100
1000
0001
0100
0010
1000
0001
0010
0100
1000
0010
1000
0001
0100
,
0001
0010
0100
1000
0001
0100
0010
1000
0001
0010
0001
0100
0010
0100
0001
1000
,
0100
0010
0001
0100
0001
1000
0010
1000
0100
1000
0001
0100
0001
0010
0001
1000
,
0010
1000
0100
0010
0100
1000
0010
0100
0001
1000
0100
1000
0001
1000
0010
0100
,
0001
0010
0001
1000
0010
0100
0001
1000
0001
0100
0001
0010
0100
1000
0001
1000
,
0010
1000
0001
0010
0100
1000
0001
1000
0100
1000
0010
0100
0001
1000
0001
0010
,
0100
1000
0010
0100
0010
1000
0100
1000
0001
0010
0100
1000
0001
1000
0010
0100
,
0001
1000
0100
1000
0010
0100
0001
1000
0010
1000
0001
0010
0001
1000
0001
0010
,
0100
1000
0001
0100
0010
1000
0001
0100
0001
1000
0100
1000
0010
1000
0001
0010
,
0001
1000
0001
0010
0100
1000
0001
0010
0001
1000
0010
1000
0100
1000
0001
0100
,
0001
0010
0100
1000
0001
1000
0010
0100
0010
1000
0100
0010
0001
0100
0010
0100
,
0001
0010
0001
1000
0001
0100
0010
1000
0001
1000
0100
0010
0100
1000
0100
0010
,
0002
0103
0001
0010
0100
0010
0001
1000
,
0020
0130
0001
0000
0010
0000
0001
0000
0100
0000
0010
0000
1000
0000
0100
0000
,
0020
0030
0100
0000
1000
0000
0000
0000
0010
0000
0000
0000
1000
0000
0000
0000
0100
0000
0000
0000
1000
0000
0000
0000
0001
0000
0000
0000
0100
0000
0000
0000
,
0010
0000
0000
0000
0000
0000
0000
0000
0000
0000
0000
0000
1000
0000
0000
0000
0000
0000
0000
0000
0000
0000
0000
0000
0100
0000
0000
0000
0000
0000
0000
0000
0000
0000
0000
0000
1000
0000
0000
0000
0000
0000
0000
0000
0000
0000
0000
0000
0001
0000
0000
0000
0000
0000
0000
0000
0000
0000
0000
0000
0000
0000
0000
0000
0000
0000
0000
0000
0000
0000
0000
0000
0100
0000
0000
0000
0000
0000
0000
0000
0000
0000
0000
0000
0000
0000
0000
0000
0000
0000
0000
0000
0000
0000
0000
0000
0010
0000
0000
0000
0000
0000
0000
0000
0000
0000
0000
0000
1000
0000
0000
0000
0000
0000
0000
0000
0000
0000
0000
0000
0000
0000
0000
0000
0001
0000
0000
0000
0000
0000
0000
0000
0000
0000
0000
0000
0000
0000
0000
0000
0000
0000
0000
0000
0000
0000
0000
0000
0000
0000
1000
0000
0000
0100
0000
0000
0010
0000
0000
0001
0000
0000
1000
0000
0001
0000
0100
0000
0000
0000
0000
0000
0000
0000
0000
0000
0000
0000
0000
0000
0000
0000
0000
0000
0000
0000
0000
0000
0000
0000
0000
0000
,
0000
0000
0000
0000
0000
0000
0000
0000
0000
0000
0000
0000
0001
0000
0000
0010
0000
0000
0001
0000
0000
0000
0000
0000
1000
0000
0000
0010
0000
0000
1000
0000
0000
0000
0000
0000
0001
0000
0000
0000
0000
0000
0000
0000
0010
0000
0000
0000
,
0000
0000
0000
0000
0000
0000
0100
0000
0000
0000
0000
0000
1000
0000
0000
0001
0000
0000
1000
0000
0000
0000
0000
0000
0010
0000
0000
0100
0000
0000
0010
0000
0000
0000
0000
0000
1000
0000
0000
0000
0000
0000
0000
0000
0001
0000
0000
0000
,
1000
0000
0000
0000
0000
0000
0000
0000
0100
0000
0000
0000
0010
0000
0000
0001
0000
0000
0010
0000
0000
0000
0000
0000
0001
0000
0000
1000
0000
0000
0010
0000
0000
0000
0000
0000
0100
0000
0000
0000
0000
0000
0000
0000
0010
0000
0000
0000
,
0000
0000
0000
0000
0000
0000
0000
0000
1000
0000
0000
0000
0001
0000
0000
0010
0000
0000
0001
0000
0000
0000
0000
0000
0010
0000
0000
0100
0000
0000
1000
0000
0000
0000
0000
0000
0001
0000
0000
0100
0000
0000
0010
0000
0000
0000
0000
0000
,
1000
0001
0010
0000
0100
1000
0001
1000
0010
0100
0001
1000
0001
1000
0100
0010
,
0001
0100
0010
1000
0100
1000
0001
0100
0001
1000
0100
0010
0100
1000
0001
0100
,
0010
0100
0001
0010
0001
1000
0100
0010
0001
1000
0001
0100
0010
0100
0001
1000
,
0100
1000
0001
0100
0010
1000
0100
0010
0001
0100
0001
1000
0010
1000
0001
1000
,
0001
0100
0001
0010
0000
0000
0000
0000
0000
0000
0000
0000
0000
0000
0000
0000
,
0001
0010
0100
1000
0001
0100
0001
0010
0001
1000
0010
1000
0001
1000
0100
0010
,
0001
0100
0010
1000
0001
0010
0001
0100
0001
1000
0010
1000
0001
0010
0001
1000
,
0010
0100
0001
1000
0100
1000
0010
1000
0001
0100
0001
1000
0010
1000
0001
0010
,
0100
1000
0010
0100
0001
1000
0010
1000
0100
0010
0100
1000
0100
0010
0001
0100
,
0010
1000
0001
0100
0001
1000
0100
0010
0100
1000
0001
1000
0010
0100
0001
1000
,
0001
0010
0100
1000
0001
0100
0001
0010
0001
1000
0100
0010
0001
0100
0001
1000
,
0010
1000
0100
0010
0100
1000
0001
0100
0010
0100
0001
1000
0010
1000
0001
0010
,
0001
0100
0010
1000
0100
1000
0001
0010
0001
0100
0010
1000
0100
0010
0001
0100
,
0010
1000
0001
1000
0100
0010
0001
0010
0001
0100
0010
0100
0001
0010
0100
1000
,
0010
0100
0001
0100
0001
0010
0100
0010
0001
0100
0010
1000
0001
0010
0100
1000
,
0001
0100
0001
0010
0001
1000
0100
1000
0001
0100
0010
1000
0100
1000
0001
0010
,
0001
1000
0100
1000
0010
0100
0001
1000
0100
0010
0001
1000
0001
1000
0010
0100
,
0001
0000
1000
0000
0100
0000
1000
0000
0001
0000
0010
0000
0100
0000
1000
0000
0010
0000
0100
0000
0000
0001
0000
0000
1000
0000
0000
0100
0000
0000
1000
0000
0000
0001
0000
0000
1000
0000
0000
0001
0000
0000
0100
0000
0000
0010
0000
0000
,
1000
0100
0010
0001
0100
0001
0010
0100
1000
0010
0100
0010
0100
0001
1000
0100
,
1000
0001
0100
0010
1000
0100
0010
0001
1000
0001
0010
0001
0100
0010
1000
0001
,
1000
0100
1000
0010
0100
0001
1000
0100
0010
0001
1000
0001
1000
0010
0100
0001
,
0010
0100
0010
0001
1000
0010
1000
0100
1000
0001
0100
0010
0100
0001
1000
0001
,
0010
0100
1000
0001
0100
0001
0010
0001
1000
0100
0010
0001
1000
0010
0100
0010
,
1000
0100
0010
0100
1000
0010
0100
0010
1000
0001
0100
0001
0010
0100
0010
0001
,
0100
0000
0000
0110
0000
0000
0010
1000
0001
0000
0000
0011
0000
0000
0010
0100
,
1000
0010
0100
0001
0010
0001
0100
0010
,
1000
0100
0010
0001
1000
0010
0100
0001
,
0010
0100
1000
0010
0100
0001
0020
0000
,
0000
0030
0000
0000
;
