#TITLE:Pieces;
#SUBTITLE:Kyoukai Senjou No Horizon;
#ARTIST:AiRi;
#TITLETRANSLIT:;
#SUBTITLETRANSLIT:;
#ARTISTTRANSLIT:;
#CREDIT:;
#BANNER:bn.jpg;
#BACKGROUND:bg.jpg;
#LYRICSPATH:;
#CDTITLE:bombastik.png;
#MUSIC:Pieces.mp3;
#OFFSET:-0.220;
#SAMPLESTART:27.500;
#SAMPLELENGTH:12.000;
#SELECTABLE:YES;
#BPMS:0.000=166.030;
#STOPS:;
#BGCHANGES:;
// cache tags:
#FIRSTBEAT:16.000;
#LASTBEAT:377.000;
#SONGFILENAME:Songs/FUCK ANIME PACK/Pieces/Pieces.sm;
#HASMUSIC:1;
#HASBANNER:1;
#MUSICLENGTH:138.840;
// end cache tags

//---------------dance-single - Blank----------------
#NOTES:
     dance-single:
     Blank:
     Challenge:
     10:
     1.000,1.000,1.000,0.490,0.792,833.000,350.000,68.000,0.000,126.000:

0000
0000
0000
0000
,
0000
0000
0000
0000
,
0000
0000
0000
0000
,
0000
0000
0000
0000
,
1110
0011
0110
1100
,
0002
0020
0000
0233
0000
2300
0000
3000
,
2002
0000
0000
0000
0000
3003
2000
0000
3000
0000
0200
0000
0302
0000
0010
0003
,
2002
0000
0000
0000
3003
0000
0200
0000
0000
0301
0010
0100
1001
0000
0110
0000
,
2002
0000
0000
0000
0000
0000
0000
0000
0000
0000
0000
3003
0000
0000
0000
0000
,
2200
0000
0000
0000
0000
0000
0000
0000
0001
3300
0010
0000
0100
0000
0001
0000
,
2200
0000
0000
0000
0000
0000
0000
0000
0000
0000
3300
0000
0001
1000
0001
0000
,
0000
0000
1100
0000
0000
0000
0220
0000
0000
0000
0331
1000
0001
0000
0010
0100
,
1011
0010
1100
0010
1100
0010
1100
0010
,
1110
0001
0110
0001
0110
0001
0110
0001
,
0111
1000
0011
1000
0011
1000
0011
1000
,
1011
0100
1010
0100
1010
0100
1010
0100
,
1110
0001
0011
0001
0011
0001
0011
0001
,
0111
1000
0011
1000
0011
1000
0011
1000
,
1011
0100
1010
0100
1010
0100
1010
0100
,
1011
0000
0000
0000
0100
0000
1011
0000
0000
0000
0100
0000
0011
0100
0010
0100
,
1001
0000
1000
0000
0010
0100
1011
0000
,
1110
0001
0010
0000
1000
0111
0000
1100
,
1100
0000
0001
0000
0100
0010
1101
0000
,
1110
0100
1100
0000
0001
0110
0001
0001
,
1110
0000
0110
0000
0001
1010
1110
0000
,
1110
0001
0101
0000
1000
0110
0001
0001
,
1100
0000
0110
0000
0001
1101
0010
0010
,
1101
0000
0000
0000
0010
0000
1101
0000
0000
0000
1000
0000
0101
0010
0100
0010
,
1101
0010
0110
1000
0011
0100
1010
0002
,
0100
0000
1000
0000
0110
0000
1000
0003
0110
0000
0001
1000
0001
1000
0001
1000
,
0111
0000
1000
0000
0011
0000
0100
0000
1000
0000
0010
0000
1100
0000
0010
0001
,
1100
0001
1100
0010
0101
0101
0101
0010
,
0101
0010
1001
0010
0101
0010
1001
2220
,
0000
3330
0001
0000
0110
0000
1000
0000
0011
0000
0100
0000
1010
0000
0001
0000
,
2200
0000
0011
0000
0011
0000
0000
0000
0001
3300
0000
0000
0001
0000
0100
0010
,
0100
1001
0000
1001
0100
0010
0100
1000
,
0011
0100
0010
1000
0110
0001
1000
0010
1100
0001
0100
0010
0101
1000
0010
0001
,
1100
0010
0100
0001
0110
1000
0010
0100
1001
0010
0001
0100
0011
1000
0010
0100
,
1010
0001
0100
1000
0110
0001
0010
1000
0011
0100
1000
0001
1100
0010
0100
0001
,
1010
0100
0010
1000
0011
0100
0001
1000
0011
0100
0010
1000
0101
0010
1000
0100
,
0000
0110
1100
0110
0011
0110
1100
0220
,
0330
0000
0001
0000
2200
0000
0000
0000
3311
1000
0011
0000
1100
0000
0010
0000
,
1101
0000
0010
0000
0111
0000
1000
0000
1110
0000
0001
0000
1100
0011
1100
0011
,
1100
0000
0001
0000
0110
0000
1000
0000
0100
0000
0020
0000
0001
1030
0001
1000
,
0111
1000
0010
0100
1011
0100
1000
0001
1110
0001
0100
0010
1101
0010
0001
1000
,
0111
1000
0001
0100
1011
0100
0001
1000
0011
1000
0011
0000
0011
0000
0000
0000
,
1110
0001
0100
1000
0111
1000
0001
0100
1011
0100
0001
1000
0111
1000
0001
0010
,
2101
0000
0000
3000
0011
0000
0100
0000
0100
0000
0110
0000
0011
0000
0100
0000
,
1011
0100
0010
1000
0011
0100
0002
1000
0110
0003
1001
0000
1001
0000
0010
0001
,
1100
0010
0001
0010
1100
0010
0002
0000
0113
1000
0110
0000
0011
1000
0011
1000
,
0012
0000
1100
0000
1100
0010
0100
2023
,
0000
0000
0000
3030
0000
0000
0001
0010
0100
0000
0001
0000
1000
0000
0001
0000
,
1110
0001
1000
0010
1101
0010
1000
0001
1110
0001
1000
0100
1011
0100
0010
1000
,
0111
1000
0100
0001
1110
0001
0100
0010
1101
0010
1100
0000
0110
0000
0110
0000
,
1110
0001
1000
0010
1101
0010
1000
0001
1110
0001
0100
0010
1101
0010
0001
1000
,
0111
1000
0001
0010
1101
0010
1000
0100
0011
1000
0011
0000
0110
0000
0011
0000
,
1110
0001
0100
0010
1101
0010
1000
0001
1110
0001
0100
1000
0111
1000
0010
0001
,
1110
0001
1000
0010
2202
0000
3303
0000
0010
0000
1000
0000
0010
0000
1000
0000
,
0111
1000
1000
0111
1000
1000
0111
1000
,
1000
0000
0111
0000
1000
0000
1000
0000
0111
0000
1000
0000
0111
0000
1000
0001
,
2110
0000
0000
0000
0000
0000
0000
0000
0000
3000
0000
0000
0000
0000
0010
0000
,
2000
0000
3000
0000
0010
0000
0002
0000
0003
0000
2000
0000
0000
3000
2000
0000
,
0011
3000
0110
0000
0001
0001
1100
0000
,
1100
0100
0011
0000
0100
0001
1100
0001
,
1110
0000
0011
0000
0110
0100
0101
0000
,
1110
0011
0011
0000
0110
1000
0001
0000
,
1100
0000
1001
0000
1100
1000
1010
0000
,
1110
0000
0000
0000
0011
0000
1110
0000
0000
0000
0001
0000
1000
0100
0010
0001
,
1100
0001
1100
0001
0110
0001
1100
0002
,
1100
0010
1100
0003
1010
0100
0110
0001
,
1110
0000
0000
0000
0001
0000
1110
0000
0000
0000
0001
0000
1000
0100
0010
1000
,
0011
0000
0100
0000
2002
3003
0000
0000
0110
0000
0001
0000
0220
0330
0000
0000
,
1110
0000
0101
0010
1100
0001
0110
2011
,
0000
3000
0001
0000
0110
0000
1000
0000
0011
0000
0100
0000
1010
0000
0002
0000
,
1100
1100
1100
0010
1103
0010
1100
0002
,
1100
0010
1103
0001
0110
1000
0011
0100
1001
0010
1100
0001
1010
0100
0011
1000
,
0111
1000
0001
0100
1011
0100
0010
1000
0111
1000
0001
0010
1101
0010
0100
0001
,
1110
0001
0100
1000
0111
1000
0010
0100
0011
1000
0011
0000
0110
0000
0110
0000
,
1110
0001
0100
0010
1101
0010
1000
0001
1110
0001
0010
1000
0111
1000
0010
0100
,
1011
0100
0001
1000
0111
1000
0010
0100
0011
1000
0011
0000
0110
0000
0110
0000
,
1110
0110
0111
1001
1101
0110
1011
0202
,
0303
0000
1100
0000
0222
0333
0000
0000
1000
0100
1001
0000
0110
0000
0001
0000
,
1110
0101
1110
1100
1101
1010
0111
0110
,
1101
0000
0000
0000
0110
0000
1110
0000
0001
0000
0100
0000
1001
0110
1001
0110
,
1001
0100
0001
1000
0111
1000
0010
0100
1011
0100
1000
0001
1110
0001
1000
0010
,
1101
0010
1000
0001
1110
0001
0100
0010
1001
0110
1001
0000
1001
0000
0110
0000
,
1010
0100
0001
1000
0101
0010
1000
0001
1100
0010
0100
0001
1010
0100
0001
1000
,
0022
0000
0000
0033
0000
0000
1100
0000
0111
0000
0110
0000
1110
0000
1001
0000
,
0101
0010
1000
0001
1100
0010
1000
0001
0220
0330
1001
0100
1001
0000
0010
0101
,
1010
0101
0010
1000
0011
1000
0010
0200
0000
0300
0101
1010
0101
0000
0100
0010
,
2202
0000
0000
0000
0000
0000
0000
0000
0000
0000
0000
3303
0000
0000
1100
0010
,
0101
1000
0110
1000
0101
0010
1100
0001
0110
1000
0101
0010
1001
0100
0011
1000
,
0110
0001
1000
0010
0101
1000
0001
0100
0011
1000
0001
0010
0101
1000
0010
0100
,
1010
0001
0100
0010
1100
0001
1000
0100
1010
0001
0100
0010
0101
1000
0001
0100
,
2020
3030
0000
0000
;
