#TITLE:The Flame of Youth;
#SUBTITLE:;
#ARTIST:Dragonforce;
#TITLETRANSLIT:;
#SUBTITLETRANSLIT:;
#ARTISTTRANSLIT:;
#CREDIT:B. Abear;
#BANNER:Bn-Flame.png;
#BACKGROUND:Bg-Flame.png;
#LYRICSPATH:;
#CDTITLE:;
#MUSIC:DragonForce - The Flame Of Youth.ogg;
#OFFSET:-0.328;
#SAMPLESTART:66.016;
#SAMPLELENGTH:18.800;
#SELECTABLE:YES;
#BPMS:0.000=100.000,2.000=200.000,146.000=100.000,149.000=200.000,1157.000=100.000,1173.000=200.000,1263.500=100.000,1271.000=200.000;
#STOPS:;
#BGCHANGES:;
// cache tags:
#FIRSTBEAT:2.000;
#LASTBEAT:1297.250;
#SONGFILENAME:Songs/Dragonforce/The Flame of Youth/The Flame of Youth.sm;
#HASMUSIC:1;
#HASBANNER:1;
#MUSICLENGTH:401.606;
// end cache tags

//---------------dance-single - B. Abear----------------
#NOTES:
     dance-single:
     B. Abear:
     Challenge:
     15:
     1.000,1.000,0.251,0.284,1.000,3070.000,101.000,114.000,354.000,0.000:



0000
0000
0000
0000
M1M1
0100
0001
1000
,
0100
0010
0001
0010
0100
1000
0001
M1M0
,
M1M0
0001
0010
0100
1000
0001
0100
0010
,
1000
0010
0100
0001
MM11
0010
0100
1000
,
0100
0010
0001
1000
0001
1000
0100
M01M
,
M01M
0100
1000
0001
0010
0001
1000
1M1M
,
0010
0100
M1M1
0001
1MM1
1000
0100
0010
,
0001
0010
0100
1000
0001
0100
0010
1M0M
,
1M0M
0010
0100
0001
1000
0010
1000
0001
,
0010
0100
1000
0001
MM11
0010
0001
1000
,
0100
1000
0001
0100
0010
0100
0001
1MM0
,
1MM0
0000
0001
0000
0010
0000
0100
0000
1000
0000
0001
0000
1000
0010
0100
0001
,
1000
0100
1000
0001
0010
0001
1000
0100
0010
0000
0010
0000
0010
0000
0001
0000
,
0000
1001
0000
0000
1000
0000
0010
0000
,
0100
0001
1000
0000
0100
0000
0010
0000
0000
0000
0011
0000
0000
0000
0000
0000
,
0001
0000
0000
0000
0010
0000
0000
0000
0100
1000
0010
0000
0100
0000
0001
0000
,
0000
0101
0000
0000
0100
0000
0010
0000
,
1000
0010
0100
0000
0001
0000
1000
0000
0000
0000
1001
0000
0000
0000
0000
0000
,
0001
0000
0000
0000
0010
0000
0000
0000
0100
1000
0001
0000
M1M0
0000
0010
0000
,
0000
0110
M00M
0000
0010
0000
4M0M
0000
,
3001
0010
0100
0000
10MM
0000
0001
0000
0000
0000
0101
0000
M0M0
0000
0000
0000
,
0100
0000
0000
0000
0040
0000
0000
0000
1030
0001
1000
0000
0MM1
0000
0010
0000
,
0000
0110
M00M
0000
0100
0000
10MM
0000
,
0001
1000
0010
0000
M10M
0000
0001
0000
0000
0000
1001
0000
1000
0100
0010
0000
,
0001
0100
0010
0000
1000
0100
0010
0000
0012
0000
0000
0000
0000
0000
0000
0000
,
0000
1003
0000
1010
,
2001
0000
0000
3100
,
0000
0110
0012
0000
,
0000
1003
0000
1010
,
1001
0000
0001
0000
0010
0000
0100
0000
1000
0000
0100
0000
1000
0010
0100
0001
,
1000
0010
0100
0001
1000
0010
0100
0001
1000
0100
0010
0000
0001
0000
0001
1000
,
0100
0000
1000
0000
1000
0010
0100
0000
0010
1000
0001
0000
1000
0100
0010
0000
,
0001
1000
0100
0000
0010
0000
0010
0001
1000
0000
0001
0000
0001
0010
0100
1000
,
0001
0010
0100
1000
0001
0100
0001
0100
0010
1000
0010
1000
0010
0100
0010
0100
,
0001
1000
0100
1000
0001
1000
0100
1000
0010
0100
0010
1000
0010
0100
0010
1000
,
0001
0010
0001
0010
0100
0010
0100
0010
0100
1000
0100
1000
0001
1000
0001
1000
,
0010
1000
0010
1000
0010
0100
0010
0100
M004
0000
00M0
0000
M000
0000
00M0
0000
,
M000
00M0
2003
0000
3010
0100
0004
0000
,
1003
0400
0000
0310
0010
0010
0002
0000
,
4003
0000
3200
0000
0310
0001
4000
0000
,
3010
0000
0400
0000
0301
1000
0001
1000
0100
1000
0100
1000
0001
0010
0100
1000
,
0100
1000
0001
1000
0020
0000
0000
0000
0130
0000
0001
0000
4000
0000
0000
0000
,
3001
0040
0000
0130
0100
0100
1000
0001
,
0400
0000
0310
1000
0001
0200
0000
0301
,
1000
0000
0100
0000
1000
0100
0010
0001
1000
0100
0010
0001
1000
0100
0010
0001
,
1000
0100
0010
0000
0012
0000
0000
0000
1003
0000
0010
0000
0200
0000
0000
0000
,
0301
2000
0000
3001
0001
0001
0020
0000
,
0230
0000
0000
0300
2100
0000
0000
0000
3001
0000
0100
0000
0020
0000
0000
0000
,
1030
0002
0000
0043
0000
0000
0430
0000
,
4300
0000
0000
0000
3001
0100
0001
0100
0001
0100
0001
0100
0001
1000
0001
1000
,
0001
1000
0001
1000
0100
1000
0100
1000
0100
1000
0100
1000
0100
0010
0100
0010
,
0100
0010
0100
0010
0001
1000
0100
0000
1000
0000
1000
0001
0100
0000
0001
0000
,
0001
1000
0100
0010
0001
1000
0001
1000
0010
0100
0010
0100
0001
1000
0001
1000
,
0010
0100
0010
0100
0001
0000
0000
0000
0000
0000
0000
0000
0000
0000
0000
0000
,
0000
0000
0000
0000
,
0202
0303
1001
0000
0000
0000
0000
0000
,
0000
0000
0000
0000
0000
0000
0000
0000
0000
0000
0000
0000
1000
0100
0010
0001
,
1000
0100
0010
0001
1M00
0000
1M00
0000
01M0
0000
01M0
0000
001M
0000
001M
0000
,
M001
M001
10M0
10M0
0M10
0M10
010M
010M
,
M001
M001
1M00
1M00
00M1
00M1
0M10
0M10
,
M100
0000
M100
0000
1000
0010
1000
0010
0100
0000
0100
0000
0001
0010
0001
0010
,
0100
1000
0100
1000
0001
0000
0000
0000
010M
0000
0000
0000
0M10
0000
0000
0000
,
10M0
M001
001M
01M0
,
22MM
3300
1MM1
0000
1000
0000
M010
0000
,
01M0
0M01
100M
M100
,
0M10
0000
M001
M001
10M0
10M0
0M10
0M10
,
010M
010M
00M1
00M1
0M10
0M10
M100
M100
,
100M
100M
0M01
0M01
01M0
01M0
M010
M010
,
100M
0000
100M
0000
0001
1000
0001
1000
0100
0000
0100
0000
1000
0001
1000
0001
,
0100
0010
1000
0001
1000
0000
0100
0000
0010
0001
0010
0000
0001
0000
1000
0000
,
0010
0100
0010
0000
0100
0000
0002
0000
0000
0000
2003
0000
0000
3000
1000
0000
,
0100
0000
0010
0000
0001
0000
1000
0000
0010
1000
0010
0000
0100
0000
0001
0000
,
1000
0100
1000
0000
0001
0000
0020
0000
0000
0000
0130
0000
1000
0001
1000
0000
,
0001
1000
0001
0000
0100
0000
0010
0000
1000
0010
1000
0000
0001
0000
1000
0000
,
0100
1000
0100
0000
0010
0000
0001
0000
1000
0001
1000
0000
0001
1000
0001
0000
,
0100
0000
0010
0000
1000
0100
1000
0001
0100
0010
0100
0001
1000
0100
1000
0001
,
0100
0010
0100
0001
1000
0100
1000
0100
1000
0001
1000
0001
1000
0100
1000
0100
,
1000
0001
1000
0001
0010
0000
0100
0000
1000
0001
1000
0000
0001
0000
0100
0000
,
0010
1000
0010
0000
0100
0000
0001
0000
1000
0100
1000
0000
0001
0000
0010
0000
,
0100
0010
0100
0000
1000
0000
0001
0000
0100
0001
0100
0000
0010
0000
1000
0000
,
0001
1000
0001
0000
0010
0000
0100
0000
1000
0100
1000
0000
0100
1000
0100
0000
,
1000
0100
1000
0000
0001
0000
1000
0000
0010
0100
0010
0000
0100
0000
0001
0000
,
1000
0100
1000
0000
0001
0000
0100
0000
0010
0000
0000
0000
1000
0001
1000
0001
,
1000
0100
1000
0100
0010
0001
1000
0010
0100
0010
1000
0001
0100
0001
1000
0100
,
1000
0001
0010
0100
1000
0100
0010
0001
1000
0100
1000
0001
0010
0001
1000
0010
,
0100
0010
1000
0001
0100
0001
1000
0100
0010
0001
1000
0100
1000
0001
0010
0100
,
1000
0001
0100
0001
1000
0100
1000
0001
0100
0010
0100
0001
1000
0100
1000
0001
,
0100
0010
0100
0001
1000
0100
0010
0001
1000
0010
0100
0010
1000
0001
0100
0001
,
1000
0100
1000
0001
0010
0100
1000
0001
0100
0010
0100
0001
1000
0100
1000
0100
,
0010
0001
1000
0010
0100
0001
1000
0100
0010
0100
1000
0001
0100
0001
1000
0001
,
0100
0010
1000
0001
0100
0010
0100
0010
0100
0001
0100
0001
1000
0001
1000
0001
,
1000
0100
1000
0100
M040
0000
0004
0000
0M00
0000
0000
0000
M000
0000
0000
0000
,
0M00
0000
0000
0033
20M0
0000
0000
0000
00M0
0000
0000
0000
00M0
0000
0000
0000
,
00M0
0000
0000
0000
3001
0000
0100
0000
0010
1000
0010
0000
1000
0000
0001
0000
,
1000
0100
1000
0000
0001
0000
0010
0000
0100
0010
0100
0000
1000
0000
0001
0000
,
1000
0001
1000
0000
44M0
0000
0000
0000
000M
0000
0000
0000
00M0
0000
0000
0000
,
000M
3300
M220
0000
000M
0000
M000
0000
,
000M
0000
0330
0000
0010
0000
0001
0010
0100
0000
1000
0000
0001
0000
1000
0010
,
0100
0000
0001
0000
1000
0000
0010
0100
0001
0000
1000
0000
0001
0000
0010
0100
,
1000
0000
0001
0000
1001
0000
1000
0000
0001
0100
0001
0000
0100
0000
0010
0000
,
1000
0010
1000
0000
0001
0000
0010
0000
0100
0010
0100
0000
1000
0000
0001
0000
,
1000
0010
1000
0000
1010
0000
0010
0000
0100
0001
0100
0000
0001
0000
1000
0000
,
0100
1000
0100
0000
0010
0000
0001
0000
1000
0001
1000
0000
0001
0000
0100
0000
,
0010
1000
0010
0000
1000
0001
1000
0001
1000
0001
1000
0001
1000
0001
1000
0001
,
1000
0001
1000
0001
0010
0100
0010
0100
0010
0100
0010
0100
0010
0100
0010
0100
,
0010
0100
0010
0100
1000
0001
0100
0000
0010
0000
0010
1000
0001
0000
1000
0100
,
0010
0000
0001
0100
0010
1000
0010
1000
0001
1000
0001
1000
0010
1000
0010
1000
,
0001
1000
0001
1000
01MM
0000
0010
0000
0001
0010
0001
0000
1000
0000
0001
0000
,
0100
0001
0100
0000
0010
0000
1000
0000
0001
1000
0001
0000
1000
0000
0100
0000
,
0010
0001
0010
0000
MM11
0000
0001
0000
1000
0100
1000
0000
0001
0000
0100
0000
,
0010
1000
0010
0000
0100
0000
0001
0000
1000
0100
1000
0000
0001
0010
0001
0010
,
0001
1000
0001
1000
0M1M
0000
0100
0000
0001
0100
0001
0000
1000
0000
0100
0000
,
1000
0100
1000
0000
0001
0000
0010
0000
0100
1000
0100
0000
1000
0000
0010
0000
,
0100
0001
0100
0000
M1M1
0000
0001
0000
1000
0100
1000
0000
0001
0000
0010
0000
,
0100
0010
0100
0000
1000
0001
1000
0001
0010
0001
0010
0001
0010
0100
0010
0100
,
1000
0100
1000
0100
M01M
0001
1000
0000
0010
0100
0001
0000
1000
0100
0010
0000
,
0001
1000
0100
0000
0010
0001
1000
0000
0010
0100
0001
0000
1000
0010
0100
0000
,
0001
1000
0100
0000
11MM
0000
1000
0000
0001
1000
0100
0000
1000
0001
0100
0000
,
0010
1000
0001
0000
1000
0001
0100
0001
1000
0001
1000
0001
0100
0001
1000
0001
,
1000
0001
0100
0001
1MM0
0000
0100
0000
0010
0001
0010
0000
0100
0000
1000
0000
,
0001
1000
0001
0000
0100
0000
0010
0000
1000
0010
1000
0000
0001
0000
0100
0000
,
0001
1000
0001
0000
1MM1
0000
1000
0000
0001
0010
0001
0000
1000
0000
0100
0000
,
0010
0100
0010
0000
0001
0000
1000
0000
0001
0100
0001
0000
1000
0010
1000
0010
,
1000
0001
1000
0001
MM10
0000
0100
0000
1000
0100
1000
0000
0001
0000
0100
0000
,
0010
0100
0010
0000
1000
0000
0001
0000
1000
0100
1000
0000
0001
0000
0010
0000
,
0001
1000
0001
0000
0100
0001
0100
0001
1000
0001
1000
0001
1000
0100
1000
0100
,
0010
0001
0010
0100
0010
0001
0010
0100
1000
0001
1000
0001
0100
0001
0100
0001
,
1000
0000
1000
0000
00M2
0003
0200
0300
M020
0030
2000
3000
002M
0030
0200
0300
,
M002
0003
0002
0003
2M00
3000
0200
0300
002M
0030
0200
0300
M002
0003
0200
0300
,
20M0
3000
0002
0003
2000
0000
0000
0000
3010
0000
0100
0000
0004
0000
0000
0000
,
1003
0400
0000
0310
0010
0010
0002
0000
,
4003
0000
3200
0000
0310
0001
4000
0000
,
3010
0400
0000
0301
0001
0001
1000
0100
,
1000
0400
0320
0000
0031
1000
0040
0000
,
0130
0004
0000
1003
1000
1000
0100
0010
,
0004
0000
0000
0000
1003
0100
1000
0100
0010
0100
0010
0100
0010
0001
0010
0001
,
1000
0001
1000
0001
0100
0010
0100
0010
1000
0001
1000
0001
0100
0010
0100
0010
,
1000
0001
1000
0001
0200
0000
0000
0000
0310
0000
0100
0000
0004
0000
0000
0000
,
1003
0400
0000
0310
0010
0010
0002
0000
,
4003
0000
3200
0000
0310
0001
2000
0000
,
3010
0200
0000
0301
0001
0001
4000
0000
,
3004
0000
0000
0000
1003
0100
1000
0001
0100
0001
1000
0010
1000
0001
0010
0001
,
4000
0000
0000
0000
3001
0010
0001
1000
0010
1000
0001
0100
0001
1000
0100
1000
,
0004
0000
0000
0000
0103
0010
1000
0001
1000
0001
0100
0010
1000
0001
1000
0001
,
0100
0010
1000
0001
0010
0100
0010
0100
1000
0001
1000
0001
0010
0100
0010
0100
,
1000
0001
1000
0001
0020
0000
0000
0000
0130
0000
0000
0000
1000
0000
0001
0000
,
0101
0100
0000
0010
1010
0000
1000
0001
,
0022
0033
2002
3003
1000
0000
0010
0100
,
0101
0000
0001
0000
0000
0000
1000
0100
0010
0000
0001
0100
0010
0000
1000
0100
,
0020
0000
0000
0000
M031
0000
M001
0000
10M0
0000
10M0
0000
001M
0000
001M
0100
,
M001
0000
M001
0000
1M00
0000
1M00
0000
01M0
0000
01M0
0000
M010
0000
M010
0001
,
10M0
0000
10M0
0000
0M10
0000
0M10
0000
010M
0000
010M
0000
00M1
0000
00M1
1000
,
010M
0000
010M
0000
M010
0000
M010
0000
0M01
0000
0M01
0000
10M0
0000
10M0
0001
,
0100
0000
0001
1000
0100
0000
0010
0000
0001
1000
0001
0000
1000
0000
0001
0000
,
0100
0010
0100
0000
0010
0000
2000
0000
0000
0000
3002
0000
0000
0003
0001
0000
,
0010
0000
0100
0000
1000
0000
0001
0000
0100
0001
0100
0000
0010
0000
1000
0000
,
0001
0010
0001
0000
1000
0000
0200
0000
0000
0000
0310
0000
0001
1000
0001
0000
,
1000
0001
1000
0000
0010
0000
0100
0000
0001
0100
0001
0000
1000
0000
0001
0000
,
0010
0001
0010
0000
0100
1000
0100
1000
0001
1000
0001
1000
0001
0100
0001
0100
,
0010
0100
0010
0100
0001
1000
0001
0100
0010
0100
0001
1000
0010
1000
0001
0010
,
0001
1000
0100
0010
0001
0010
0100
1000
0001
0010
0001
1000
0100
1000
0001
0100
,
0010
0100
0001
1000
0010
1000
0001
0010
0100
1000
0001
0010
0001
1000
0100
0010
,
0001
1000
0010
1000
0001
0010
0001
1000
0010
0100
0010
1000
0001
0010
0001
1000
,
0010
0100
0010
1000
0001
0010
0100
1000
0001
0100
0010
0100
0001
1000
0010
1000
,
0001
0010
0001
1000
0100
0010
0001
1000
0010
0100
0010
1000
0001
0010
0001
0010
,
0100
1000
0001
0100
0010
1000
0001
0010
0100
0010
0001
1000
0010
1000
0001
1000
,
0010
0100
0001
1000
0010
0100
0010
0100
0010
1000
0010
1000
0001
1000
0001
1000
,
0001
0010
0001
0010
040M
0000
4000
0000
00M0
0000
0000
0000
000M
0000
0000
0000
,
00M0
0000
0000
3300
0M02
0000
0000
0000
0M00
0000
0000
0000
0M00
0000
0000
0000
,
0M00
0000
0000
0000
1003
0000
0010
0000
0100
0001
0100
0000
0001
0000
1000
0000
,
0001
0010
0001
0000
1000
0000
0100
0000
0010
0100
0010
0000
0001
0000
1000
0000
,
0001
1000
0001
0000
0M41
0000
0000
0000
M001
0000
0000
0000
0M01
0000
0000
0000
,
M001
0030
041M
0000
M010
0000
001M
0000
,
M010
0000
0300
0000
0100
0000
1000
0100
0010
0000
0001
0000
1000
0000
0001
0100
,
0010
0000
1000
0000
0001
1000
0001
1000
0100
0000
0100
0000
1000
0001
1000
0001
,
0100
0000
0100
0000
0101
0000
0001
0000
1000
0010
1000
0000
0010
0000
0100
0000
,
0001
0100
0001
0000
1000
0000
0100
0000
0010
0100
0010
0000
0001
0000
1000
0000
,
0001
0100
0001
0000
0101
0000
0100
0000
0010
1000
0010
0000
1000
0000
0001
0000
,
0010
0001
0010
0000
0100
0000
1000
0000
0001
1000
0001
0000
1000
0000
0010
0000
,
0100
0001
0100
0000
0001
1000
0001
1000
0001
1000
0001
1000
0001
1000
0001
1000
,
0001
1000
0001
1000
0100
0010
0100
0010
0100
0010
0100
0010
0100
0010
0100
0010
,
0100
0010
0100
0010
0001
1000
0010
0100
0010
0100
0001
1000
0010
0100
0010
0100
,
0001
1000
0001
1000
0010
1000
0010
1000
0001
1000
0001
1000
0010
1000
0010
1000
,
0001
1000
0001
1000
01MM
0000
0010
0000
0001
0010
0001
0000
1000
0000
0001
0000
,
0100
0001
0100
0000
0010
0000
1000
0000
0001
1000
0001
0000
1000
0000
0100
0000
,
0010
0001
0010
0000
MM11
0000
0001
0000
1000
0100
1000
0000
0001
0000
0100
0000
,
0010
1000
0010
0000
0100
0000
0001
0000
1000
0100
1000
0000
0001
0010
0001
0010
,
0001
1000
0001
1000
0M1M
0000
0100
0000
0001
0100
0001
0000
1000
0000
0100
0000
,
1000
0100
1000
0000
0001
0000
0010
0000
0100
1000
0100
0000
1000
0000
0010
0000
,
0100
0001
0100
0000
M1M1
0000
0001
0000
1000
0100
1000
0000
0001
0000
0010
0000
,
0100
0010
0100
0000
1000
0001
1000
0001
0010
0001
0010
0001
0010
0100
0010
0100
,
1000
0100
1000
0100
M01M
0001
1000
0000
0010
0100
0001
0000
1000
0100
0010
0000
,
0001
1000
0100
0000
0010
0001
1000
0000
0010
0100
0001
0000
1000
0010
0100
0000
,
0001
1000
0100
0000
11MM
0000
1000
0000
0001
1000
0100
0000
1000
0001
0100
0000
,
0010
1000
0001
0000
0100
0001
0100
0001
1000
0001
1000
0001
0100
0001
0100
0001
,
1000
0001
1000
0001
MM10
0000
0100
0000
0010
0001
0010
0000
0100
0000
1000
0000
,
0001
1000
0001
0000
0100
0000
0010
0000
1000
0010
1000
0000
0001
0000
0100
0000
,
0001
1000
0001
0000
1MM1
0000
1000
0000
0001
0010
0001
0000
1000
0000
0100
0000
,
0010
0100
0010
0000
0001
0000
1000
0000
0001
0100
0001
0000
1000
0010
1000
0010
,
1000
0001
1000
0001
MM10
0000
0100
0000
1000
0100
1000
0000
0001
0000
0100
0000
,
0010
0100
0010
0000
1000
0000
0001
0000
1000
0100
1000
0000
0001
0000
0010
0000
,
0001
1000
0001
0000
1000
0100
0010
0001
0010
0001
1000
0100
0010
0001
0010
0001
,
1000
0001
1000
0001
0100
0010
0100
0010
0100
0001
0100
0001
1000
0001
1000
0001
,
1000
0100
1000
0100
001M
0000
001M
0000
M001
0000
M001
0000
10M0
0000
10M0
0000
,
0M10
0M10
010M
010M
M001
M001
1M00
1M00
,
01M0
0000
01M0
0000
0040
0000
0004
0000
0000
0000
0000
0003
0000
0030
0100
0000
,
1000
0001
0100
0010
1000
0001
0020
0230
,
2300
0000
3002
0003
0201
0000
0000
0000
0000
0000
0000
0000
0000
0000
0000
0000
,
0000
0000
0320
2030
,
3002
0000
0000
0003
0021
0000
0000
0000
0000
0000
0000
0000
0000
0000
0000
0000
,
0000
0000
0230
2300
,
3002
0000
0000
0003
0201
0000
0000
0000
0000
0000
0000
0000
0000
0000
0000
0000
,
0320
4030
0000
0000
,
0000
0000
0000
3MM1
0010
0100
1000
0100
0010
0001
0010
0100
,
1000
0100
0010
0001
0010
0100
1000
0100
0010
0001
0010
0100
,
1000
0100
0010
MM01
0100
0010
1000
0010
0100
0001
0100
0010
,
1000
0010
0100
0001
0100
0010
1000
0010
0100
0001
0100
0010
,
1000
0010
0100
M0M1
0010
0100
1000
0100
0010
0001
0010
0100
,
1000
0100
0010
0001
0010
0100
1000
0100
0010
0001
0010
0100
,
1000
0100
0010
MM01
0100
0010
1000
0010
0100
0001
0100
0010
,
1000
0010
0100
0001
0100
0010
1000
0010
0100
0001
0100
0010
,
1000
0000
0000
0000
0001
0000
0000
0000
0010
0000
0000
0000
0041
0000
0000
0000
0000
0000
0034
0000
0000
0000
0000
0000
4003
0000
0000
0000
0000
0000
3040
0000
0000
0000
0000
0000
0430
0000
0000
0304
0000
0000
0403
0000
0000
0304
0000
0000
,
0403
0304
0403
0304
2003
0000
0000
0000
0000
0000
0000
3000
M200
0000
0000
0000
,
0000
0000
0000
0300
0M10
0001
1000
0001
0020
0000
0000
0000
0230
0000
0000
0000
,
2300
0000
0000
0000
3001
0100
0010
0100
0002
0000
0000
0000
2003
0000
0000
0000
,
3200
0000
0310
0001
0100
0020
0000
0230
,
0000
0302
1003
0100
0010
0004
0000
0000
,
0000
0000
1003
0010
0100
0001
1000
0100
1000
0001
0010
0100
1000
0001
0010
0100
,
0010
0001
1000
0010
1000
0001
1000
0100
0010
0001
0010
0100
0010
0001
1000
0001
,
0200
0000
0000
0000
0310
1000
0001
0100
0010
0100
0001
1000
0100
0010
0100
1000
,
0001
0010
0001
1000
0100
0010
0100
0010
0001
0010
0001
0010
0001
1000
0001
1000
,
0010
1000
0010
1000
0001
0000
0100
0000
0001
0000
1000
0000
0010
0000
1000
0000
,
0001
0010
0001
1000
0100
0010
0004
0000
,
0000
0000
0000
0000
0000
0000
1003
0000
0000
0010
0000
0000
0100
0000
0000
0001
0000
0000
1000
0000
0100
0000
0010
0000
,
0100
0000
1000
0000
0001
0000
0100
0000
0000
0010
0000
0000
1000
0000
0000
0001
0000
0000
0040
0000
0000
0000
0000
0000
,
0000
0000
0000
0130
1000
0001
0100
0001
1000
0001
0010
0001
,
1000
0000
0000
0000
0010
0000
0000
0000
1000
0000
0000
0000
0001
0000
0000
0100
0000
0000
0001
0000
0000
0100
0000
0000
0001
0000
0000
1000
0000
0000
0001
0000
0000
1000
0000
0000
0100
0000
0000
1000
0000
0000
0100
0000
0000
1000
0000
0000
,
0001
0000
1000
0000
0001
0100
0010
0000
0010
0000
1000
0100
0010
0000
0010
0000
,
0001
1000
0100
0000
1000
0001
1000
0001
1000
0100
1000
0100
1000
0001
1000
0001
,
1000
0100
1000
0100
0010
0001
1000
0001
0100
0000
0010
0000
0100
0000
0001
0000
,
1000
0100
0040
0000
0000
0130
1000
0001
,
0100
0000
0010
0000
0100
0001
1000
0001
1000
0100
0010
0001
1000
0100
1000
0001
,
0100
0010
1000
0001
0040
0000
0000
0000
0430
0000
0000
0000
4300
0000
0000
0000
,
3004
0000
0000
0000
0103
0010
1000
0001
0100
0000
0100
0001
0010
0100
1000
0001
,
2000
0000
0000
0000
3001
0010
0100
0010
0001
0000
0001
0010
0100
1000
0001
0100
,
0002
0000
0000
0003
1001
0000
1000
0000
0001
0000
1000
0000
0001
0010
0100
1000
,
0001
0000
0001
0100
0010
1000
0001
0100
0010
1000
0010
1000
0001
0100
0010
1000
,
0010
1000
0001
0100
0001
1000
0100
0000
1000
0010
0100
0000
0001
0010
0100
0000
,
1000
0001
0010
0000
0100
1000
0001
0000
0100
0010
1000
0000
0001
0010
0100
0000
,
1000
0001
0010
0000
0001
1000
0100
1000
0001
0100
0010
0100
0001
1000
0100
0010
,
0100
1000
0001
0010
0100
1000
0001
0100
0010
1000
0001
0100
0001
1000
0100
0010
,
0002
0000
0000
0000
0000
0000
0000
0000
0000
0000
0000
0000
1003
0000
0000
0100
0000
0000
0010
0000
0000
0001
0000
0000
1000
0000
0000
0000
0010
0000
0000
0000
0100
0000
0000
0000
0001
0000
0000
0100
0000
0000
0010
0000
0000
1000
0000
0000
,
0001
0000
0000
0000
1000
0000
0000
0000
0100
0000
0000
0000
0010
0000
0000
0001
0000
0000
1000
0000
0000
0001
0000
0000
0100
0000
0000
0000
0010
0000
0000
0000
1000
0000
0000
0000
0001
0000
0000
1000
0000
0000
0100
0000
0000
0010
0000
0000
,
0002
0000
0000
0000
1003
0010
0100
0010
1000
0001
0100
0001
1000
0010
0100
0010
,
1000
0001
0100
0001
1000
0100
0010
0001
1000
0100
0010
0001
1000
0100
0010
0001
,
1000
0100
0010
0001
1000
0010
0100
0010
1000
0010
0100
0010
1000
0010
0100
0010
,
1000
0001
0100
0001
1000
0000
M100
0000
0M10
0000
00M1
0000
100M
0000
M001
0000
,
010M
0000
0000
0000
0000
0000
0M10
0000
0000
0000
0000
0000
10M0
0000
0000
0000
0001
0000
0000
0000
0010
0000
0000
0000
0100
0000
0000
1000
0000
0000
0001
0000
0000
0100
0000
0000
0001
0000
0000
1000
0000
0000
0010
0000
0000
1000
0000
0000
,
0001
0010
0001
1000
0100
0000
0010
0000
0100
0000
1000
0000
00M1
0000
00M1
0000
,
1M00
0000
1M00
0000
0001
1000
0100
0000
M01M
0000
M01M
0000
MM01
0000
MM01
0000
,
10MM
10MM
0010
0200
0000
0000
0301
2000
,
0000
0000
0000
0000
3001
0010
0100
1000
0100
1000
0001
0010
0100
1000
0100
1000
,
0001
0010
0100
0000
1100
0000
0000
0000
1001
0000
0000
0000
0101
0000
0000
0000
,
1001
0000
0000
10MM
0100
0010
0001
0010
0100
1000
0100
0010
,
0001
0010
0100
10MM
0010
0100
0001
0100
0010
1000
0010
0100
,
0001
0100
0010
1M0M
0001
1000
0100
1000
0001
0010
0001
1000
,
0010
1000
0001
MM10
0100
0010
0001
1000
0010
0100
0001
1000
,
0200
0000
4300
0001
0000
0001
0000
0001
,
0000
0000
0000
0001
3000
0000
0400
0000
0001
0000
0000
0000
0001
0000
0000
0000
0001
0000
0000
0000
0001
0000
0000
0000
,
0001
0000
0000
0000
0301
0000
1000
0000
0000
0100
0000
0000
0010
0000
0000
0100
0000
0000
1000
0000
0000
0001
0000
0000
,
0100
0000
0001
0000
1000
0010
0100
0010
1000
0001
0100
0001
1000
0100
0010
0100
,
1000
0001
0010
0001
2000
0000
0000
0000
0000
0000
3100
0000
0000
0000
0010
0000
,
0000
0000
0001
0000
0001
0000
1000
0000
2000
0000
0000
0000
3010
0100
0010
0100
,
0001
1000
0001
1000
0100
0000
1000
0000
0001
0000
0100
0000
0000
0000
0020
0000
,
0000
0000
1030
0000
0001
1000
0001
1000
0010
1000
0010
1000
0001
1000
0001
1000
,
0100
1000
0100
1000
0001
0000
0010
0000
0100
0000
1000
0000
0000
0000
0001
0000
,
0100
0000
0010
0000
1000
0000
1000
0000
1000
0010
1000
0010
0100
0001
0100
0001
,
1000
0000
1000
0000
0001
0100
0010
0100
0001
1000
0100
1000
0001
0100
0010
0100
,
0001
1000
0100
1000
0001
0010
0100
0010
0001
1000
0010
1000
0001
0010
0100
0010
,
0001
1000
0010
1000
0001
0000
0002
0000
0000
0000
1003
0000
0100
0000
0200
0000
,
0000
0000
0310
0000
0001
0000
0000
0000
1000
0010
0100
0000
0001
0100
0001
0100
,
0001
1000
0001
1000
0100
0000
0200
0000
0300
0000
0020
0000
0030
0000
0002
0000
,
0003
1000
0010
0100
0000
0004
0000
0000
,
2003
0000
0000
3000
M002
0000
0000
0000
0013
0000
0100
0000
0000
0000
2000
0000
,
0000
0000
3001
0000
0100
0010
1000
0001
0100
0010
1000
0001
0100
0010
1000
0000
,
1001
0000
0000
0000
0001
0010
0100
1000
0001
0100
0010
1000
0001
1000
0100
0010
,
0001
1000
0100
0010
0002
0000
0000
0000
0000
0000
0023
0000
0000
0000
0000
0000
,
0230
0000
1300
0000
1000
0002
0000
0000
,
0000
0000
M2M3
M32M
,
2M3M
0000
0000
3000
1MM1
0000
0000
0000
M000
0000
0000
0000
000M
0000
0000
0000
,
00M0
0M00
000M
M000
,
00M0
22MM
00M0
000M
,
00M0
0000
0000
3300
M11M
0000
0000
0000
M000
0000
0000
0000
004M
0000
0000
0000
,
M000
0000
0000
0000
MM31
0000
0100
0000
0010
1000
0010
0000
0100
0000
0001
0000
,
1000
0100
1000
0000
0001
0000
0010
0000
0100
0010
0100
0000
1000
0000
0001
0000
,
1000
0010
1000
0000
1M1M
0000
0010
0000
0100
0001
0100
0000
0001
0000
1000
0000
,
0100
1000
0100
0000
0010
0000
0001
0000
1000
0001
1000
0000
0100
1000
0100
1000
,
0001
1000
0001
1000
0M1M
0000
1000
0000
0001
1000
0001
0000
0010
0000
0100
0000
,
1000
0100
1000
0000
0001
0000
0010
0000
0001
1000
0001
0000
0100
0000
0010
0000
,
1000
0010
1000
0000
0001
0000
0010
0000
0001
0010
0001
0000
1000
0000
0100
0000
,
0010
0001
0010
0000
0100
1000
0001
0010
0100
1000
0100
1000
0001
0010
0100
1000
,
0100
1000
0001
1000
0M1M
1000
0001
0000
1000
0100
0010
0000
0001
1000
0100
0000
,
0010
0001
1000
0000
0010
0100
0001
0000
1000
0100
0010
0000
0001
1000
0010
0000
,
0100
0001
1000
0000
1MM1
0000
0001
0000
1000
0100
0010
0000
0001
0010
0100
0000
,
1000
0010
0100
0000
0001
1000
0100
0000
0100
0000
0010
0001
0100
0000
0100
0000
,
0001
1000
0100
0010
MM01
0000
1000
0000
0010
0100
0010
0000
1000
0000
0001
0000
,
0010
0001
0010
0000
0100
0000
1000
0000
0001
0100
0001
0000
1000
0000
0010
0000
,
0100
0010
0100
0000
M1M1
0000
0001
0000
1000
0100
1000
0000
0001
0000
0010
0000
,
0100
0010
0100
0000
1000
0000
0001
0000
1000
0010
1000
0000
0001
0100
0001
0100
,
0001
1000
0001
1000
01MM
0010
0001
1000
0001
0100
0010
1000
0001
1000
0100
0010
,
0001
0010
0100
1000
0001
0100
0010
1000
0010
0100
0001
1000
0100
1000
0001
0010
,
0100
1000
0001
1000
01MM
1000
0010
0100
0001
0100
0010
1000
0001
1000
0100
0010
,
0001
0010
0100
1000
0001
0010
0001
0010
0100
0010
0100
0010
0100
1000
0100
1000
,
0001
1000
0001
1000
0010
0000
0100
0000
0001
0000
1000
0000
0100
0000
0010
0000
,
0100
1000
0001
0010
0001
1000
0010
0100
,
0001
1000
4004
0000
0000
0000
3003
0MM0
,
M00M
0MM0
M00M
0MM0
M00M
0MM0
M00M
0MM0
,
M00M
0MM0
M00M
0MM0
M00M
0MM0
0004
0400
,
0000
0000
0000
0300
0000
0003
1000
0000
0100
0000
1000
0000
0001
0000
0010
0000
,
0100
1000
0010
0100
0001
0010
0400
4000
,
0000
0000
0000
3000
0000
0300
0010
0000
0001
0000
1000
0000
0010
0000
0100
0000
,
0001
1000
0100
0010
0001
0010
0004
4000
,
0000
0000
0000
3000
0000
0003
0100
0000
0010
0000
1000
0000
0001
0000
0010
0000
,
0100
0000
0000
0000
1000
0000
0000
0000
0001
0000
0000
0000
0000
1000
0000
0000
0000
0000
0100
0000
0000
0000
0000
0010
0000
0000
0000
0000
0001
0000
0000
0000
,
0000
1000
0000
0000
0000
0001
0000
0000
0000
0000
0000
0000
0000
0000
0000
0000
;
