#TITLE:Yumemiru Mama ni Koi wo Shite;
#SUBTITLE:;
#ARTIST:Hashimoto Miyuki;
#TITLETRANSLIT:;
#SUBTITLETRANSLIT:;
#ARTISTTRANSLIT:;
#CREDIT:;
#BANNER:BN.jpg;
#BACKGROUND:BG.jpg;
#LYRICSPATH:;
#CDTITLE:bombastik.png;
#MUSIC:Yumemiru Mama ni Koi wo Shite.mp3;
#OFFSET:0.060;
#SAMPLESTART:27.460;
#SAMPLELENGTH:12.000;
#SELECTABLE:YES;
#BPMS:0.000=160.000;
#STOPS:;
#BGCHANGES:;
// cache tags:
#FIRSTBEAT:10.000;
#LASTBEAT:426.000;
#SONGFILENAME:Songs/FUCK ANIME PACK/Yumemiru Mama ni Koi wo Shite/Yumemiru Mama ni Koi wo Shite.sm;
#HASMUSIC:1;
#HASBANNER:1;
#MUSICLENGTH:159.973;
// end cache tags

//---------------dance-single - ----------------
#NOTES:
     dance-single:
     :
     Challenge:
     9:
     1.000,1.000,1.000,0.700,0.881,1020.000,316.000,112.000,0.000,83.000:

0000
0000
0000
0000
,
0000
0000
0000
0000
,
0000
0000
0000
0000
0000
0000
0000
0000
1000
0000
0001
0010
0100
0000
0010
0100
,
0010
0000
1000
0100
0010
0000
0001
0010
0001
0000
0100
0000
0010
0000
2000
0000
,
3000
0000
0000
0000
0000
0000
0000
0000
1000
0010
0100
0000
0001
0000
0100
1000
,
0010
1000
0100
0000
0001
0000
0100
1000
0100
0000
0010
0000
0001
0000
0200
0000
,
0000
0300
0000
0000
0000
0000
0000
0000
1011
0100
0001
1000
0110
0000
0001
0100
,
0010
0000
1000
0000
0110
0000
1000
0100
1001
0000
0010
0000
1100
0000
0002
0000
,
0113
1000
0000
0000
0011
0000
0000
0000
1000
0100
0010
0001
0110
0000
0001
0010
,
0101
1000
0100
0010
0101
0000
1000
0001
2110
0000
0001
0000
0100
0000
0020
0000
,
0000
0000
0000
0000
3131
0000
0000
0000
0111
0000
0000
0000
1110
0000
0001
0100
,
1010
0000
0001
0000
1010
0000
0200
0300
0000
0000
0200
0300
0200
0300
0001
1000
,
0011
0000
1000
0010
0101
0000
1000
0001
2100
0000
0000
0000
3000
0000
0010
0100
,
0011
1100
1001
0220
0330
1000
0101
0010
,
1100
0000
0020
0000
0000
0000
0031
1000
0012
0000
0000
0000
0000
0000
1003
0010
,
1100
0000
0001
0000
0010
0000
0100
0000
1000
0000
0100
0000
0011
0000
0000
0000
0000
0000
0200
0000
0000
0300
0000
0000
0000
0000
0000
0000
0000
0000
0200
0000
0000
0300
0000
0000
0200
0000
0000
0300
0000
0000
0001
0000
0000
0000
0000
0000
,
0110
0000
2000
0000
0000
3000
0001
0010
2200
0000
0000
0000
3300
0000
0100
0010
,
1001
0110
1001
1110
0000
0001
1000
0100
,
1000
0000
0010
0000
0100
0000
0001
0000
1110
0000
0001
0100
1011
0000
0100
0010
,
1101
0000
0010
1000
0111
0000
1000
0010
1101
0000
0010
0100
0001
0000
1000
0000
,
0010
0000
0100
0000
0001
0000
1000
0000
0011
1000
0100
0000
1010
0000
0001
0000
,
0000
0000
0200
0300
0002
0003
2000
3000
0000
0000
0001
0000
0001
0000
0001
0000
,
0001
0000
0000
0010
0000
0000
1000
0000
0000
0100
0000
0000
1011
0000
0000
0100
0010
0001
0000
0000
0000
1000
0000
0000
,
0000
0000
1100
0000
0000
0000
0110
0000
0000
0000
0001
1000
0001
0000
0100
0000
,
0010
0000
1000
0100
1000
0000
0001
0000
0110
0000
1000
0000
0001
0000
2000
0000
,
0001
0000
0010
3000
0100
0000
0010
0000
0001
0000
0010
0000
0100
0000
1000
0000
0100
0000
1000
0000
0100
0000
0010
0000
0001
0000
0000
0000
0000
0000
0001
0000
0000
0100
0000
0000
0010
0000
0000
0000
0000
0000
1000
0000
0000
0000
0000
0000
,
0001
0000
0100
0000
0010
0000
1000
0000
0111
0000
1000
0001
1110
0000
0100
0010
,
1101
0000
1000
0001
1110
0000
0001
0100
1011
0000
0010
1000
0111
0000
1000
0001
,
1110
0000
0100
0010
1101
0000
0001
0100
1011
0100
0010
0100
1000
0000
0001
0010
,
0100
0010
0001
0010
0100
0000
1000
0100
0010
0000
0001
0000
1000
0000
0002
0000
,
2200
3303
0000
0000
0220
0330
0000
0000
1110
0000
1001
0000
0110
0000
1100
0000
,
2202
3303
0000
0000
0022
0033
0000
0000
1110
0000
0100
0000
0011
0000
1000
0000
,
0110
0000
1000
0000
0011
0000
0100
0000
1100
0001
0010
0100
0010
0000
1000
0100
,
0010
0100
0010
0100
0001
0000
1000
0000
0110
0000
1001
0000
0110
0000
1001
0000
,
0011
0100
1000
0100
0011
0100
1000
0100
0022
0000
0000
0000
0000
0033
0000
0000
,
0000
0000
0000
0000
0000
0000
0000
0000
1000
0100
0010
0001
1000
0100
0010
0001
,
1000
0100
0010
0001
1000
0100
0010
0001
1100
0001
1100
0001
1100
0000
0010
0100
,
1001
0010
0100
1000
0011
0000
1000
0100
1001
0000
0011
0000
1100
0000
0120
0000
,
1100
0000
0000
0030
1100
0000
0001
0000
0000
0000
0001
1000
0011
0000
0100
1000
,
0011
1000
0100
1000
0101
0000
0010
0100
1001
0000
1100
0000
0011
0000
2100
0000
,
0010
0100
3010
0001
0010
0000
1001
0000
0000
0000
1000
0010
1001
0000
0010
0100
,
1010
0100
1001
0010
1001
0000
0010
0100
0011
0000
1000
0000
0010
0000
0002
0000
,
1100
0013
0100
1000
0101
0000
0010
1000
0011
0000
0100
0000
1100
0000
0100
0010
,
1100
0000
0001
0000
1010
0000
0001
1000
0110
0000
1001
0000
1100
0000
0011
0000
,
2110
0000
0000
0000
0101
3000
0000
0000
0011
1000
0011
1000
0011
0000
0100
0010
,
1100
0010
0100
1000
0101
0000
0100
1000
0011
0000
1001
0000
1100
0000
0012
0000
,
1003
0100
0010
0001
1100
0000
0010
0000
0000
0010
0100
0010
1100
0000
0100
0010
,
0101
1000
0100
0010
1001
0000
0001
1000
0110
0000
0011
0000
1100
0000
0120
0000
,
1000
0100
1000
0100
0031
0000
2000
0000
0000
0000
3010
0001
1100
0000
0010
0100
,
0011
0000
1000
0001
0110
0000
1000
0000
0101
0000
0010
0000
1100
0000
0002
0000
,
1000
0010
0103
0000
1000
0010
0100
0001
2020
0000
0200
0000
0000
3330
0010
0100
,
0022
0000
2000
0000
3033
0000
0100
0010
1101
0000
0010
0000
1001
0000
0010
0000
,
1101
0000
0010
0000
0020
0000
1030
0100
1011
0000
0100
0010
0001
0000
1110
0000
,
1110
0000
0001
0010
0100
0000
1011
0000
1011
0000
0100
0000
1011
0000
0100
0000
,
2022
3033
0000
0010
0001
0010
0100
1000
0111
0000
1000
0000
0110
0000
1000
0010
,
1001
0000
0011
0000
0110
0000
2000
3000
0000
0000
2000
3000
2000
3000
0010
0100
,
0010
0000
0100
0000
0011
0000
1000
0100
1012
0000
0000
0003
0000
0000
0100
0001
,
1010
0101
1010
0002
0003
0100
1000
0001
,
1000
0000
0010
0000
0000
0100
0010
0100
2001
0000
0000
0000
3000
0000
1000
0001
,
0100
0000
0010
0000
0100
0000
0010
0000
0100
0000
0010
0000
0100
0000
0000
0000
0000
0000
0022
0000
0000
0033
0000
0000
0000
0000
0000
0000
0000
0000
0022
0000
0000
0033
0000
0000
0022
0000
0000
0033
0000
0000
0100
0000
0000
0000
0000
0000
,
1001
0000
0010
0000
1100
0000
0010
0100
2002
0000
0000
3003
0000
0000
0100
1000
,
0011
0011
0011
1011
0000
0100
0100
0100
,
0100
0000
0001
0000
1000
0000
0010
0100
1011
0000
0100
1000
0111
0000
0001
0100
,
1011
0000
1000
0100
1011
0000
0010
1000
0111
0000
1000
0001
1000
0000
0010
0000
,
1000
0001
0100
0010
1100
0010
0101
2000
,
0000
3000
0022
0033
0220
0330
2200
3300
0000
0000
0001
0000
0001
0000
0001
0000
,
0001
0000
0000
0000
0000
0000
1000
0000
0000
0100
0000
0000
0010
0000
0000
0000
0000
0000
1000
0000
0000
0000
0000
0000
0111
0000
0000
0000
0000
0000
0000
0000
0100
0000
0010
0000
0001
0000
0000
0000
0000
0000
1000
0000
0000
0000
0000
0000
,
0000
0000
0001
0000
0000
0000
0100
0000
0000
0000
1000
0010
1001
0000
0100
0000
,
0011
0000
0000
1000
0000
0000
0110
0000
0000
0100
0000
0000
0101
0000
0000
1000
0100
0010
0000
0000
0000
1000
0000
0000
,
0001
0000
0010
0000
0100
0000
1000
0000
0100
0000
0010
0000
0100
0000
1000
0000
0100
0000
0010
0000
0001
0000
0010
0000
0100
0000
0000
0000
0000
0000
0010
0000
0000
0100
0000
0000
1000
0000
0000
0000
0000
0000
0001
0000
0000
0000
0000
0000
,
0100
0000
1000
0000
0110
0000
0001
0010
1100
0000
0001
0100
1011
0000
0100
0010
,
1101
0000
1000
0001
1110
0000
0001
0100
1011
0000
0010
0100
1011
0000
0100
1000
,
0111
0000
0100
0010
1101
0000
0010
0000
1110
0001
0010
0001
0010
0000
1000
0100
,
0010
0001
0010
0100
1001
0000
0100
0010
0101
0000
0110
0000
1100
0000
0012
0000
,
2220
0000
3333
0000
2220
3330
0000
0000
0222
0333
0100
0000
1001
0000
0100
0000
,
1100
1000
1001
0001
0101
0100
0110
0010
,
1010
0000
1000
0000
1100
0000
0002
0000
1000
0100
0010
0100
1000
0000
0100
1000
,
0100
0010
0100
1000
0100
0000
1000
0010
1100
0000
0010
0000
1100
0000
0010
0000
,
1000
0100
0010
0100
1000
0100
0010
0100
1013
0000
0000
0000
0000
0000
0000
0000
,
0000
0000
0000
0000
0000
0000
0000
0000
1000
0100
0010
0001
1000
0100
0010
0001
,
1000
0100
0010
0001
1000
0100
0010
0001
1100
0000
0001
0010
1100
0010
0000
0100
,
1001
0010
0100
0010
1001
0000
0100
0010
1100
0000
0110
0000
0011
0000
0110
0000
,
0001
0010
0100
0000
1001
0000
0010
0001
1100
0000
0100
0010
1001
0000
0100
0001
,
1100
0010
0001
0010
1100
0000
0010
0001
0110
0000
1100
0000
0110
0000
0012
0000
,
0100
0013
0100
1000
0100
0010
0001
0100
1001
0000
0010
1000
0011
0000
1000
0100
,
0011
0000
0110
0001
1100
0000
0001
0100
1011
0000
0110
0000
0011
0000
2100
0000
,
0001
0010
3100
0000
0100
0010
0001
0000
1100
0000
0002
0000
0003
0000
1100
0001
,
1100
0000
0002
0000
0003
0000
0100
0010
1100
0000
0011
0000
0110
0000
1100
0000
,
0012
1000
0100
0010
0100
0003
1000
0000
0011
1000
0011
1000
0011
0000
0100
0001
,
1100
0010
0001
0010
1100
0000
0010
0100
1001
0000
0011
0000
0110
0000
2100
0000
,
0001
0010
3100
0000
0001
0000
0200
0000
0000
0300
0001
0010
1101
0000
0100
0001
,
1110
0001
0100
0010
1001
0000
0100
0010
1100
0000
0011
0000
0110
0000
2100
0000
,
0001
0010
3001
0010
0100
0000
0020
0000
0030
0000
1100
0011
1100
0000
0110
1001
,
0110
1000
0011
0100
1001
0000
0011
0000
2000
3000
0010
0000
0100
0000
0002
0000
,
0100
1000
0103
0010
1001
0000
0001
0100
1001
0000
1001
0000
0000
0000
1000
0010
,
0101
0000
0101
0000
0000
0000
0100
0010
1001
0000
0010
0000
0001
0000
0100
0000
,
1100
0000
0011
0000
2100
0000
0000
3000
0111
0000
1000
0100
0010
0000
0111
0000
,
0111
0000
1000
0100
0010
0000
0111
0000
0111
0000
1000
0000
0111
0000
1000
0000
,
0111
0000
1000
0100
0010
0001
0010
0100
1011
0000
0000
0000
1110
0000
0011
1000
,
0011
0000
0100
0000
1010
0000
0002
0000
0000
0003
0220
0330
0022
0033
2200
0000
,
3300
0000
0001
0010
0100
0010
0100
1000
0111
1000
0100
0010
0100
0000
0100
0010
,
1100
0001
0100
0010
0001
0000
0010
0000
1100
0000
0110
0000
0011
0000
0110
0000
,
1000
0100
0010
0000
0001
0010
0100
1000
0121
0000
0000
0000
0030
0000
1100
0011
,
1100
0110
1001
0222
0333
0110
1100
0222
,
0333
0000
1000
0100
0010
0100
0010
0001
1110
0001
0010
0100
1000
0000
0100
0010
,
0100
0010
0001
0010
1100
0000
0100
1000
0101
0000
1010
0000
0101
0000
2010
0000
,
3011
0100
1000
0100
0011
0100
1000
0100
1011
0000
0000
0000
0000
0000
0000
0000
;
